  0
SECTION
  2
HEADER
  9
$ACADVER
  1
AC1018
  9
$ACADMAINTVER
 70
     0
  9
$DWGCODEPAGE
  3
UNDEFINED
  9
$INSBASE
 10
0.0
 20
0.0
 30
0.0
  9
$EXTMIN
 10
1.000000000000000E+20
 20
1.000000000000000E+20
 30
1.000000000000000E+20
  9
$EXTMAX
 10
-1.000000000000000E+20
 20
-1.000000000000000E+20
 30
-1.000000000000000E+20
  9
$LIMMIN
 10
0.0
 20
0.0
  9
$LIMMAX
 10
12.0
 20
9.0
  9
$ORTHOMODE
 70
     0
  9
$REGENMODE
 70
     1
  9
$FILLMODE
 70
     1
  9
$QTEXTMODE
 70
     0
  9
$MIRRTEXT
 70
     1
  9
$LTSCALE
 40
1.0
  9
$ATTMODE
 70
     1
  9
$TEXTSIZE
 40
0.2
  9
$TRACEWID
 40
0.05
  9
$TEXTSTYLE
  7
Standard
  9
$CLAYER
  8
0
  9
$CELTYPE
  6
ByLayer
  9
$CECOLOR
 62
   256
  9
$CELTSCALE
 40
1.0
  9
$DISPSILH
 70
     0
  9
$DIMSCALE
 40
1.0
  9
$DIMASZ
 40
0.18
  9
$DIMEXO
 40
0.0625
  9
$DIMDLI
 40
0.38
  9
$DIMRND
 40
0.0
  9
$DIMDLE
 40
0.0
  9
$DIMEXE
 40
0.18
  9
$DIMTP
 40
0.0
  9
$DIMTM
 40
0.0
  9
$DIMTXT
 40
0.18
  9
$DIMCEN
 40
0.09
  9
$DIMTSZ
 40
0.0
  9
$DIMTOL
 70
     0
  9
$DIMLIM
 70
     0
  9
$DIMTIH
 70
     1
  9
$DIMTOH
 70
     1
  9
$DIMSE1
 70
     0
  9
$DIMSE2
 70
     0
  9
$DIMTAD
 70
     0
  9
$DIMZIN
 70
     0
  9
$DIMBLK
  1

  9
$DIMASO
 70
     1
  9
$DIMSHO
 70
     1
  9
$DIMPOST
  1

  9
$DIMAPOST
  1

  9
$DIMALT
 70
     0
  9
$DIMALTD
 70
     2
  9
$DIMALTF
 40
25.4
  9
$DIMLFAC
 40
1.0
  9
$DIMTOFL
 70
     0
  9
$DIMTVP
 40
0.0
  9
$DIMTIX
 70
     0
  9
$DIMSOXD
 70
     0
  9
$DIMSAH
 70
     0
  9
$DIMBLK1
  1

  9
$DIMBLK2
  1

  9
$DIMSTYLE
  2
Standard
  9
$DIMCLRD
 70
     0
  9
$DIMCLRE
 70
     0
  9
$DIMCLRT
 70
     0
  9
$DIMTFAC
 40
1.0
  9
$DIMGAP
 40
0.09
  9
$DIMJUST
 70
     0
  9
$DIMSD1
 70
     0
  9
$DIMSD2
 70
     0
  9
$DIMTOLJ
 70
     1
  9
$DIMTZIN
 70
     0
  9
$DIMALTZ
 70
     0
  9
$DIMALTTZ
 70
     0
  9
$DIMUPT
 70
     0
  9
$DIMDEC
 70
     4
  9
$DIMTDEC
 70
     4
  9
$DIMALTU
 70
     2
  9
$DIMALTTD
 70
     2
  9
$DIMTXSTY
  7
Standard
  9
$DIMAUNIT
 70
     0
  9
$DIMADEC
 70
     0
  9
$DIMALTRND
 40
0.0
  9
$DIMAZIN
 70
     0
  9
$DIMDSEP
 70
    46
  9
$DIMATFIT
 70
     3
  9
$DIMFRAC
 70
     0
  9
$DIMLDRBLK
  1

  9
$DIMLUNIT
 70
     2
  9
$DIMLWD
 70
    -2
  9
$DIMLWE
 70
    -2
  9
$DIMTMOVE
 70
     0
  9
$LUNITS
 70
     2
  9
$LUPREC
 70
     4
  9
$SKETCHINC
 40
0.1
  9
$FILLETRAD
 40
0.5
  9
$AUNITS
 70
     0
  9
$AUPREC
 70
     0
  9
$MENU
  1
.
  9
$ELEVATION
 40
0.0
  9
$PELEVATION
 40
0.0
  9
$THICKNESS
 40
0.0
  9
$LIMCHECK
 70
     0
  9
$CHAMFERA
 40
0.5
  9
$CHAMFERB
 40
0.5
  9
$CHAMFERC
 40
1.0
  9
$CHAMFERD
 40
0.0
  9
$SKPOLY
 70
     0
  9
$TDCREATE
 40
2454898.803344907
  9
$TDUCREATE
 40
2454899.136678241
  9
$TDUPDATE
 40
2454898.803344919
  9
$TDUUPDATE
 40
2454899.136678252
  9
$TDINDWG
 40
0.0000000116
  9
$TDUSRTIMER
 40
0.0000000116
  9
$USRTIMER
 70
     1
  9
$ANGBASE
 50
0.0
  9
$ANGDIR
 70
     0
  9
$PDMODE
 70
     0
  9
$PDSIZE
 40
0.0
  9
$PLINEWID
 40
0.0
  9
$SPLFRAME
 70
     0
  9
$SPLINETYPE
 70
     6
  9
$SPLINESEGS
 70
     8
  9
$HANDSEED
  5
422
  9
$SURFTAB1
 70
     6
  9
$SURFTAB2
 70
     6
  9
$SURFTYPE
 70
     6
  9
$SURFU
 70
     6
  9
$SURFV
 70
     6
  9
$UCSBASE
  2

  9
$UCSNAME
  2

  9
$UCSORG
 10
0.0
 20
0.0
 30
0.0
  9
$UCSXDIR
 10
1.0
 20
0.0
 30
0.0
  9
$UCSYDIR
 10
0.0
 20
1.0
 30
0.0
  9
$UCSORTHOREF
  2

  9
$UCSORTHOVIEW
 70
     0
  9
$UCSORGTOP
 10
0.0
 20
0.0
 30
0.0
  9
$UCSORGBOTTOM
 10
0.0
 20
0.0
 30
0.0
  9
$UCSORGLEFT
 10
0.0
 20
0.0
 30
0.0
  9
$UCSORGRIGHT
 10
0.0
 20
0.0
 30
0.0
  9
$UCSORGFRONT
 10
0.0
 20
0.0
 30
0.0
  9
$UCSORGBACK
 10
0.0
 20
0.0
 30
0.0
  9
$PUCSBASE
  2

  9
$PUCSNAME
  2

  9
$PUCSORG
 10
0.0
 20
0.0
 30
0.0
  9
$PUCSXDIR
 10
1.0
 20
0.0
 30
0.0
  9
$PUCSYDIR
 10
0.0
 20
1.0
 30
0.0
  9
$PUCSORTHOREF
  2

  9
$PUCSORTHOVIEW
 70
     0
  9
$PUCSORGTOP
 10
0.0
 20
0.0
 30
0.0
  9
$PUCSORGBOTTOM
 10
0.0
 20
0.0
 30
0.0
  9
$PUCSORGLEFT
 10
0.0
 20
0.0
 30
0.0
  9
$PUCSORGRIGHT
 10
0.0
 20
0.0
 30
0.0
  9
$PUCSORGFRONT
 10
0.0
 20
0.0
 30
0.0
  9
$PUCSORGBACK
 10
0.0
 20
0.0
 30
0.0
  9
$USERI1
 70
     0
  9
$USERI2
 70
     0
  9
$USERI3
 70
     0
  9
$USERI4
 70
     0
  9
$USERI5
 70
     0
  9
$USERR1
 40
0.0
  9
$USERR2
 40
0.0
  9
$USERR3
 40
0.0
  9
$USERR4
 40
0.0
  9
$USERR5
 40
0.0
  9
$WORLDVIEW
 70
     1
  9
$SHADEDGE
 70
     3
  9
$SHADEDIF
 70
    70
  9
$TILEMODE
 70
     1
  9
$MAXACTVP
 70
    64
  9
$PINSBASE
 10
0.0
 20
0.0
 30
0.0
  9
$PLIMCHECK
 70
     0
  9
$PEXTMIN
 10
1.000000000000000E+20
 20
1.000000000000000E+20
 30
1.000000000000000E+20
  9
$PEXTMAX
 10
-1.000000000000000E+20
 20
-1.000000000000000E+20
 30
-1.000000000000000E+20
  9
$PLIMMIN
 10
0.0
 20
0.0
  9
$PLIMMAX
 10
12.0
 20
9.0
  9
$UNITMODE
 70
     0
  9
$VISRETAIN
 70
     1
  9
$PLINEGEN
 70
     0
  9
$PSLTSCALE
 70
     1
  9
$TREEDEPTH
 70
  3020
  9
$CMLSTYLE
  2
Standard
  9
$CMLJUST
 70
     0
  9
$CMLSCALE
 40
1.0
  9
$PROXYGRAPHICS
 70
     1
  9
$MEASUREMENT
 70
     0
  9
$CELWEIGHT
370
    -1
  9
$ENDCAPS
280
     0
  9
$JOINSTYLE
280
     0
  9
$LWDISPLAY
290
     0
  9
$INSUNITS
 70
     1
  9
$HYPERLINKBASE
  1

  9
$STYLESHEET
  1

  9
$XEDIT
290
     1
  9
$CEPSNTYPE
380
     0
  9
$PSTYLEMODE
290
     1
  9
$FINGERPRINTGUID
  2
{9BF93D5C-9CB4-73B9-516F-960C25282C2C}
  9
$VERSIONGUID
  2
{FAEB1C32-E019-11D5-929B-00C0DF256EC4}
  9
$EXTNAMES
290
     1
  9
$PSVPSCALE
 40
0.0
  9
$OLESTARTUP
290
     0
  9
$SORTENTS
280
   127
  9
$INDEXCTL
280
     0
  9
$HIDETEXT
280
     1
  9
$XCLIPFRAME
290
     0
  9
$HALOGAP
280
     0
  9
$OBSCOLOR
 70
   257
  9
$OBSLTYPE
280
     0
  9
$INTERSECTIONDISPLAY
280
     0
  9
$INTERSECTIONCOLOR
 70
   257
  9
$DIMASSOC
280
     2
  9
$PROJECTNAME
  1

  0
ENDSEC
  0
SECTION
  2
CLASSES
  0
CLASS
  1
ACDBDICTIONARYWDFLT
  2
AcDbDictionaryWithDefault
  3
ObjectDBX Classes
 90
        0
 91
        4
280
     0
281
     0
  0
CLASS
  1
VISUALSTYLE
  2
AcDbVisualStyle
  3
ObjectDBX Classes
 90
     4095
 91
        4
280
     0
281
     0
  0
CLASS
  1
SCALE
  2
AcDbScale
  3
ObjectDBX Classes
 90
     1153
 91
        4
280
     0
281
     0
  0
CLASS
  1
DICTIONARYVAR
  2
AcDbDictionaryVar
  3
ObjectDBX Classes
 90
        0
 91
        4
280
     0
281
     0
  0
ENDSEC
  0
SECTION
  2
TABLES
  0
TABLE
  2
VPORT
  5
8
330
0
100
AcDbSymbolTable
 70
     1
  0
VPORT
  5
29
330
8
100
AcDbSymbolTableRecord
100
AcDbViewportTableRecord
  2
*Active
 70
     0
 10
0.0
 20
0.0
 11
1.0
 21
1.0
 12
10.42990654205607
 22
4.5
 13
0.0
 23
0.0
 14
0.5
 24
0.5
 15
0.5
 25
0.5
 16
0.0
 26
0.0
 36
1.0
 17
0.0
 27
0.0
 37
0.0
 40
9.0
 41
1.972972972850329
 42
50.0
 43
0.0
 44
0.0
 50
0.0
 51
0.0
 71
     0
 72
   100
 73
     1
 74
     3
 75
     0
 76
     0
 77
     0
 78
     0
281
     0
 65
     1
110
0.0
120
0.0
130
0.0
111
1.0
121
0.0
131
0.0
112
0.0
122
1.0
132
0.0
 79
     0
146
0.0
  0
ENDTAB
  0
TABLE
  2
LTYPE
  5
5
330
0
100
AcDbSymbolTable
 70
    11
  0
LTYPE
  5
14
330
5
100
AcDbSymbolTableRecord
100
AcDbLinetypeTableRecord
  2
ByBlock
 70
     0
  3

 72
    65
 73
     0
 40
0.0
  0
LTYPE
  5
15
330
5
100
AcDbSymbolTableRecord
100
AcDbLinetypeTableRecord
  2
ByLayer
 70
     0
  3

 72
    65
 73
     0
 40
0.0
  0
LTYPE
  5
16
330
5
100
AcDbSymbolTableRecord
100
AcDbLinetypeTableRecord
  2
Continuous
 70
     0
  3
Solid line
 72
    65
 73
     0
 40
0.0
  0
LTYPE
  5
60
330
5
100
AcDbSymbolTableRecord
100
AcDbLinetypeTableRecord
  2
Stitch_G
 70
     0
  3
Graphite's line style                   
 72
    65
 73
     2
 40
1.159999966621399
 49
0.5799999833106995
 74
     0
 49
-0.5799999833106995
 74
     0
  0
LTYPE
  5
61
330
5
100
AcDbSymbolTableRecord
100
AcDbLinetypeTableRecord
  2
Cutting_G
 70
     0
  3
Graphite's line style                   
 72
    65
 73
     6
 40
11.7399999499321
 49
8.0
 74
     0
 49
-0.5799999833106995
 74
     0
 49
1.0
 74
     0
 49
-0.5799999833106995
 74
     0
 49
1.0
 74
     0
 49
-0.5799999833106995
 74
     0
  0
LTYPE
  5
62
330
5
100
AcDbSymbolTableRecord
100
AcDbLinetypeTableRecord
  2
Divide_G
 70
     0
  3
Graphite's line style                   
 72
    65
 73
     6
 40
6.239999949932098
 49
4.0
 74
     0
 49
-0.5799999833106995
 74
     0
 49
0.25
 74
     0
 49
-0.5799999833106995
 74
     0
 49
0.25
 74
     0
 49
-0.5799999833106995
 74
     0
  0
LTYPE
  5
63
330
5
100
AcDbSymbolTableRecord
100
AcDbLinetypeTableRecord
  2
Border_G
 70
     0
  3
Graphite's line style                   
 72
    65
 73
     6
 40
9.989999949932098
 49
4.0
 74
     0
 49
-0.5799999833106995
 74
     0
 49
4.0
 74
     0
 49
-0.5799999833106995
 74
     0
 49
0.25
 74
     0
 49
-0.5799999833106995
 74
     0
  0
LTYPE
  5
64
330
5
100
AcDbSymbolTableRecord
100
AcDbLinetypeTableRecord
  2
Dashdot_G
 70
     0
  3
Graphite's line style                   
 72
    65
 73
     4
 40
5.409999966621399
 49
4.0
 74
     0
 49
-0.5799999833106995
 74
     0
 49
0.25
 74
     0
 49
-0.5799999833106995
 74
     0
  0
LTYPE
  5
65
330
5
100
AcDbSymbolTableRecord
100
AcDbLinetypeTableRecord
  2
Phantom_G
 70
     0
  3
Graphite's line style                   
 72
    65
 73
     6
 40
7.739999949932098
 49
4.0
 74
     0
 49
-0.5799999833106995
 74
     0
 49
1.0
 74
     0
 49
-0.5799999833106995
 74
     0
 49
1.0
 74
     0
 49
-0.5799999833106995
 74
     0
  0
LTYPE
  5
66
330
5
100
AcDbSymbolTableRecord
100
AcDbLinetypeTableRecord
  2
Hidden_G
 70
     0
  3
Graphite's line style                   
 72
    65
 73
     2
 40
1.579999983310699
 49
1.0
 74
     0
 49
-0.5799999833106995
 74
     0
  0
LTYPE
  5
67
330
5
100
AcDbSymbolTableRecord
100
AcDbLinetypeTableRecord
  2
Dashed_G
 70
     0
  3
Graphite's line style                   
 72
    65
 73
     2
 40
3.0
 49
2.0
 74
     0
 49
-1.0
 74
     0
  0
LTYPE
  5
68
330
5
100
AcDbSymbolTableRecord
100
AcDbLinetypeTableRecord
  2
Center_G
 70
     0
  3
Graphite's line style                   
 72
    65
 73
     4
 40
6.159999966621399
 49
4.0
 74
     0
 49
-0.5799999833106995
 74
     0
 49
1.0
 74
     0
 49
-0.5799999833106995
 74
     0
  0
LTYPE
  5
69
330
5
100
AcDbSymbolTableRecord
100
AcDbLinetypeTableRecord
  2
Dotted_G
 70
     0
  3

 72
    65
 73
     2
 40
0.1001
 49
0.0001
 74
     0
 49
-0.1
 74
     2
 75
     0
340
0
 46
0.0
 50
0.0
 44
0.0
 45
0.0
  9
.
  0
ENDTAB
  0
TABLE
  2
LAYER
  5
2
330
0
100
AcDbSymbolTable
 70
     6
  0
LAYER
  5
10
330
2
100
AcDbSymbolTableRecord
100
AcDbLayerTableRecord
  2
0
 70
     0
 62
     7
  6
Continuous
370
    -3
390
F
  0
LAYER
  5
6A
330
2
100
AcDbSymbolTableRecord
100
AcDbLayerTableRecord
  2
Layer1
 70
     0
 62
     7
  6
Continuous
370
    -3
390
F
  0
LAYER
  5
6B
330
2
100
AcDbSymbolTableRecord
100
AcDbLayerTableRecord
  2
Construction
 70
     0
 62
     7
  6
Continuous
370
    -3
390
F
  0
LAYER
  5
6C
330
2
100
AcDbSymbolTableRecord
100
AcDbLayerTableRecord
  2
Dimension
 70
     0
 62
     7
  6
Continuous
370
    -3
390
F
  0
LAYER
  5
6D
330
2
100
AcDbSymbolTableRecord
100
AcDbLayerTableRecord
  2
Constraints
 70
     0
 62
     7
  6
Continuous
370
    -3
390
F
  0
LAYER
  5
91
330
2
100
AcDbSymbolTableRecord
100
AcDbLayerTableRecord
  2
Defpoints
 70
     0
 62
     7
  6
Continuous
290
     0
370
    -3
390
F
  0
ENDTAB
  0
TABLE
  2
STYLE
  5
3
330
0
100
AcDbSymbolTable
 70
     4
  0
STYLE
  5
11
330
3
100
AcDbSymbolTableRecord
100
AcDbTextStyleTableRecord
  2
Standard
 70
     0
 40
0.0
 41
1.0
 50
0.0
 71
     0
 42
0.2
  3
txt
  4

  0
STYLE
  5
3B
330
3
100
AcDbSymbolTableRecord
100
AcDbTextStyleTableRecord
  2
OdaShxStyle
 70
     0
 40
0.0
 41
1.0
 50
0.0
 71
     0
 42
0.2
  3
txt
  4

  0
STYLE
  5
3C
330
3
100
AcDbSymbolTableRecord
100
AcDbTextStyleTableRecord
  2
OdaTtfStyle
 70
     0
 40
0.0
 41
1.0
 50
0.0
 71
     0
 42
0.2
  3
VERDANA.TTF
  4

1001
ACAD
1000
Verdana
1071
       34
  0
STYLE
  5
3D
330
3
100
AcDbSymbolTableRecord
100
AcDbTextStyleTableRecord
  2

 70
     1
 40
0.0
 41
1.0
 50
0.0
 71
     0
 42
22.45
  3
ltypeshp.shx
  4

  0
ENDTAB
  0
TABLE
  2
VIEW
  5
6
330
0
100
AcDbSymbolTable
 70
     0
  0
ENDTAB
  0
TABLE
  2
UCS
  5
7
330
0
100
AcDbSymbolTable
 70
     0
  0
ENDTAB
  0
TABLE
  2
APPID
  5
9
330
0
100
AcDbSymbolTable
 70
     1
  0
APPID
  5
12
330
9
100
AcDbSymbolTableRecord
100
AcDbRegAppTableRecord
  2
ACAD
 70
     0
  0
ENDTAB
  0
TABLE
  2
DIMSTYLE
  5
A
330
0
100
AcDbSymbolTable
 70
     9
100
AcDbDimStyleTable
  0
DIMSTYLE
105
27
330
A
100
AcDbSymbolTableRecord
100
AcDbDimStyleTableRecord
  2
Standard
 70
     0
340
11
  0
DIMSTYLE
105
3E
102
{ACAD_REACTORS
330
6E
330
A3
330
B1
330
BF
330
CD
330
DB
330
E9
330
FA
330
109
330
117
330
128
330
139
330
14C
330
15A
330
168
330
176
330
184
330
1A4
330
1B2
330
1C1
330
1D6
330
1E6
330
1F4
330
202
330
210
330
21E
330
22F
330
23E
330
256
330
264
330
272
330
280
330
28E
330
29C
330
2AC
330
2BB
330
2C9
330
2D9
330
2E7
330
2F5
330
306
330
314
330
322
330
330
330
341
330
352
330
360
330
36E
330
382
330
392
330
3A7
330
3B6
330
3C4
330
3D2
330
3E3
330
3F2
330
400
330
40E
102
}
330
A
100
AcDbSymbolTableRecord
100
AcDbDimStyleTableRecord
  2
OdaDimStyle0
 70
     0
340
11
  0
DIMSTYLE
105
3F
330
A
100
AcDbSymbolTableRecord
100
AcDbDimStyleTableRecord
  2
OdaDimStyle1
 70
     0
340
11
  0
DIMSTYLE
105
40
330
A
100
AcDbSymbolTableRecord
100
AcDbDimStyleTableRecord
  2
OdaDimStyle2
 70
     0
340
11
342
41
  0
DIMSTYLE
105
47
330
A
100
AcDbSymbolTableRecord
100
AcDbDimStyleTableRecord
  2
OdaDimStyle3
 70
     0
340
11
342
48
  0
DIMSTYLE
105
4B
330
A
100
AcDbSymbolTableRecord
100
AcDbDimStyleTableRecord
  2
OdaDimStyle4
 70
     0
340
11
342
4C
  0
DIMSTYLE
105
50
330
A
100
AcDbSymbolTableRecord
100
AcDbDimStyleTableRecord
  2
OdaDimStyle5
 70
     0
340
11
  0
DIMSTYLE
105
51
330
A
100
AcDbSymbolTableRecord
100
AcDbDimStyleTableRecord
  2
OdaDimStyle6
 70
     0
340
11
342
52
  0
DIMSTYLE
105
5A
330
A
100
AcDbSymbolTableRecord
100
AcDbDimStyleTableRecord
  2
OdaDimStyle7
 70
     0
340
11
342
5B
  0
ENDTAB
  0
TABLE
  2
BLOCK_RECORD
  5
1
330
0
100
AcDbSymbolTable
 70
    64
  0
BLOCK_RECORD
  5
1F
330
1
100
AcDbSymbolTableRecord
100
AcDbBlockTableRecord
  2
*Model_Space
340
22
  0
BLOCK_RECORD
  5
1B
330
1
100
AcDbSymbolTableRecord
100
AcDbBlockTableRecord
  2
*Paper_Space
340
1E
  0
BLOCK_RECORD
  5
23
330
1
100
AcDbSymbolTableRecord
100
AcDbBlockTableRecord
  2
*Paper_Space0
340
26
  0
BLOCK_RECORD
  5
41
330
1
100
AcDbSymbolTableRecord
100
AcDbBlockTableRecord
  2
_CLOSEDBLANK
340
0
  0
BLOCK_RECORD
  5
48
330
1
100
AcDbSymbolTableRecord
100
AcDbBlockTableRecord
  2
_NONE
340
0
  0
BLOCK_RECORD
  5
4C
330
1
100
AcDbSymbolTableRecord
100
AcDbBlockTableRecord
  2
_OBLIQUE
340
0
  0
BLOCK_RECORD
  5
52
330
1
100
AcDbSymbolTableRecord
100
AcDbBlockTableRecord
  2
_DOT
340
0
  0
BLOCK_RECORD
  5
5B
330
1
100
AcDbSymbolTableRecord
100
AcDbBlockTableRecord
  2
_DOTBLANK
340
0
  0
BLOCK_RECORD
  5
92
330
1
100
AcDbSymbolTableRecord
100
AcDbBlockTableRecord
  2
*D6
340
0
  0
BLOCK_RECORD
  5
A4
330
1
100
AcDbSymbolTableRecord
100
AcDbBlockTableRecord
  2
*D7
340
0
  0
BLOCK_RECORD
  5
B2
330
1
100
AcDbSymbolTableRecord
100
AcDbBlockTableRecord
  2
*D8
340
0
  0
BLOCK_RECORD
  5
C0
330
1
100
AcDbSymbolTableRecord
100
AcDbBlockTableRecord
  2
*D9
340
0
  0
BLOCK_RECORD
  5
CE
330
1
100
AcDbSymbolTableRecord
100
AcDbBlockTableRecord
  2
*D10
340
0
  0
BLOCK_RECORD
  5
DC
330
1
100
AcDbSymbolTableRecord
100
AcDbBlockTableRecord
  2
*D11
340
0
  0
BLOCK_RECORD
  5
EA
330
1
100
AcDbSymbolTableRecord
100
AcDbBlockTableRecord
  2
*D12
340
0
  0
BLOCK_RECORD
  5
FB
330
1
100
AcDbSymbolTableRecord
100
AcDbBlockTableRecord
  2
*D13
340
0
  0
BLOCK_RECORD
  5
10A
330
1
100
AcDbSymbolTableRecord
100
AcDbBlockTableRecord
  2
*D14
340
0
  0
BLOCK_RECORD
  5
118
330
1
100
AcDbSymbolTableRecord
100
AcDbBlockTableRecord
  2
*D15
340
0
  0
BLOCK_RECORD
  5
129
330
1
100
AcDbSymbolTableRecord
100
AcDbBlockTableRecord
  2
*D16
340
0
  0
BLOCK_RECORD
  5
13A
330
1
100
AcDbSymbolTableRecord
100
AcDbBlockTableRecord
  2
*D17
340
0
  0
BLOCK_RECORD
  5
14D
330
1
100
AcDbSymbolTableRecord
100
AcDbBlockTableRecord
  2
*D18
340
0
  0
BLOCK_RECORD
  5
15B
330
1
100
AcDbSymbolTableRecord
100
AcDbBlockTableRecord
  2
*D19
340
0
  0
BLOCK_RECORD
  5
169
330
1
100
AcDbSymbolTableRecord
100
AcDbBlockTableRecord
  2
*D20
340
0
  0
BLOCK_RECORD
  5
177
330
1
100
AcDbSymbolTableRecord
100
AcDbBlockTableRecord
  2
*D21
340
0
  0
BLOCK_RECORD
  5
185
330
1
100
AcDbSymbolTableRecord
100
AcDbBlockTableRecord
  2
*D22
340
0
  0
BLOCK_RECORD
  5
1A5
330
1
100
AcDbSymbolTableRecord
100
AcDbBlockTableRecord
  2
*D23
340
0
  0
BLOCK_RECORD
  5
1B3
330
1
100
AcDbSymbolTableRecord
100
AcDbBlockTableRecord
  2
*D24
340
0
  0
BLOCK_RECORD
  5
1C2
330
1
100
AcDbSymbolTableRecord
100
AcDbBlockTableRecord
  2
*D25
340
0
  0
BLOCK_RECORD
  5
1D7
330
1
100
AcDbSymbolTableRecord
100
AcDbBlockTableRecord
  2
*D26
340
0
  0
BLOCK_RECORD
  5
1E7
330
1
100
AcDbSymbolTableRecord
100
AcDbBlockTableRecord
  2
*D27
340
0
  0
BLOCK_RECORD
  5
1F5
330
1
100
AcDbSymbolTableRecord
100
AcDbBlockTableRecord
  2
*D28
340
0
  0
BLOCK_RECORD
  5
203
330
1
100
AcDbSymbolTableRecord
100
AcDbBlockTableRecord
  2
*D29
340
0
  0
BLOCK_RECORD
  5
211
330
1
100
AcDbSymbolTableRecord
100
AcDbBlockTableRecord
  2
*D30
340
0
  0
BLOCK_RECORD
  5
21F
330
1
100
AcDbSymbolTableRecord
100
AcDbBlockTableRecord
  2
*D31
340
0
  0
BLOCK_RECORD
  5
230
330
1
100
AcDbSymbolTableRecord
100
AcDbBlockTableRecord
  2
*D32
340
0
  0
BLOCK_RECORD
  5
23F
330
1
100
AcDbSymbolTableRecord
100
AcDbBlockTableRecord
  2
*D33
340
0
  0
BLOCK_RECORD
  5
257
330
1
100
AcDbSymbolTableRecord
100
AcDbBlockTableRecord
  2
*D34
340
0
  0
BLOCK_RECORD
  5
265
330
1
100
AcDbSymbolTableRecord
100
AcDbBlockTableRecord
  2
*D35
340
0
  0
BLOCK_RECORD
  5
273
330
1
100
AcDbSymbolTableRecord
100
AcDbBlockTableRecord
  2
*D36
340
0
  0
BLOCK_RECORD
  5
281
330
1
100
AcDbSymbolTableRecord
100
AcDbBlockTableRecord
  2
*D37
340
0
  0
BLOCK_RECORD
  5
28F
330
1
100
AcDbSymbolTableRecord
100
AcDbBlockTableRecord
  2
*D38
340
0
  0
BLOCK_RECORD
  5
29D
330
1
100
AcDbSymbolTableRecord
100
AcDbBlockTableRecord
  2
*D39
340
0
  0
BLOCK_RECORD
  5
2AD
330
1
100
AcDbSymbolTableRecord
100
AcDbBlockTableRecord
  2
*D40
340
0
  0
BLOCK_RECORD
  5
2BC
330
1
100
AcDbSymbolTableRecord
100
AcDbBlockTableRecord
  2
*D41
340
0
  0
BLOCK_RECORD
  5
2CA
330
1
100
AcDbSymbolTableRecord
100
AcDbBlockTableRecord
  2
*D42
340
0
  0
BLOCK_RECORD
  5
2DA
330
1
100
AcDbSymbolTableRecord
100
AcDbBlockTableRecord
  2
*D43
340
0
  0
BLOCK_RECORD
  5
2E8
330
1
100
AcDbSymbolTableRecord
100
AcDbBlockTableRecord
  2
*D44
340
0
  0
BLOCK_RECORD
  5
2F6
330
1
100
AcDbSymbolTableRecord
100
AcDbBlockTableRecord
  2
*D45
340
0
  0
BLOCK_RECORD
  5
307
330
1
100
AcDbSymbolTableRecord
100
AcDbBlockTableRecord
  2
*D46
340
0
  0
BLOCK_RECORD
  5
315
330
1
100
AcDbSymbolTableRecord
100
AcDbBlockTableRecord
  2
*D47
340
0
  0
BLOCK_RECORD
  5
323
330
1
100
AcDbSymbolTableRecord
100
AcDbBlockTableRecord
  2
*D48
340
0
  0
BLOCK_RECORD
  5
331
330
1
100
AcDbSymbolTableRecord
100
AcDbBlockTableRecord
  2
*D49
340
0
  0
BLOCK_RECORD
  5
342
330
1
100
AcDbSymbolTableRecord
100
AcDbBlockTableRecord
  2
*D50
340
0
  0
BLOCK_RECORD
  5
353
330
1
100
AcDbSymbolTableRecord
100
AcDbBlockTableRecord
  2
*D51
340
0
  0
BLOCK_RECORD
  5
361
330
1
100
AcDbSymbolTableRecord
100
AcDbBlockTableRecord
  2
*D52
340
0
  0
BLOCK_RECORD
  5
36F
330
1
100
AcDbSymbolTableRecord
100
AcDbBlockTableRecord
  2
*D53
340
0
  0
BLOCK_RECORD
  5
383
330
1
100
AcDbSymbolTableRecord
100
AcDbBlockTableRecord
  2
*D54
340
0
  0
BLOCK_RECORD
  5
393
330
1
100
AcDbSymbolTableRecord
100
AcDbBlockTableRecord
  2
*D55
340
0
  0
BLOCK_RECORD
  5
3A8
330
1
100
AcDbSymbolTableRecord
100
AcDbBlockTableRecord
  2
*D56
340
0
  0
BLOCK_RECORD
  5
3B7
330
1
100
AcDbSymbolTableRecord
100
AcDbBlockTableRecord
  2
*D57
340
0
  0
BLOCK_RECORD
  5
3C5
330
1
100
AcDbSymbolTableRecord
100
AcDbBlockTableRecord
  2
*D58
340
0
  0
BLOCK_RECORD
  5
3D3
330
1
100
AcDbSymbolTableRecord
100
AcDbBlockTableRecord
  2
*D59
340
0
  0
BLOCK_RECORD
  5
3E4
330
1
100
AcDbSymbolTableRecord
100
AcDbBlockTableRecord
  2
*D60
340
0
  0
BLOCK_RECORD
  5
3F3
330
1
100
AcDbSymbolTableRecord
100
AcDbBlockTableRecord
  2
*D61
340
0
  0
BLOCK_RECORD
  5
401
330
1
100
AcDbSymbolTableRecord
100
AcDbBlockTableRecord
  2
*D62
340
0
  0
BLOCK_RECORD
  5
40F
330
1
100
AcDbSymbolTableRecord
100
AcDbBlockTableRecord
  2
*D63
340
0
  0
ENDTAB
  0
ENDSEC
  0
SECTION
  2
BLOCKS
  0
BLOCK
  5
20
330
1F
100
AcDbEntity
  8
0
100
AcDbBlockBegin
  2
*Model_Space
 70
     0
 10
0.0
 20
0.0
 30
0.0
  3
*Model_Space
  1

  0
ENDBLK
  5
21
330
1F
100
AcDbEntity
  8
0
100
AcDbBlockEnd
  0
BLOCK
  5
1C
330
1B
100
AcDbEntity
 67
     1
  8
0
100
AcDbBlockBegin
  2
*Paper_Space
 70
     0
 10
0.0
 20
0.0
 30
0.0
  3
*Paper_Space
  1

  0
ENDBLK
  5
1D
330
1B
100
AcDbEntity
 67
     1
  8
0
100
AcDbBlockEnd
  0
BLOCK
  5
24
330
23
100
AcDbEntity
  8
0
100
AcDbBlockBegin
  2
*Paper_Space0
 70
     0
 10
0.0
 20
0.0
 30
0.0
  3
*Paper_Space0
  1

  0
ENDBLK
  5
25
330
23
100
AcDbEntity
  8
0
100
AcDbBlockEnd
  0
BLOCK
  5
42
330
41
100
AcDbEntity
  8
0
100
AcDbBlockBegin
  2
_CLOSEDBLANK
 70
     0
 10
0.0
 20
0.0
 30
0.0
  3
_CLOSEDBLANK
  1

  0
LINE
  5
44
330
41
100
AcDbEntity
  8
0
  6
ByBlock
 62
     0
370
    -2
100
AcDbLine
 10
-1.0
 20
0.166667
 30
0.0
 11
0.0
 21
0.0
 31
0.0
  0
LINE
  5
45
330
41
100
AcDbEntity
  8
0
  6
ByBlock
 62
     0
370
    -2
100
AcDbLine
 10
0.0
 20
0.0
 30
0.0
 11
-1.0
 21
-0.166667
 31
0.0
  0
LINE
  5
46
330
41
100
AcDbEntity
  8
0
  6
ByBlock
 62
     0
370
    -2
100
AcDbLine
 10
-1.0
 20
0.166667
 30
0.0
 11
-1.0
 21
-0.166667
 31
0.0
  0
ENDBLK
  5
43
330
41
100
AcDbEntity
  8
0
100
AcDbBlockEnd
  0
BLOCK
  5
49
330
48
100
AcDbEntity
  8
0
100
AcDbBlockBegin
  2
_NONE
 70
     0
 10
0.0
 20
0.0
 30
0.0
  3
_NONE
  1

  0
ENDBLK
  5
4A
330
48
100
AcDbEntity
  8
0
100
AcDbBlockEnd
  0
BLOCK
  5
4D
330
4C
100
AcDbEntity
  8
0
100
AcDbBlockBegin
  2
_OBLIQUE
 70
     0
 10
0.0
 20
0.0
 30
0.0
  3
_OBLIQUE
  1

  0
LINE
  5
4F
330
4C
100
AcDbEntity
  8
0
  6
ByBlock
 62
     0
370
    -2
100
AcDbLine
 10
-0.5
 20
-0.5
 30
0.0
 11
0.5
 21
0.5
 31
0.0
  0
ENDBLK
  5
4E
330
4C
100
AcDbEntity
  8
0
100
AcDbBlockEnd
  0
BLOCK
  5
53
330
52
100
AcDbEntity
  8
0
100
AcDbBlockBegin
  2
_DOT
 70
     0
 10
0.0
 20
0.0
 30
0.0
  3
_DOT
  1

  0
POLYLINE
  5
55
330
52
100
AcDbEntity
  8
0
  6
ByBlock
 62
     0
100
AcDb2dPolyline
 66
     1
 10
0.0
 20
0.0
 30
0.0
 70
     1
 40
0.5
 41
0.5
  0
VERTEX
  5
57
330
55
100
AcDbEntity
  8
0
  6
ByBlock
 62
     0
100
AcDbVertex
100
AcDb2dVertex
 10
-0.25
 20
0.0
 30
0.0
 42
1.0
  0
VERTEX
  5
58
330
55
100
AcDbEntity
  8
0
  6
ByBlock
 62
     0
100
AcDbVertex
100
AcDb2dVertex
 10
0.25
 20
0.0
 30
0.0
 42
1.0
  0
SEQEND
  5
59
330
55
100
AcDbEntity
  8
0
  6
ByBlock
 62
     0
  0
LINE
  5
56
330
52
100
AcDbEntity
  8
0
  6
ByBlock
 62
     0
370
    -2
100
AcDbLine
 10
-0.5
 20
0.0
 30
0.0
 11
-1.0
 21
0.0
 31
0.0
  0
ENDBLK
  5
54
330
52
100
AcDbEntity
  8
0
100
AcDbBlockEnd
  0
BLOCK
  5
5C
330
5B
100
AcDbEntity
  8
0
100
AcDbBlockBegin
  2
_DOTBLANK
 70
     0
 10
0.0
 20
0.0
 30
0.0
  3
_DOTBLANK
  1

  0
CIRCLE
  5
5E
330
5B
100
AcDbEntity
  8
0
  6
ByBlock
 62
     0
370
    -2
100
AcDbCircle
 10
0.0
 20
0.0
 30
0.0
 40
0.5
  0
LINE
  5
5F
330
5B
100
AcDbEntity
  8
0
  6
ByBlock
 62
     0
370
    -2
100
AcDbLine
 10
-0.5
 20
0.0
 30
0.0
 11
-1.0
 21
0.0
 31
0.0
  0
ENDBLK
  5
5D
330
5B
100
AcDbEntity
  8
0
100
AcDbBlockEnd
  0
BLOCK
  5
9D
330
92
100
AcDbEntity
  8
0
100
AcDbBlockBegin
  2
*D6
 70
     1
 10
0.0
 20
0.0
 30
0.0
  3
*D6
  1

  0
LINE
  5
93
330
92
100
AcDbEntity
  8
0
 62
     0
370
    -2
100
AcDbLine
 10
11.16176895352725
 20
13.07377460012727
 30
0.0
 11
12.02926895352725
 21
13.07377460012727
 31
0.0
  0
LINE
  5
94
330
92
100
AcDbEntity
  8
0
 62
     0
370
    -2
100
AcDbLine
 10
11.16176895352725
 20
8.573774600127265
 30
0.0
 11
12.02926895352725
 21
8.573774600127265
 31
0.0
  0
LINE
  5
95
330
92
100
AcDbEntity
  8
0
 62
     0
370
    -2
100
AcDbLine
 10
11.84926895352725
 20
12.57377460012727
 30
0.0
 11
11.84926895352725
 21
11.10821904788308
 31
0.0
  0
LINE
  5
96
330
92
100
AcDbEntity
  8
0
 62
     0
370
    -2
100
AcDbLine
 10
11.84926895352725
 20
9.073774600127265
 30
0.0
 11
11.84926895352725
 21
10.53933015237145
 31
0.0
  0
SOLID
  5
97
330
92
100
AcDbEntity
  8
0
 62
     0
100
AcDbTrace
 10
11.93260228686058
 20
12.57377460012727
 30
0.0
 11
11.76593562019392
 21
12.57377460012727
 31
0.0
 12
11.84926895352725
 22
13.07377460012727
 32
0.0
 13
11.84926895352725
 23
13.07377460012727
 33
0.0
  0
SOLID
  5
98
330
92
100
AcDbEntity
  8
0
 62
     0
100
AcDbTrace
 10
11.76593562019392
 20
9.073774600127265
 30
0.0
 11
11.93260228686058
 21
9.073774600127265
 31
0.0
 12
11.84926895352725
 22
8.573774600127265
 32
0.0
 13
11.84926895352725
 23
8.573774600127265
 33
0.0
  0
MTEXT
  5
99
330
92
100
AcDbEntity
  8
0
 62
     0
100
AcDbMText
 10
11.84926895352725
 20
10.82377460012727
 30
0.0
 40
0.3888888955116272
 41
0.0
 71
     5
 72
     1
  1
\A1;4.5000
 73
     1
 44
1.0
  0
POINT
  5
9A
330
92
100
AcDbEntity
  8
Defpoints
 62
     0
100
AcDbPoint
 10
11.09926895352725
 20
13.07377460012727
 30
0.0
  0
POINT
  5
9B
330
92
100
AcDbEntity
  8
Defpoints
 62
     0
100
AcDbPoint
 10
11.09926895352725
 20
8.573774600127265
 30
0.0
  0
POINT
  5
9C
330
92
100
AcDbEntity
  8
Defpoints
 62
     0
100
AcDbPoint
 10
11.84926895352725
 20
8.573774600127265
 30
0.0
  0
ENDBLK
  5
9E
330
92
100
AcDbEntity
  8
0
100
AcDbBlockEnd
  0
BLOCK
  5
AF
330
A4
100
AcDbEntity
  8
0
100
AcDbBlockBegin
  2
*D7
 70
     1
 10
0.0
 20
0.0
 30
0.0
  3
*D7
  1

  0
LINE
  5
A5
330
A4
100
AcDbEntity
  8
0
 62
     0
370
    -2
100
AcDbLine
 10
11.82275609029505
 20
-23.54724510180005
 30
0.0
 11
11.82275609029505
 21
-24.59169823872098
 31
0.0
  0
LINE
  5
A6
330
A4
100
AcDbEntity
  8
0
 62
     0
370
    -2
100
AcDbLine
 10
20.82275609029504
 20
-23.54724510180005
 30
0.0
 11
20.82275609029504
 21
-24.59169823872098
 31
0.0
  0
LINE
  5
A7
330
A4
100
AcDbEntity
  8
0
 62
     0
370
    -2
100
AcDbLine
 10
12.32275609029505
 20
-24.41169823872098
 30
0.0
 11
15.26979311093293
 21
-24.41169823872098
 31
0.0
  0
LINE
  5
A8
330
A4
100
AcDbEntity
  8
0
 62
     0
370
    -2
100
AcDbLine
 10
20.32275609029504
 20
-24.41169823872098
 30
0.0
 11
17.37571906965718
 21
-24.41169823872098
 31
0.0
  0
SOLID
  5
A9
330
A4
100
AcDbEntity
  8
0
 62
     0
100
AcDbTrace
 10
12.32275609029505
 20
-24.32836490538765
 30
0.0
 11
12.32275609029505
 21
-24.49503157205431
 31
0.0
 12
11.82275609029505
 22
-24.41169823872098
 32
0.0
 13
11.82275609029505
 23
-24.41169823872098
 33
0.0
  0
SOLID
  5
AA
330
A4
100
AcDbEntity
  8
0
 62
     0
100
AcDbTrace
 10
20.32275609029504
 20
-24.49503157205431
 30
0.0
 11
20.32275609029504
 21
-24.32836490538765
 31
0.0
 12
20.82275609029504
 22
-24.41169823872098
 32
0.0
 13
20.82275609029504
 23
-24.41169823872098
 33
0.0
  0
MTEXT
  5
AB
330
A4
100
AcDbEntity
  8
0
 62
     0
100
AcDbMText
 10
16.32275609029505
 20
-24.41169823872098
 30
0.0
 40
0.3888888955116272
 41
0.0
 71
     5
 72
     1
  1
\A1;9.0000
 73
     1
 44
1.0
  0
POINT
  5
AC
330
A4
100
AcDbEntity
  8
Defpoints
 62
     0
100
AcDbPoint
 10
11.82275609029505
 20
-23.48474510180005
 30
0.0
  0
POINT
  5
AD
330
A4
100
AcDbEntity
  8
Defpoints
 62
     0
100
AcDbPoint
 10
20.82275609029504
 20
-23.48474510180005
 30
0.0
  0
POINT
  5
AE
330
A4
100
AcDbEntity
  8
Defpoints
 62
     0
100
AcDbPoint
 10
20.82275609029504
 20
-24.41169823872098
 30
0.0
  0
ENDBLK
  5
B0
330
A4
100
AcDbEntity
  8
0
100
AcDbBlockEnd
  0
BLOCK
  5
BD
330
B2
100
AcDbEntity
  8
0
100
AcDbBlockBegin
  2
*D8
 70
     1
 10
0.0
 20
0.0
 30
0.0
  3
*D8
  1

  0
LINE
  5
B3
330
B2
100
AcDbEntity
  8
0
 62
     0
370
    -2
100
AcDbLine
 10
15.76025609029505
 20
-18.98474510180005
 30
0.0
 11
16.62775609029505
 21
-18.98474510180005
 31
0.0
  0
LINE
  5
B4
330
B2
100
AcDbEntity
  8
0
 62
     0
370
    -2
100
AcDbLine
 10
15.76025609029505
 20
-23.48474510180005
 30
0.0
 11
16.62775609029505
 21
-23.48474510180005
 31
0.0
  0
LINE
  5
B5
330
B2
100
AcDbEntity
  8
0
 62
     0
370
    -2
100
AcDbLine
 10
16.44775609029505
 20
-19.48474510180005
 30
0.0
 11
16.44775609029505
 21
-20.95030065404424
 31
0.0
  0
LINE
  5
B6
330
B2
100
AcDbEntity
  8
0
 62
     0
370
    -2
100
AcDbLine
 10
16.44775609029505
 20
-22.98474510180005
 30
0.0
 11
16.44775609029505
 21
-21.51918954955586
 31
0.0
  0
SOLID
  5
B7
330
B2
100
AcDbEntity
  8
0
 62
     0
100
AcDbTrace
 10
16.53108942362838
 20
-19.48474510180005
 30
0.0
 11
16.36442275696172
 21
-19.48474510180005
 31
0.0
 12
16.44775609029505
 22
-18.98474510180005
 32
0.0
 13
16.44775609029505
 23
-18.98474510180005
 33
0.0
  0
SOLID
  5
B8
330
B2
100
AcDbEntity
  8
0
 62
     0
100
AcDbTrace
 10
16.36442275696172
 20
-22.98474510180005
 30
0.0
 11
16.53108942362838
 21
-22.98474510180005
 31
0.0
 12
16.44775609029505
 22
-23.48474510180005
 32
0.0
 13
16.44775609029505
 23
-23.48474510180005
 33
0.0
  0
MTEXT
  5
B9
330
B2
100
AcDbEntity
  8
0
 62
     0
100
AcDbMText
 10
16.44775609029505
 20
-21.23474510180005
 30
0.0
 40
0.3888888955116272
 41
0.0
 71
     5
 72
     1
  1
\A1;4.5000
 73
     1
 44
1.0
  0
POINT
  5
BA
330
B2
100
AcDbEntity
  8
Defpoints
 62
     0
100
AcDbPoint
 10
15.69775609029505
 20
-18.98474510180005
 30
0.0
  0
POINT
  5
BB
330
B2
100
AcDbEntity
  8
Defpoints
 62
     0
100
AcDbPoint
 10
15.69775609029505
 20
-23.48474510180005
 30
0.0
  0
POINT
  5
BC
330
B2
100
AcDbEntity
  8
Defpoints
 62
     0
100
AcDbPoint
 10
16.44775609029505
 20
-23.48474510180005
 30
0.0
  0
ENDBLK
  5
BE
330
B2
100
AcDbEntity
  8
0
100
AcDbBlockEnd
  0
BLOCK
  5
CB
330
C0
100
AcDbEntity
  8
0
100
AcDbBlockBegin
  2
*D9
 70
     1
 10
0.0
 20
0.0
 30
0.0
  3
*D9
  1

  0
LINE
  5
C1
330
C0
100
AcDbEntity
  8
0
 62
     0
370
    -2
100
AcDbLine
 10
14.82275609029505
 20
-18.92224510180005
 30
0.0
 11
14.82275609029505
 21
-18.05474510180005
 31
0.0
  0
LINE
  5
C2
330
C0
100
AcDbEntity
  8
0
 62
     0
370
    -2
100
AcDbLine
 10
17.82275609029504
 20
-18.92224510180005
 30
0.0
 11
17.82275609029504
 21
-18.05474510180005
 31
0.0
  0
LINE
  5
C3
330
C0
100
AcDbEntity
  8
0
 62
     0
370
    -2
100
AcDbLine
 10
14.32275609029505
 20
-18.23474510180005
 30
0.0
 11
13.82275609029505
 21
-18.23474510180005
 31
0.0
  0
LINE
  5
C4
330
C0
100
AcDbEntity
  8
0
 62
     0
370
    -2
100
AcDbLine
 10
18.32275609029504
 20
-18.23474510180005
 30
0.0
 11
18.82275609029504
 21
-18.23474510180005
 31
0.0
  0
SOLID
  5
C5
330
C0
100
AcDbEntity
  8
0
 62
     0
100
AcDbTrace
 10
14.32275609029505
 20
-18.31807843513338
 30
0.0
 11
14.32275609029505
 21
-18.15141176846672
 31
0.0
 12
14.82275609029505
 22
-18.23474510180005
 32
0.0
 13
14.82275609029505
 23
-18.23474510180005
 33
0.0
  0
SOLID
  5
C6
330
C0
100
AcDbEntity
  8
0
 62
     0
100
AcDbTrace
 10
18.32275609029504
 20
-18.15141176846672
 30
0.0
 11
18.32275609029504
 21
-18.31807843513338
 31
0.0
 12
17.82275609029504
 22
-18.23474510180005
 32
0.0
 13
17.82275609029504
 23
-18.23474510180005
 33
0.0
  0
MTEXT
  5
C7
330
C0
100
AcDbEntity
  8
0
 62
     0
100
AcDbMText
 10
16.32275609029505
 20
-18.23474510180005
 30
0.0
 40
0.3888888955116272
 41
0.0
 71
     5
 72
     1
  1
\A1;3.0000
 73
     1
 44
1.0
  0
POINT
  5
C8
330
C0
100
AcDbEntity
  8
Defpoints
 62
     0
100
AcDbPoint
 10
14.82275609029505
 20
-18.98474510180005
 30
0.0
  0
POINT
  5
C9
330
C0
100
AcDbEntity
  8
Defpoints
 62
     0
100
AcDbPoint
 10
17.82275609029504
 20
-18.98474510180005
 30
0.0
  0
POINT
  5
CA
330
C0
100
AcDbEntity
  8
Defpoints
 62
     0
100
AcDbPoint
 10
17.82275609029504
 20
-18.23474510180005
 30
0.0
  0
ENDBLK
  5
CC
330
C0
100
AcDbEntity
  8
0
100
AcDbBlockEnd
  0
BLOCK
  5
D9
330
CE
100
AcDbEntity
  8
0
100
AcDbBlockBegin
  2
*D10
 70
     1
 10
0.0
 20
0.0
 30
0.0
  3
*D10
  1

  0
LINE
  5
CF
330
CE
100
AcDbEntity
  8
0
 62
     0
370
    -2
100
AcDbLine
 10
4.600740709435691
 20
-17.42224510180005
 30
0.0
 11
4.600740709435691
 21
-16.55474510180005
 31
0.0
  0
LINE
  5
D0
330
CE
100
AcDbEntity
  8
0
 62
     0
370
    -2
100
AcDbLine
 10
7.600740709435691
 20
-17.42224510180005
 30
0.0
 11
7.600740709435691
 21
-16.55474510180005
 31
0.0
  0
LINE
  5
D1
330
CE
100
AcDbEntity
  8
0
 62
     0
370
    -2
100
AcDbLine
 10
4.100740709435691
 20
-16.73474510180005
 30
0.0
 11
3.600740709435691
 21
-16.73474510180005
 31
0.0
  0
LINE
  5
D2
330
CE
100
AcDbEntity
  8
0
 62
     0
370
    -2
100
AcDbLine
 10
8.10074070943569
 20
-16.73474510180005
 30
0.0
 11
8.60074070943569
 21
-16.73474510180005
 31
0.0
  0
SOLID
  5
D3
330
CE
100
AcDbEntity
  8
0
 62
     0
100
AcDbTrace
 10
4.100740709435691
 20
-16.81807843513338
 30
0.0
 11
4.100740709435691
 21
-16.65141176846672
 31
0.0
 12
4.600740709435691
 22
-16.73474510180005
 32
0.0
 13
4.600740709435691
 23
-16.73474510180005
 33
0.0
  0
SOLID
  5
D4
330
CE
100
AcDbEntity
  8
0
 62
     0
100
AcDbTrace
 10
8.10074070943569
 20
-16.65141176846672
 30
0.0
 11
8.10074070943569
 21
-16.81807843513338
 31
0.0
 12
7.600740709435691
 22
-16.73474510180005
 32
0.0
 13
7.600740709435691
 23
-16.73474510180005
 33
0.0
  0
MTEXT
  5
D5
330
CE
100
AcDbEntity
  8
0
 62
     0
100
AcDbMText
 10
6.100740709435691
 20
-16.73474510180005
 30
0.0
 40
0.3888888955116272
 41
0.0
 71
     5
 72
     1
  1
\A1;3.0000
 73
     1
 44
1.0
  0
POINT
  5
D6
330
CE
100
AcDbEntity
  8
Defpoints
 62
     0
100
AcDbPoint
 10
4.600740709435691
 20
-17.48474510180005
 30
0.0
  0
POINT
  5
D7
330
CE
100
AcDbEntity
  8
Defpoints
 62
     0
100
AcDbPoint
 10
7.600740709435691
 20
-17.48474510180005
 30
0.0
  0
POINT
  5
D8
330
CE
100
AcDbEntity
  8
Defpoints
 62
     0
100
AcDbPoint
 10
7.600740709435691
 20
-16.73474510180005
 30
0.0
  0
ENDBLK
  5
DA
330
CE
100
AcDbEntity
  8
0
100
AcDbBlockEnd
  0
BLOCK
  5
E7
330
DC
100
AcDbEntity
  8
0
100
AcDbBlockBegin
  2
*D11
 70
     1
 10
0.0
 20
0.0
 30
0.0
  3
*D11
  1

  0
LINE
  5
DD
330
DC
100
AcDbEntity
  8
0
 62
     0
370
    -2
100
AcDbLine
 10
5.538240709435691
 20
-17.48474510180005
 30
0.0
 11
6.40574070943569
 21
-17.48474510180005
 31
0.0
  0
LINE
  5
DE
330
DC
100
AcDbEntity
  8
0
 62
     0
370
    -2
100
AcDbLine
 10
5.538240709435691
 20
-23.48474510180005
 30
0.0
 11
6.40574070943569
 21
-23.48474510180005
 31
0.0
  0
LINE
  5
DF
330
DC
100
AcDbEntity
  8
0
 62
     0
370
    -2
100
AcDbLine
 10
6.225740709435691
 20
-17.98474510180005
 30
0.0
 11
6.225740709435691
 21
-20.20030065404424
 31
0.0
  0
LINE
  5
E0
330
DC
100
AcDbEntity
  8
0
 62
     0
370
    -2
100
AcDbLine
 10
6.225740709435691
 20
-22.98474510180005
 30
0.0
 11
6.225740709435691
 21
-20.76918954955586
 31
0.0
  0
SOLID
  5
E1
330
DC
100
AcDbEntity
  8
0
 62
     0
100
AcDbTrace
 10
6.309074042769024
 20
-17.98474510180005
 30
0.0
 11
6.142407376102358
 21
-17.98474510180005
 31
0.0
 12
6.225740709435691
 22
-17.48474510180005
 32
0.0
 13
6.225740709435691
 23
-17.48474510180005
 33
0.0
  0
SOLID
  5
E2
330
DC
100
AcDbEntity
  8
0
 62
     0
100
AcDbTrace
 10
6.142407376102358
 20
-22.98474510180005
 30
0.0
 11
6.309074042769024
 21
-22.98474510180005
 31
0.0
 12
6.225740709435691
 22
-23.48474510180005
 32
0.0
 13
6.225740709435691
 23
-23.48474510180005
 33
0.0
  0
MTEXT
  5
E3
330
DC
100
AcDbEntity
  8
0
 62
     0
100
AcDbMText
 10
6.225740709435691
 20
-20.48474510180005
 30
0.0
 40
0.3888888955116272
 41
0.0
 71
     5
 72
     1
  1
\A1;6.0000
 73
     1
 44
1.0
  0
POINT
  5
E4
330
DC
100
AcDbEntity
  8
Defpoints
 62
     0
100
AcDbPoint
 10
5.475740709435691
 20
-17.48474510180005
 30
0.0
  0
POINT
  5
E5
330
DC
100
AcDbEntity
  8
Defpoints
 62
     0
100
AcDbPoint
 10
5.475740709435691
 20
-23.48474510180005
 30
0.0
  0
POINT
  5
E6
330
DC
100
AcDbEntity
  8
Defpoints
 62
     0
100
AcDbPoint
 10
6.22574070943569
 20
-23.48474510180005
 30
0.0
  0
ENDBLK
  5
E8
330
DC
100
AcDbEntity
  8
0
100
AcDbBlockEnd
  0
BLOCK
  5
F5
330
EA
100
AcDbEntity
  8
0
100
AcDbBlockBegin
  2
*D12
 70
     1
 10
0.0
 20
0.0
 30
0.0
  3
*D12
  1

  0
LINE
  5
EB
330
EA
100
AcDbEntity
  8
0
 62
     0
370
    -2
100
AcDbLine
 10
1.600740709435691
 20
-23.54724510180005
 30
0.0
 11
1.600740709435691
 21
-24.59169823872098
 31
0.0
  0
LINE
  5
EC
330
EA
100
AcDbEntity
  8
0
 62
     0
370
    -2
100
AcDbLine
 10
10.60074070943569
 20
-23.54724510180005
 30
0.0
 11
10.60074070943569
 21
-24.59169823872098
 31
0.0
  0
LINE
  5
ED
330
EA
100
AcDbEntity
  8
0
 62
     0
370
    -2
100
AcDbLine
 10
2.100740709435691
 20
-24.41169823872098
 30
0.0
 11
5.047777730073566
 21
-24.41169823872098
 31
0.0
  0
LINE
  5
EE
330
EA
100
AcDbEntity
  8
0
 62
     0
370
    -2
100
AcDbLine
 10
10.10074070943569
 20
-24.41169823872098
 30
0.0
 11
7.153703688797815
 21
-24.41169823872098
 31
0.0
  0
SOLID
  5
EF
330
EA
100
AcDbEntity
  8
0
 62
     0
100
AcDbTrace
 10
2.100740709435691
 20
-24.32836490538765
 30
0.0
 11
2.100740709435691
 21
-24.49503157205431
 31
0.0
 12
1.600740709435691
 22
-24.41169823872098
 32
0.0
 13
1.600740709435691
 23
-24.41169823872098
 33
0.0
  0
SOLID
  5
F0
330
EA
100
AcDbEntity
  8
0
 62
     0
100
AcDbTrace
 10
10.10074070943569
 20
-24.49503157205431
 30
0.0
 11
10.10074070943569
 21
-24.32836490538765
 31
0.0
 12
10.60074070943569
 22
-24.41169823872098
 32
0.0
 13
10.60074070943569
 23
-24.41169823872098
 33
0.0
  0
MTEXT
  5
F1
330
EA
100
AcDbEntity
  8
0
 62
     0
100
AcDbMText
 10
6.100740709435691
 20
-24.41169823872098
 30
0.0
 40
0.3888888955116272
 41
0.0
 71
     5
 72
     1
  1
\A1;9.0000
 73
     1
 44
1.0
  0
POINT
  5
F2
330
EA
100
AcDbEntity
  8
Defpoints
 62
     0
100
AcDbPoint
 10
1.600740709435691
 20
-23.48474510180005
 30
0.0
  0
POINT
  5
F3
330
EA
100
AcDbEntity
  8
Defpoints
 62
     0
100
AcDbPoint
 10
10.60074070943569
 20
-23.48474510180005
 30
0.0
  0
POINT
  5
F4
330
EA
100
AcDbEntity
  8
Defpoints
 62
     0
100
AcDbPoint
 10
10.60074070943569
 20
-24.41169823872098
 30
0.0
  0
ENDBLK
  5
F6
330
EA
100
AcDbEntity
  8
0
100
AcDbBlockEnd
  0
BLOCK
  5
106
330
FB
100
AcDbEntity
  8
0
100
AcDbBlockBegin
  2
*D13
 70
     1
 10
0.0
 20
0.0
 30
0.0
  3
*D13
  1

  0
LINE
  5
FC
330
FB
100
AcDbEntity
  8
0
 62
     0
370
    -2
100
AcDbLine
 10
28.91569535358829
 20
14.01248184002567
 30
0.0
 11
29.78319535358829
 21
14.01248184002567
 31
0.0
  0
LINE
  5
FD
330
FB
100
AcDbEntity
  8
0
 62
     0
370
    -2
100
AcDbLine
 10
28.91569535358829
 20
8.012481840025664
 30
0.0
 11
29.78319535358829
 21
8.012481840025664
 31
0.0
  0
LINE
  5
FE
330
FB
100
AcDbEntity
  8
0
 62
     0
370
    -2
100
AcDbLine
 10
29.60319535358829
 20
13.51248184002567
 30
0.0
 11
29.60319535358829
 21
11.29692628778148
 31
0.0
  0
LINE
  5
FF
330
FB
100
AcDbEntity
  8
0
 62
     0
370
    -2
100
AcDbLine
 10
29.60319535358829
 20
8.512481840025664
 30
0.0
 11
29.60319535358829
 21
10.72803739226985
 31
0.0
  0
SOLID
  5
100
330
FB
100
AcDbEntity
  8
0
 62
     0
100
AcDbTrace
 10
29.68652868692162
 20
13.51248184002567
 30
0.0
 11
29.51986202025496
 21
13.51248184002567
 31
0.0
 12
29.60319535358829
 22
14.01248184002567
 32
0.0
 13
29.60319535358829
 23
14.01248184002567
 33
0.0
  0
SOLID
  5
101
330
FB
100
AcDbEntity
  8
0
 62
     0
100
AcDbTrace
 10
29.51986202025496
 20
8.512481840025664
 30
0.0
 11
29.68652868692162
 21
8.512481840025664
 31
0.0
 12
29.60319535358829
 22
8.012481840025664
 32
0.0
 13
29.60319535358829
 23
8.012481840025664
 33
0.0
  0
MTEXT
  5
102
330
FB
100
AcDbEntity
  8
0
 62
     0
100
AcDbMText
 10
29.60319535358829
 20
11.01248184002566
 30
0.0
 40
0.3888888955116272
 41
0.0
 71
     5
 72
     1
  1
\A1;6.0000
 73
     1
 44
1.0
  0
POINT
  5
103
330
FB
100
AcDbEntity
  8
Defpoints
 62
     0
100
AcDbPoint
 10
28.85319535358829
 20
14.01248184002567
 30
0.0
  0
POINT
  5
104
330
FB
100
AcDbEntity
  8
Defpoints
 62
     0
100
AcDbPoint
 10
28.85319535358829
 20
8.012481840025664
 30
0.0
  0
POINT
  5
105
330
FB
100
AcDbEntity
  8
Defpoints
 62
     0
100
AcDbPoint
 10
29.60319535358829
 20
8.012481840025664
 30
0.0
  0
ENDBLK
  5
107
330
FB
100
AcDbEntity
  8
0
100
AcDbBlockEnd
  0
BLOCK
  5
115
330
10A
100
AcDbEntity
  8
0
100
AcDbBlockBegin
  2
*D14
 70
     1
 10
0.0
 20
0.0
 30
0.0
  3
*D14
  1

  0
LINE
  5
10B
330
10A
100
AcDbEntity
  8
0
 62
     0
370
    -2
100
AcDbLine
 10
27.97819535358829
 20
14.07498184002567
 30
0.0
 11
27.97819535358829
 21
14.94248184002567
 31
0.0
  0
LINE
  5
10C
330
10A
100
AcDbEntity
  8
0
 62
     0
370
    -2
100
AcDbLine
 10
30.97819535358829
 20
14.07498184002567
 30
0.0
 11
30.97819535358829
 21
14.94248184002567
 31
0.0
  0
LINE
  5
10D
330
10A
100
AcDbEntity
  8
0
 62
     0
370
    -2
100
AcDbLine
 10
27.47819535358829
 20
14.76248184002567
 30
0.0
 11
26.97819535358829
 21
14.76248184002567
 31
0.0
  0
LINE
  5
10E
330
10A
100
AcDbEntity
  8
0
 62
     0
370
    -2
100
AcDbLine
 10
31.47819535358829
 20
14.76248184002567
 30
0.0
 11
31.97819535358829
 21
14.76248184002567
 31
0.0
  0
SOLID
  5
10F
330
10A
100
AcDbEntity
  8
0
 62
     0
100
AcDbTrace
 10
27.47819535358829
 20
14.67914850669233
 30
0.0
 11
27.47819535358829
 21
14.845815173359
 31
0.0
 12
27.97819535358829
 22
14.76248184002567
 32
0.0
 13
27.97819535358829
 23
14.76248184002567
 33
0.0
  0
SOLID
  5
110
330
10A
100
AcDbEntity
  8
0
 62
     0
100
AcDbTrace
 10
31.47819535358829
 20
14.845815173359
 30
0.0
 11
31.47819535358829
 21
14.67914850669233
 31
0.0
 12
30.97819535358829
 22
14.76248184002567
 32
0.0
 13
30.97819535358829
 23
14.76248184002567
 33
0.0
  0
MTEXT
  5
111
330
10A
100
AcDbEntity
  8
0
 62
     0
100
AcDbMText
 10
29.47819535358829
 20
14.76248184002567
 30
0.0
 40
0.3888888955116272
 41
0.0
 71
     5
 72
     1
  1
\A1;3.0000
 73
     1
 44
1.0
  0
POINT
  5
112
330
10A
100
AcDbEntity
  8
Defpoints
 62
     0
100
AcDbPoint
 10
27.97819535358829
 20
14.01248184002567
 30
0.0
  0
POINT
  5
113
330
10A
100
AcDbEntity
  8
Defpoints
 62
     0
100
AcDbPoint
 10
30.97819535358829
 20
14.01248184002567
 30
0.0
  0
POINT
  5
114
330
10A
100
AcDbEntity
  8
Defpoints
 62
     0
100
AcDbPoint
 10
30.97819535358829
 20
14.76248184002567
 30
0.0
  0
ENDBLK
  5
116
330
10A
100
AcDbEntity
  8
0
100
AcDbBlockEnd
  0
BLOCK
  5
123
330
118
100
AcDbEntity
  8
0
100
AcDbBlockBegin
  2
*D15
 70
     1
 10
0.0
 20
0.0
 30
0.0
  3
*D15
  1

  0
LINE
  5
119
330
118
100
AcDbEntity
  8
0
 62
     0
370
    -2
100
AcDbLine
 10
27.22819535358829
 20
7.949981840025664
 30
0.0
 11
27.22819535358829
 21
6.974701919924499
 31
0.0
  0
LINE
  5
11A
330
118
100
AcDbEntity
  8
0
 62
     0
370
    -2
100
AcDbLine
 10
31.72819535358829
 20
7.949981840025664
 30
0.0
 11
31.72819535358829
 21
6.974701919924499
 31
0.0
  0
LINE
  5
11B
330
118
100
AcDbEntity
  8
0
 62
     0
370
    -2
100
AcDbLine
 10
27.72819535358829
 20
7.154701919924499
 30
0.0
 11
28.42523237422617
 21
7.154701919924499
 31
0.0
  0
LINE
  5
11C
330
118
100
AcDbEntity
  8
0
 62
     0
370
    -2
100
AcDbLine
 10
31.22819535358829
 20
7.154701919924499
 30
0.0
 11
30.53115833295042
 21
7.154701919924499
 31
0.0
  0
SOLID
  5
11D
330
118
100
AcDbEntity
  8
0
 62
     0
100
AcDbTrace
 10
27.72819535358829
 20
7.238035253257832
 30
0.0
 11
27.72819535358829
 21
7.071368586591166
 31
0.0
 12
27.22819535358829
 22
7.154701919924499
 32
0.0
 13
27.22819535358829
 23
7.154701919924499
 33
0.0
  0
SOLID
  5
11E
330
118
100
AcDbEntity
  8
0
 62
     0
100
AcDbTrace
 10
31.22819535358829
 20
7.071368586591166
 30
0.0
 11
31.22819535358829
 21
7.238035253257832
 31
0.0
 12
31.72819535358829
 22
7.154701919924499
 32
0.0
 13
31.72819535358829
 23
7.154701919924499
 33
0.0
  0
MTEXT
  5
11F
330
118
100
AcDbEntity
  8
0
 62
     0
100
AcDbMText
 10
29.47819535358829
 20
7.154701919924499
 30
0.0
 40
0.3888888955116272
 41
0.0
 71
     5
 72
     1
  1
\A1;4.5000
 73
     1
 44
1.0
  0
POINT
  5
120
330
118
100
AcDbEntity
  8
Defpoints
 62
     0
100
AcDbPoint
 10
27.22819535358829
 20
8.012481840025664
 30
0.0
  0
POINT
  5
121
330
118
100
AcDbEntity
  8
Defpoints
 62
     0
100
AcDbPoint
 10
31.72819535358829
 20
8.012481840025664
 30
0.0
  0
POINT
  5
122
330
118
100
AcDbEntity
  8
Defpoints
 62
     0
100
AcDbPoint
 10
31.72819535358829
 20
7.154701919924499
 30
0.0
  0
ENDBLK
  5
124
330
118
100
AcDbEntity
  8
0
100
AcDbBlockEnd
  0
BLOCK
  5
134
330
129
100
AcDbEntity
  8
0
100
AcDbBlockBegin
  2
*D16
 70
     1
 10
0.0
 20
0.0
 30
0.0
  3
*D16
  1

  0
LINE
  5
12A
330
129
100
AcDbEntity
  8
0
 62
     0
370
    -2
100
AcDbLine
 10
10.34926895352725
 20
13.13627460012727
 30
0.0
 11
10.34926895352725
 21
14.00377460012727
 31
0.0
  0
LINE
  5
12B
330
129
100
AcDbEntity
  8
0
 62
     0
370
    -2
100
AcDbLine
 10
13.34926895352725
 20
13.13627460012727
 30
0.0
 11
13.34926895352725
 21
14.00377460012727
 31
0.0
  0
LINE
  5
12C
330
129
100
AcDbEntity
  8
0
 62
     0
370
    -2
100
AcDbLine
 10
9.84926895352725
 20
13.82377460012727
 30
0.0
 11
9.34926895352725
 21
13.82377460012727
 31
0.0
  0
LINE
  5
12D
330
129
100
AcDbEntity
  8
0
 62
     0
370
    -2
100
AcDbLine
 10
13.84926895352725
 20
13.82377460012727
 30
0.0
 11
14.34926895352725
 21
13.82377460012727
 31
0.0
  0
SOLID
  5
12E
330
129
100
AcDbEntity
  8
0
 62
     0
100
AcDbTrace
 10
9.84926895352725
 20
13.74044126679394
 30
0.0
 11
9.84926895352725
 21
13.9071079334606
 31
0.0
 12
10.34926895352725
 22
13.82377460012727
 32
0.0
 13
10.34926895352725
 23
13.82377460012727
 33
0.0
  0
SOLID
  5
12F
330
129
100
AcDbEntity
  8
0
 62
     0
100
AcDbTrace
 10
13.84926895352725
 20
13.9071079334606
 30
0.0
 11
13.84926895352725
 21
13.74044126679394
 31
0.0
 12
13.34926895352725
 22
13.82377460012727
 32
0.0
 13
13.34926895352725
 23
13.82377460012727
 33
0.0
  0
MTEXT
  5
130
330
129
100
AcDbEntity
  8
0
 62
     0
100
AcDbMText
 10
11.84926895352725
 20
13.82377460012727
 30
0.0
 40
0.3888888955116272
 41
0.0
 71
     5
 72
     1
  1
\A1;3.0000
 73
     1
 44
1.0
  0
POINT
  5
131
330
129
100
AcDbEntity
  8
Defpoints
 62
     0
100
AcDbPoint
 10
10.34926895352725
 20
13.07377460012727
 30
0.0
  0
POINT
  5
132
330
129
100
AcDbEntity
  8
Defpoints
 62
     0
100
AcDbPoint
 10
13.34926895352725
 20
13.07377460012727
 30
0.0
  0
POINT
  5
133
330
129
100
AcDbEntity
  8
Defpoints
 62
     0
100
AcDbPoint
 10
13.34926895352725
 20
13.82377460012727
 30
0.0
  0
ENDBLK
  5
135
330
129
100
AcDbEntity
  8
0
100
AcDbBlockEnd
  0
BLOCK
  5
145
330
13A
100
AcDbEntity
  8
0
100
AcDbBlockBegin
  2
*D17
 70
     1
 10
0.0
 20
0.0
 30
0.0
  3
*D17
  1

  0
LINE
  5
13B
330
13A
100
AcDbEntity
  8
0
 62
     0
370
    -2
100
AcDbLine
 10
9.599268953527254
 20
8.511274600127265
 30
0.0
 11
9.599268953527254
 21
7.5359946800261
 31
0.0
  0
LINE
  5
13C
330
13A
100
AcDbEntity
  8
0
 62
     0
370
    -2
100
AcDbLine
 10
14.09926895352725
 20
8.511274600127265
 30
0.0
 11
14.09926895352725
 21
7.5359946800261
 31
0.0
  0
LINE
  5
13D
330
13A
100
AcDbEntity
  8
0
 62
     0
370
    -2
100
AcDbLine
 10
10.09926895352725
 20
7.7159946800261
 30
0.0
 11
10.79630597416513
 21
7.7159946800261
 31
0.0
  0
LINE
  5
13E
330
13A
100
AcDbEntity
  8
0
 62
     0
370
    -2
100
AcDbLine
 10
13.59926895352725
 20
7.7159946800261
 30
0.0
 11
12.90223193288938
 21
7.7159946800261
 31
0.0
  0
SOLID
  5
13F
330
13A
100
AcDbEntity
  8
0
 62
     0
100
AcDbTrace
 10
10.09926895352725
 20
7.799328013359433
 30
0.0
 11
10.09926895352725
 21
7.632661346692767
 31
0.0
 12
9.599268953527254
 22
7.7159946800261
 32
0.0
 13
9.599268953527254
 23
7.7159946800261
 33
0.0
  0
SOLID
  5
140
330
13A
100
AcDbEntity
  8
0
 62
     0
100
AcDbTrace
 10
13.59926895352725
 20
7.632661346692767
 30
0.0
 11
13.59926895352725
 21
7.799328013359433
 31
0.0
 12
14.09926895352725
 22
7.7159946800261
 32
0.0
 13
14.09926895352725
 23
7.7159946800261
 33
0.0
  0
MTEXT
  5
141
330
13A
100
AcDbEntity
  8
0
 62
     0
100
AcDbMText
 10
11.84926895352725
 20
7.7159946800261
 30
0.0
 40
0.3888888955116272
 41
0.0
 71
     5
 72
     1
  1
\A1;4.5000
 73
     1
 44
1.0
  0
POINT
  5
142
330
13A
100
AcDbEntity
  8
Defpoints
 62
     0
100
AcDbPoint
 10
9.599268953527254
 20
8.573774600127265
 30
0.0
  0
POINT
  5
143
330
13A
100
AcDbEntity
  8
Defpoints
 62
     0
100
AcDbPoint
 10
14.09926895352725
 20
8.573774600127265
 30
0.0
  0
POINT
  5
144
330
13A
100
AcDbEntity
  8
Defpoints
 62
     0
100
AcDbPoint
 10
14.09926895352725
 20
7.7159946800261
 30
0.0
  0
ENDBLK
  5
146
330
13A
100
AcDbEntity
  8
0
100
AcDbBlockEnd
  0
BLOCK
  5
158
330
14D
100
AcDbEntity
  8
0
100
AcDbBlockBegin
  2
*D18
 70
     1
 10
0.0
 20
0.0
 30
0.0
  3
*D18
  1

  0
LINE
  5
14E
330
14D
100
AcDbEntity
  8
0
 62
     0
370
    -2
100
AcDbLine
 10
10.53676895352724
 20
-3.801225399872756
 30
0.0
 11
11.40426895352724
 21
-3.801225399872756
 31
0.0
  0
LINE
  5
14F
330
14D
100
AcDbEntity
  8
0
 62
     0
370
    -2
100
AcDbLine
 10
10.53676895352724
 20
-8.301225399872756
 30
0.0
 11
11.40426895352724
 21
-8.301225399872756
 31
0.0
  0
LINE
  5
150
330
14D
100
AcDbEntity
  8
0
 62
     0
370
    -2
100
AcDbLine
 10
11.22426895352724
 20
-4.301225399872756
 30
0.0
 11
11.22426895352724
 21
-5.794558728239036
 31
0.0
  0
LINE
  5
151
330
14D
100
AcDbEntity
  8
0
 62
     0
370
    -2
100
AcDbLine
 10
11.22426895352724
 20
-7.801225399872756
 30
0.0
 11
11.22426895352724
 21
-6.307892071506476
 31
0.0
  0
SOLID
  5
152
330
14D
100
AcDbEntity
  8
0
 62
     0
100
AcDbTrace
 10
11.30760228686057
 20
-4.301225399872756
 30
0.0
 11
11.1409356201939
 21
-4.301225399872756
 31
0.0
 12
11.22426895352724
 22
-3.801225399872756
 32
0.0
 13
11.22426895352724
 23
-3.801225399872756
 33
0.0
  0
SOLID
  5
153
330
14D
100
AcDbEntity
  8
0
 62
     0
100
AcDbTrace
 10
11.1409356201939
 20
-7.801225399872756
 30
0.0
 11
11.30760228686057
 21
-7.801225399872756
 31
0.0
 12
11.22426895352724
 22
-8.301225399872756
 32
0.0
 13
11.22426895352724
 23
-8.301225399872756
 33
0.0
  0
MTEXT
  5
154
330
14D
100
AcDbEntity
  8
0
 62
     0
100
AcDbMText
 10
11.22426895352724
 20
-6.051225399872756
 30
0.0
 40
0.3333333432674408
 41
0.0
 71
     5
 72
     1
  1
\A1;4.5000
 73
     1
 44
1.0
  0
POINT
  5
155
330
14D
100
AcDbEntity
  8
Defpoints
 62
     0
100
AcDbPoint
 10
10.47426895352724
 20
-3.801225399872756
 30
0.0
  0
POINT
  5
156
330
14D
100
AcDbEntity
  8
Defpoints
 62
     0
100
AcDbPoint
 10
10.47426895352724
 20
-8.301225399872756
 30
0.0
  0
POINT
  5
157
330
14D
100
AcDbEntity
  8
Defpoints
 62
     0
100
AcDbPoint
 10
11.22426895352724
 20
-8.301225399872756
 30
0.0
  0
ENDBLK
  5
159
330
14D
100
AcDbEntity
  8
0
100
AcDbBlockEnd
  0
BLOCK
  5
166
330
15B
100
AcDbEntity
  8
0
100
AcDbBlockBegin
  2
*D19
 70
     1
 10
0.0
 20
0.0
 30
0.0
  3
*D19
  1

  0
LINE
  5
15C
330
15B
100
AcDbEntity
  8
0
 62
     0
370
    -2
100
AcDbLine
 10
9.59926895352724
 20
-3.863725399872756
 30
0.0
 11
9.59926895352724
 21
-2.824901847945341
 31
0.0
  0
LINE
  5
15D
330
15B
100
AcDbEntity
  8
0
 62
     0
370
    -2
100
AcDbLine
 10
12.59926895352725
 20
-3.863725399872756
 30
0.0
 11
12.59926895352725
 21
-2.824901847945341
 31
0.0
  0
LINE
  5
15E
330
15B
100
AcDbEntity
  8
0
 62
     0
370
    -2
100
AcDbLine
 10
10.09926895352724
 20
-3.004901847945341
 30
0.0
 11
10.18387210353167
 21
-3.004901847945341
 31
0.0
  0
LINE
  5
15F
330
15B
100
AcDbEntity
  8
0
 62
     0
370
    -2
100
AcDbLine
 10
12.09926895352725
 20
-3.004901847945341
 30
0.0
 11
12.0146658035228
 21
-3.004901847945341
 31
0.0
  0
SOLID
  5
160
330
15B
100
AcDbEntity
  8
0
 62
     0
100
AcDbTrace
 10
10.09926895352724
 20
-2.921568514612007
 30
0.0
 11
10.09926895352724
 21
-3.088235181278674
 31
0.0
 12
9.59926895352724
 22
-3.004901847945341
 32
0.0
 13
9.59926895352724
 23
-3.004901847945341
 33
0.0
  0
SOLID
  5
161
330
15B
100
AcDbEntity
  8
0
 62
     0
100
AcDbTrace
 10
12.09926895352725
 20
-3.088235181278674
 30
0.0
 11
12.09926895352725
 21
-2.921568514612007
 31
0.0
 12
12.59926895352725
 22
-3.004901847945341
 32
0.0
 13
12.59926895352725
 23
-3.004901847945341
 33
0.0
  0
MTEXT
  5
162
330
15B
100
AcDbEntity
  8
0
 62
     0
100
AcDbMText
 10
11.09926895352724
 20
-3.004901847945341
 30
0.0
 40
0.3333333432674408
 41
0.0
 71
     5
 72
     1
  1
\A1;3.0000
 73
     1
 44
1.0
  0
POINT
  5
163
330
15B
100
AcDbEntity
  8
Defpoints
 62
     0
100
AcDbPoint
 10
9.59926895352724
 20
-3.926225399872756
 30
0.0
  0
POINT
  5
164
330
15B
100
AcDbEntity
  8
Defpoints
 62
     0
100
AcDbPoint
 10
12.59926895352725
 20
-3.926225399872756
 30
0.0
  0
POINT
  5
165
330
15B
100
AcDbEntity
  8
Defpoints
 62
     0
100
AcDbPoint
 10
12.59926895352725
 20
-3.004901847945341
 30
0.0
  0
ENDBLK
  5
167
330
15B
100
AcDbEntity
  8
0
100
AcDbBlockEnd
  0
BLOCK
  5
174
330
169
100
AcDbEntity
  8
0
100
AcDbBlockBegin
  2
*D20
 70
     1
 10
0.0
 20
0.0
 30
0.0
  3
*D20
  1

  0
LINE
  5
16A
330
169
100
AcDbEntity
  8
0
 62
     0
370
    -2
100
AcDbLine
 10
12.66091857376676
 20
-3.790950463166171
 30
0.0
 11
13.80415816687316
 21
-3.600410530981768
 31
0.0
  0
LINE
  5
16B
330
169
100
AcDbEntity
  8
0
 62
     0
370
    -2
100
AcDbLine
 10
13.41091857376676
 20
-8.29095046316617
 30
0.0
 11
14.55415816687317
 21
-8.100410530981769
 31
0.0
  0
LINE
  5
16C
330
169
100
AcDbEntity
  8
0
 62
     0
370
    -2
100
AcDbLine
 10
13.70880675423606
 20
-4.123199310612804
 30
0.0
 11
13.96681678376059
 21
-5.671259487760022
 31
0.0
  0
LINE
  5
16D
330
169
100
AcDbEntity
  8
0
 62
     0
370
    -2
100
AcDbLine
 10
14.2944077669307
 20
-7.636805386780662
 30
0.0
 11
14.05237234097183
 21
-6.184592831027462
 31
0.0
  0
SOLID
  5
16E
330
169
100
AcDbEntity
  8
0
 62
     0
100
AcDbTrace
 10
13.79100624788873
 20
-4.109499395004025
 30
0.0
 11
13.62660726058338
 21
-4.136899226221584
 31
0.0
 12
13.62660726058338
 22
-3.630002348696733
 32
0.0
 13
13.62660726058338
 23
-3.630002348696733
 33
0.0
  0
SOLID
  5
16F
330
169
100
AcDbEntity
  8
0
 62
     0
100
AcDbTrace
 10
14.21220827327802
 20
-7.650505302389441
 30
0.0
 11
14.37660726058338
 21
-7.623105471171882
 31
0.0
 12
14.37660726058338
 22
-8.130002348696733
 32
0.0
 13
14.37660726058338
 23
-8.130002348696733
 33
0.0
  0
MTEXT
  5
170
330
169
100
AcDbEntity
  8
0
 62
     0
100
AcDbMText
 10
14.00959456236621
 20
-5.927926159393742
 30
0.0
 40
0.3333333432674408
 41
0.0
 71
     5
 72
     1
  1
\A1;4.5621
 73
     1
 44
1.0
  0
POINT
  5
171
330
169
100
AcDbEntity
  8
Defpoints
 62
     0
100
AcDbPoint
 10
12.59926895352725
 20
-3.801225399872756
 30
0.0
  0
POINT
  5
172
330
169
100
AcDbEntity
  8
Defpoints
 62
     0
100
AcDbPoint
 10
13.34926895352725
 20
-8.301225399872756
 30
0.0
  0
POINT
  5
173
330
169
100
AcDbEntity
  8
Defpoints
 62
     0
100
AcDbPoint
 10
14.37660726058338
 20
-8.130002348696733
 30
0.0
  0
ENDBLK
  5
175
330
169
100
AcDbEntity
  8
0
100
AcDbBlockEnd
  0
BLOCK
  5
182
330
177
100
AcDbEntity
  8
0
100
AcDbBlockBegin
  2
*D21
 70
     1
 10
0.0
 20
0.0
 30
0.0
  3
*D21
  1

  0
LINE
  5
178
330
177
100
AcDbEntity
  8
0
 62
     0
370
    -2
100
AcDbLine
 10
8.84926895352724
 20
-8.363725399872756
 30
0.0
 11
8.84926895352724
 21
-9.353276603804602
 31
0.0
  0
LINE
  5
179
330
177
100
AcDbEntity
  8
0
 62
     0
370
    -2
100
AcDbLine
 10
13.34926895352725
 20
-8.363725399872756
 30
0.0
 11
13.34926895352725
 21
-9.353276603804602
 31
0.0
  0
LINE
  5
17A
330
177
100
AcDbEntity
  8
0
 62
     0
370
    -2
100
AcDbLine
 10
9.34926895352724
 20
-9.173276603804602
 30
0.0
 11
10.30887731783979
 21
-9.173276603804602
 31
0.0
  0
LINE
  5
17B
330
177
100
AcDbEntity
  8
0
 62
     0
370
    -2
100
AcDbLine
 10
12.84926895352725
 20
-9.173276603804602
 30
0.0
 11
12.13967101783092
 21
-9.173276603804602
 31
0.0
  0
SOLID
  5
17C
330
177
100
AcDbEntity
  8
0
 62
     0
100
AcDbTrace
 10
9.34926895352724
 20
-9.089943270471268
 30
0.0
 11
9.34926895352724
 21
-9.256609937137936
 31
0.0
 12
8.84926895352724
 22
-9.173276603804602
 32
0.0
 13
8.84926895352724
 23
-9.173276603804602
 33
0.0
  0
SOLID
  5
17D
330
177
100
AcDbEntity
  8
0
 62
     0
100
AcDbTrace
 10
12.84926895352725
 20
-9.256609937137936
 30
0.0
 11
12.84926895352725
 21
-9.089943270471268
 31
0.0
 12
13.34926895352725
 22
-9.173276603804602
 32
0.0
 13
13.34926895352725
 23
-9.173276603804602
 33
0.0
  0
MTEXT
  5
17E
330
177
100
AcDbEntity
  8
0
 62
     0
100
AcDbMText
 10
11.22427416783535
 20
-9.173276603804602
 30
0.0
 40
0.3333333432674408
 41
0.0
 71
     5
 72
     1
  1
\A1;4.5000
 73
     1
 44
1.0
  0
POINT
  5
17F
330
177
100
AcDbEntity
  8
Defpoints
 62
     0
100
AcDbPoint
 10
8.84926895352724
 20
-8.301225399872756
 30
0.0
  0
POINT
  5
180
330
177
100
AcDbEntity
  8
Defpoints
 62
     0
100
AcDbPoint
 10
13.34926895352725
 20
-8.301225399872756
 30
0.0
  0
POINT
  5
181
330
177
100
AcDbEntity
  8
Defpoints
 62
     0
100
AcDbPoint
 10
13.34926895352725
 20
-9.173276603804602
 30
0.0
  0
ENDBLK
  5
183
330
177
100
AcDbEntity
  8
0
100
AcDbBlockEnd
  0
BLOCK
  5
190
330
185
100
AcDbEntity
  8
0
100
AcDbBlockBegin
  2
*D22
 70
     1
 10
0.0
 20
0.0
 30
0.0
  3
*D22
  1

  0
LINE
  5
186
330
185
100
AcDbEntity
  8
0
 62
     0
370
    -2
100
AcDbLine
 10
18.10501152261859
 20
-6.631131693081494
 30
0.0
 11
18.54024665042939
 21
-7.3815493324794
 31
0.0
  0
LINE
  5
187
330
185
100
AcDbEntity
  8
0
 62
     0
370
    -2
100
AcDbLine
 10
17.88874381579776
 20
-6.756564915966601
 30
0.0
 11
18.32397894360856
 21
-7.506982555364508
 31
0.0
  0
LINE
  5
188
330
185
100
AcDbEntity
  8
0
 62
     0
370
    -2
100
AcDbLine
 10
18.88245586851931
 20
-6.974987097324331
 30
0.0
 11
19.3149732399302
 21
-6.724131115877184
 31
0.0
  0
LINE
  5
189
330
185
100
AcDbEntity
  8
0
 62
     0
370
    -2
100
AcDbLine
 10
17.8011534188767
 20
-7.602132283103733
 30
0.0
 11
17.36863604746581
 21
-7.852988264550881
 31
0.0
  0
SOLID
  5
18A
330
185
100
AcDbEntity
  8
0
 62
     0
100
AcDbTrace
 10
18.84064653827812
 20
-6.902900868755849
 30
0.0
 11
18.9242651987605
 21
-7.047073325892813
 31
0.0
 12
18.44993849710842
 22
-7.225843078771478
 32
0.0
 13
18.44993849710842
 23
-7.225843078771478
 33
0.0
  0
SOLID
  5
18B
330
185
100
AcDbEntity
  8
0
 62
     0
100
AcDbTrace
 10
17.84296274911789
 20
-7.674218511672215
 30
0.0
 11
17.75934408863551
 21
-7.530046054535251
 31
0.0
 12
18.23367079028759
 22
-7.351276301656586
 32
0.0
 13
18.23367079028759
 23
-7.351276301656586
 33
0.0
  0
MTEXT
  5
18C
330
185
100
AcDbEntity
  8
0
 62
     0
100
AcDbMText
 10
18.341804643698
 20
-7.288559690214036
 30
0.0
 40
0.3333333432674408
 41
0.0
 71
     5
 72
     1
  1
\A1;0.2500
 73
     1
 44
1.0
  0
POINT
  5
18D
330
185
100
AcDbEntity
  8
Defpoints
 62
     0
100
AcDbPoint
 10
18.07365452493769
 20
-6.577067021655132
 30
0.0
  0
POINT
  5
18E
330
185
100
AcDbEntity
  8
Defpoints
 62
     0
100
AcDbPoint
 10
17.85738681811686
 20
-6.702500244540239
 30
0.0
  0
POINT
  5
18F
330
185
100
AcDbEntity
  8
Defpoints
 62
     0
100
AcDbPoint
 10
18.23367079028759
 20
-7.351276301656586
 30
0.0
  0
ENDBLK
  5
191
330
185
100
AcDbEntity
  8
0
100
AcDbBlockEnd
  0
BLOCK
  5
1B0
330
1A5
100
AcDbEntity
  8
0
100
AcDbBlockBegin
  2
*D23
 70
     1
 10
0.0
 20
0.0
 30
0.0
  3
*D23
  1

  0
LINE
  5
1A6
330
1A5
100
AcDbEntity
  8
0
 62
     0
370
    -2
100
AcDbLine
 10
-8.3999307172435
 20
13.43000810423482
 30
0.0
 11
-8.3999307172435
 21
14.29750810423482
 31
0.0
  0
LINE
  5
1A7
330
1A5
100
AcDbEntity
  8
0
 62
     0
370
    -2
100
AcDbLine
 10
-5.3999307172435
 20
13.43000810423482
 30
0.0
 11
-5.3999307172435
 21
14.29750810423482
 31
0.0
  0
LINE
  5
1A8
330
1A5
100
AcDbEntity
  8
0
 62
     0
370
    -2
100
AcDbLine
 10
-8.8999307172435
 20
14.11750810423482
 30
0.0
 11
-9.3999307172435
 21
14.11750810423482
 31
0.0
  0
LINE
  5
1A9
330
1A5
100
AcDbEntity
  8
0
 62
     0
370
    -2
100
AcDbLine
 10
-4.8999307172435
 20
14.11750810423482
 30
0.0
 11
-4.3999307172435
 21
14.11750810423482
 31
0.0
  0
SOLID
  5
1AA
330
1A5
100
AcDbEntity
  8
0
 62
     0
100
AcDbTrace
 10
-8.8999307172435
 20
14.03417477090148
 30
0.0
 11
-8.8999307172435
 21
14.20084143756815
 31
0.0
 12
-8.3999307172435
 22
14.11750810423482
 32
0.0
 13
-8.3999307172435
 23
14.11750810423482
 33
0.0
  0
SOLID
  5
1AB
330
1A5
100
AcDbEntity
  8
0
 62
     0
100
AcDbTrace
 10
-4.8999307172435
 20
14.20084143756815
 30
0.0
 11
-4.8999307172435
 21
14.03417477090148
 31
0.0
 12
-5.3999307172435
 22
14.11750810423482
 32
0.0
 13
-5.3999307172435
 23
14.11750810423482
 33
0.0
  0
MTEXT
  5
1AC
330
1A5
100
AcDbEntity
  8
0
 62
     0
100
AcDbMText
 10
-6.8999307172435
 20
14.11750810423482
 30
0.0
 40
0.3888888955116272
 41
0.0
 71
     5
 72
     1
  1
\A1;3.0000
 73
     1
 44
1.0
  0
POINT
  5
1AD
330
1A5
100
AcDbEntity
  8
Defpoints
 62
     0
100
AcDbPoint
 10
-8.3999307172435
 20
13.36750810423482
 30
0.0
  0
POINT
  5
1AE
330
1A5
100
AcDbEntity
  8
Defpoints
 62
     0
100
AcDbPoint
 10
-5.3999307172435
 20
13.36750810423482
 30
0.0
  0
POINT
  5
1AF
330
1A5
100
AcDbEntity
  8
Defpoints
 62
     0
100
AcDbPoint
 10
-5.3999307172435
 20
14.11750810423482
 30
0.0
  0
ENDBLK
  5
1B1
330
1A5
100
AcDbEntity
  8
0
100
AcDbBlockEnd
  0
BLOCK
  5
1BE
330
1B3
100
AcDbEntity
  8
0
100
AcDbBlockBegin
  2
*D24
 70
     1
 10
0.0
 20
0.0
 30
0.0
  3
*D24
  1

  0
LINE
  5
1B4
330
1B3
100
AcDbEntity
  8
0
 62
     0
370
    -2
100
AcDbLine
 10
-9.8999307172435
 20
8.805008104234808
 30
0.0
 11
-9.8999307172435
 21
7.760554979234826
 31
0.0
  0
LINE
  5
1B5
330
1B3
100
AcDbEntity
  8
0
 62
     0
370
    -2
100
AcDbLine
 10
-3.8999307172435
 20
8.805008104234808
 30
0.0
 11
-3.8999307172435
 21
7.760554979234826
 31
0.0
  0
LINE
  5
1B6
330
1B3
100
AcDbEntity
  8
0
 62
     0
370
    -2
100
AcDbLine
 10
-9.3999307172435
 20
7.940554979234825
 30
0.0
 11
-7.94363443718868
 21
7.940554979234825
 31
0.0
  0
LINE
  5
1B7
330
1B3
100
AcDbEntity
  8
0
 62
     0
370
    -2
100
AcDbLine
 10
-4.3999307172435
 20
7.940554979234825
 30
0.0
 11
-5.85622699729832
 21
7.940554979234825
 31
0.0
  0
SOLID
  5
1B8
330
1B3
100
AcDbEntity
  8
0
 62
     0
100
AcDbTrace
 10
-9.3999307172435
 20
8.02388831256816
 30
0.0
 11
-9.3999307172435
 21
7.857221645901492
 31
0.0
 12
-9.8999307172435
 22
7.940554979234825
 32
0.0
 13
-9.8999307172435
 23
7.940554979234825
 33
0.0
  0
SOLID
  5
1B9
330
1B3
100
AcDbEntity
  8
0
 62
     0
100
AcDbTrace
 10
-4.3999307172435
 20
7.857221645901492
 30
0.0
 11
-4.3999307172435
 21
8.02388831256816
 31
0.0
 12
-3.8999307172435
 22
7.940554979234825
 32
0.0
 13
-3.8999307172435
 23
7.940554979234825
 33
0.0
  0
MTEXT
  5
1BA
330
1B3
100
AcDbEntity
  8
0
 62
     0
100
AcDbMText
 10
-6.8999307172435
 20
7.940554979234825
 30
0.0
 40
0.3888888955116272
 41
0.0
 71
     5
 72
     1
  1
\A1;6.0000
 73
     1
 44
1.0
  0
POINT
  5
1BB
330
1B3
100
AcDbEntity
  8
Defpoints
 62
     0
100
AcDbPoint
 10
-9.8999307172435
 20
8.867508104234808
 30
0.0
  0
POINT
  5
1BC
330
1B3
100
AcDbEntity
  8
Defpoints
 62
     0
100
AcDbPoint
 10
-3.8999307172435
 20
8.867508104234808
 30
0.0
  0
POINT
  5
1BD
330
1B3
100
AcDbEntity
  8
Defpoints
 62
     0
100
AcDbPoint
 10
-3.8999307172435
 20
7.940554979234825
 30
0.0
  0
ENDBLK
  5
1BF
330
1B3
100
AcDbEntity
  8
0
100
AcDbBlockEnd
  0
BLOCK
  5
1CD
330
1C2
100
AcDbEntity
  8
0
100
AcDbBlockBegin
  2
*D25
 70
     1
 10
0.0
 20
0.0
 30
0.0
  3
*D25
  1

  0
LINE
  5
1C3
330
1C2
100
AcDbEntity
  8
0
 62
     0
370
    -2
100
AcDbLine
 10
-7.4624307172435
 20
13.36750810423482
 30
0.0
 11
-6.5949307172435
 21
13.36750810423482
 31
0.0
  0
LINE
  5
1C4
330
1C2
100
AcDbEntity
  8
0
 62
     0
370
    -2
100
AcDbLine
 10
-7.4624307172435
 20
8.867508104234808
 30
0.0
 11
-6.594930717243501
 21
8.867508104234808
 31
0.0
  0
LINE
  5
1C5
330
1C2
100
AcDbEntity
  8
0
 62
     0
370
    -2
100
AcDbLine
 10
-6.7749307172435
 20
12.86750810423482
 30
0.0
 11
-6.7749307172435
 21
11.40195255199063
 31
0.0
  0
LINE
  5
1C6
330
1C2
100
AcDbEntity
  8
0
 62
     0
370
    -2
100
AcDbLine
 10
-6.7749307172435
 20
9.367508104234808
 30
0.0
 11
-6.7749307172435
 21
10.833063656479
 31
0.0
  0
SOLID
  5
1C7
330
1C2
100
AcDbEntity
  8
0
 62
     0
100
AcDbTrace
 10
-6.691597383910167
 20
12.86750810423482
 30
0.0
 11
-6.858264050576833
 21
12.86750810423482
 31
0.0
 12
-6.7749307172435
 22
13.36750810423482
 32
0.0
 13
-6.7749307172435
 23
13.36750810423482
 33
0.0
  0
SOLID
  5
1C8
330
1C2
100
AcDbEntity
  8
0
 62
     0
100
AcDbTrace
 10
-6.858264050576834
 20
9.367508104234808
 30
0.0
 11
-6.691597383910167
 21
9.367508104234808
 31
0.0
 12
-6.7749307172435
 22
8.867508104234808
 32
0.0
 13
-6.7749307172435
 23
8.867508104234808
 33
0.0
  0
MTEXT
  5
1C9
330
1C2
100
AcDbEntity
  8
0
 62
     0
100
AcDbMText
 10
-6.7749307172435
 20
11.11750810423482
 30
0.0
 40
0.3888888955116272
 41
0.0
 71
     5
 72
     1
  1
\A1;4.5000
 73
     1
 44
1.0
  0
POINT
  5
1CA
330
1C2
100
AcDbEntity
  8
Defpoints
 62
     0
100
AcDbPoint
 10
-7.5249307172435
 20
13.36750810423482
 30
0.0
  0
POINT
  5
1CB
330
1C2
100
AcDbEntity
  8
Defpoints
 62
     0
100
AcDbPoint
 10
-7.5249307172435
 20
8.867508104234808
 30
0.0
  0
POINT
  5
1CC
330
1C2
100
AcDbEntity
  8
Defpoints
 62
     0
100
AcDbPoint
 10
-6.7749307172435
 20
8.867508104234808
 30
0.0
  0
ENDBLK
  5
1CE
330
1C2
100
AcDbEntity
  8
0
100
AcDbBlockEnd
  0
BLOCK
  5
1E2
330
1D7
100
AcDbEntity
  8
0
100
AcDbBlockBegin
  2
*D26
 70
     1
 10
0.0
 20
0.0
 30
0.0
  3
*D26
  1

  0
LINE
  5
1D8
330
1D7
100
AcDbEntity
  8
0
 62
     0
370
    -2
100
AcDbLine
 10
-8.6499307172435
 20
1.930008104234783
 30
0.0
 11
-8.6499307172435
 21
2.797508104234787
 31
0.0
  0
LINE
  5
1D9
330
1D7
100
AcDbEntity
  8
0
 62
     0
370
    -2
100
AcDbLine
 10
-5.6499307172435
 20
1.930008104234783
 30
0.0
 11
-5.6499307172435
 21
2.797508104234787
 31
0.0
  0
LINE
  5
1DA
330
1D7
100
AcDbEntity
  8
0
 62
     0
370
    -2
100
AcDbLine
 10
-9.1499307172435
 20
2.617508104234787
 30
0.0
 11
-9.6499307172435
 21
2.617508104234787
 31
0.0
  0
LINE
  5
1DB
330
1D7
100
AcDbEntity
  8
0
 62
     0
370
    -2
100
AcDbLine
 10
-5.1499307172435
 20
2.617508104234787
 30
0.0
 11
-4.6499307172435
 21
2.617508104234787
 31
0.0
  0
SOLID
  5
1DC
330
1D7
100
AcDbEntity
  8
0
 62
     0
100
AcDbTrace
 10
-9.1499307172435
 20
2.534174770901453
 30
0.0
 11
-9.1499307172435
 21
2.70084143756812
 31
0.0
 12
-8.6499307172435
 22
2.617508104234787
 32
0.0
 13
-8.6499307172435
 23
2.617508104234787
 33
0.0
  0
SOLID
  5
1DD
330
1D7
100
AcDbEntity
  8
0
 62
     0
100
AcDbTrace
 10
-5.1499307172435
 20
2.70084143756812
 30
0.0
 11
-5.1499307172435
 21
2.534174770901453
 31
0.0
 12
-5.6499307172435
 22
2.617508104234787
 32
0.0
 13
-5.6499307172435
 23
2.617508104234787
 33
0.0
  0
MTEXT
  5
1DE
330
1D7
100
AcDbEntity
  8
0
 62
     0
100
AcDbMText
 10
-7.1499307172435
 20
2.617508104234787
 30
0.0
 40
0.3888888955116272
 41
0.0
 71
     5
 72
     1
  1
\A1;3.0000
 73
     1
 44
1.0
  0
POINT
  5
1DF
330
1D7
100
AcDbEntity
  8
Defpoints
 62
     0
100
AcDbPoint
 10
-8.6499307172435
 20
1.867508104234783
 30
0.0
  0
POINT
  5
1E0
330
1D7
100
AcDbEntity
  8
Defpoints
 62
     0
100
AcDbPoint
 10
-5.6499307172435
 20
1.867508104234783
 30
0.0
  0
POINT
  5
1E1
330
1D7
100
AcDbEntity
  8
Defpoints
 62
     0
100
AcDbPoint
 10
-5.6499307172435
 20
2.617508104234787
 30
0.0
  0
ENDBLK
  5
1E3
330
1D7
100
AcDbEntity
  8
0
100
AcDbBlockEnd
  0
BLOCK
  5
1F2
330
1E7
100
AcDbEntity
  8
0
100
AcDbBlockBegin
  2
*D27
 70
     1
 10
0.0
 20
0.0
 30
0.0
  3
*D27
  1

  0
LINE
  5
1E8
330
1E7
100
AcDbEntity
  8
0
 62
     0
370
    -2
100
AcDbLine
 10
29.7902127208829
 20
-6.97976598906251
 30
0.0
 11
31.2243278297543
 21
-6.800501600453583
 31
0.0
  0
LINE
  5
1E9
330
1E7
100
AcDbEntity
  8
0
 62
     0
370
    -2
100
AcDbLine
 10
30.5402127208829
 20
-12.97976598906251
 30
0.0
 11
31.9743278297543
 21
-12.80050160045358
 31
0.0
  0
LINE
  5
1EA
330
1E7
100
AcDbEntity
  8
0
 62
     0
370
    -2
100
AcDbLine
 10
31.10773517924045
 20
-7.318966791036475
 30
0.0
 11
31.39759251003573
 21
-9.6378254373987
 31
0.0
  0
LINE
  5
1EB
330
1E7
100
AcDbEntity
  8
0
 62
     0
370
    -2
100
AcDbLine
 10
31.73370044465124
 20
-12.3266889143228
 30
0.0
 11
31.46175917794416
 21
-10.15115878066614
 31
0.0
  0
SOLID
  5
1EC
330
1E7
100
AcDbEntity
  8
0
 62
     0
100
AcDbTrace
 10
31.19042500229992
 20
-7.308630563154041
 30
0.0
 11
31.02504535618097
 21
-7.329303018918909
 31
0.0
 12
31.04571781194584
 22
-6.822827852679641
 32
0.0
 13
31.04571781194584
 23
-6.822827852679641
 33
0.0
  0
SOLID
  5
1ED
330
1E7
100
AcDbEntity
  8
0
 62
     0
100
AcDbTrace
 10
31.65101062159177
 20
-12.33702514220524
 30
0.0
 11
31.81639026771071
 21
-12.31635268644037
 31
0.0
 12
31.79571781194584
 22
-12.82282785267964
 32
0.0
 13
31.79571781194584
 23
-12.82282785267964
 33
0.0
  0
MTEXT
  5
1EE
330
1E7
100
AcDbEntity
  8
0
 62
     0
100
AcDbMText
 10
31.42967584398994
 20
-9.89449210903242
 30
0.0
 40
0.3333333432674408
 41
0.0
 71
     5
 72
     1
  1
\A1;6.0467
 73
     1
 44
1.0
  0
POINT
  5
1EF
330
1E7
100
AcDbEntity
  8
Defpoints
 62
     0
100
AcDbPoint
 10
29.72819535358829
 20
-6.987518159974336
 30
0.0
  0
POINT
  5
1F0
330
1E7
100
AcDbEntity
  8
Defpoints
 62
     0
100
AcDbPoint
 10
30.47819535358829
 20
-12.98751815997434
 30
0.0
  0
POINT
  5
1F1
330
1E7
100
AcDbEntity
  8
Defpoints
 62
     0
100
AcDbPoint
 10
31.79571781194584
 20
-12.82282785267964
 30
0.0
  0
ENDBLK
  5
1F3
330
1E7
100
AcDbEntity
  8
0
100
AcDbBlockEnd
  0
BLOCK
  5
200
330
1F5
100
AcDbEntity
  8
0
100
AcDbBlockBegin
  2
*D28
 70
     1
 10
0.0
 20
0.0
 30
0.0
  3
*D28
  1

  0
LINE
  5
1F6
330
1F5
100
AcDbEntity
  8
0
 62
     0
370
    -2
100
AcDbLine
 10
27.66569535358829
 20
-6.987518159974336
 30
0.0
 11
28.53319535358829
 21
-6.987518159974336
 31
0.0
  0
LINE
  5
1F7
330
1F5
100
AcDbEntity
  8
0
 62
     0
370
    -2
100
AcDbLine
 10
27.66569535358829
 20
-12.98751815997434
 30
0.0
 11
28.53319535358829
 21
-12.98751815997434
 31
0.0
  0
LINE
  5
1F8
330
1F5
100
AcDbEntity
  8
0
 62
     0
370
    -2
100
AcDbLine
 10
28.35319535358829
 20
-7.487518159974336
 30
0.0
 11
28.35319535358829
 21
-9.703073712218522
 31
0.0
  0
LINE
  5
1F9
330
1F5
100
AcDbEntity
  8
0
 62
     0
370
    -2
100
AcDbLine
 10
28.35319535358829
 20
-12.48751815997434
 30
0.0
 11
28.35319535358829
 21
-10.27196260773015
 31
0.0
  0
SOLID
  5
1FA
330
1F5
100
AcDbEntity
  8
0
 62
     0
100
AcDbTrace
 10
28.43652868692162
 20
-7.487518159974336
 30
0.0
 11
28.26986202025496
 21
-7.487518159974336
 31
0.0
 12
28.35319535358829
 22
-6.987518159974336
 32
0.0
 13
28.35319535358829
 23
-6.987518159974336
 33
0.0
  0
SOLID
  5
1FB
330
1F5
100
AcDbEntity
  8
0
 62
     0
100
AcDbTrace
 10
28.26986202025496
 20
-12.48751815997434
 30
0.0
 11
28.43652868692162
 21
-12.48751815997434
 31
0.0
 12
28.35319535358829
 22
-12.98751815997434
 32
0.0
 13
28.35319535358829
 23
-12.98751815997434
 33
0.0
  0
MTEXT
  5
1FC
330
1F5
100
AcDbEntity
  8
0
 62
     0
100
AcDbMText
 10
28.35319535358829
 20
-9.987518159974336
 30
0.0
 40
0.3888888955116272
 41
0.0
 71
     5
 72
     1
  1
\A1;6.0000
 73
     1
 44
1.0
  0
POINT
  5
1FD
330
1F5
100
AcDbEntity
  8
Defpoints
 62
     0
100
AcDbPoint
 10
27.60319535358829
 20
-6.987518159974336
 30
0.0
  0
POINT
  5
1FE
330
1F5
100
AcDbEntity
  8
Defpoints
 62
     0
100
AcDbPoint
 10
27.60319535358829
 20
-12.98751815997434
 30
0.0
  0
POINT
  5
1FF
330
1F5
100
AcDbEntity
  8
Defpoints
 62
     0
100
AcDbPoint
 10
28.35319535358829
 20
-12.98751815997434
 30
0.0
  0
ENDBLK
  5
201
330
1F5
100
AcDbEntity
  8
0
100
AcDbBlockEnd
  0
BLOCK
  5
20E
330
203
100
AcDbEntity
  8
0
100
AcDbBlockBegin
  2
*D29
 70
     1
 10
0.0
 20
0.0
 30
0.0
  3
*D29
  1

  0
LINE
  5
204
330
203
100
AcDbEntity
  8
0
 62
     0
370
    -2
100
AcDbLine
 10
26.72819535358829
 20
-6.925018159974336
 30
0.0
 11
26.72819535358829
 21
-6.057518159974322
 31
0.0
  0
LINE
  5
205
330
203
100
AcDbEntity
  8
0
 62
     0
370
    -2
100
AcDbLine
 10
29.72819535358829
 20
-6.925018159974336
 30
0.0
 11
29.72819535358829
 21
-6.057518159974322
 31
0.0
  0
LINE
  5
206
330
203
100
AcDbEntity
  8
0
 62
     0
370
    -2
100
AcDbLine
 10
26.22819535358829
 20
-6.237518159974321
 30
0.0
 11
25.72819535358829
 21
-6.237518159974321
 31
0.0
  0
LINE
  5
207
330
203
100
AcDbEntity
  8
0
 62
     0
370
    -2
100
AcDbLine
 10
30.22819535358829
 20
-6.237518159974321
 30
0.0
 11
30.72819535358829
 21
-6.237518159974321
 31
0.0
  0
SOLID
  5
208
330
203
100
AcDbEntity
  8
0
 62
     0
100
AcDbTrace
 10
26.22819535358829
 20
-6.320851493307655
 30
0.0
 11
26.22819535358829
 21
-6.154184826640988
 31
0.0
 12
26.72819535358829
 22
-6.237518159974321
 32
0.0
 13
26.72819535358829
 23
-6.237518159974321
 33
0.0
  0
SOLID
  5
209
330
203
100
AcDbEntity
  8
0
 62
     0
100
AcDbTrace
 10
30.22819535358829
 20
-6.154184826640988
 30
0.0
 11
30.22819535358829
 21
-6.320851493307655
 31
0.0
 12
29.72819535358829
 22
-6.237518159974321
 32
0.0
 13
29.72819535358829
 23
-6.237518159974321
 33
0.0
  0
MTEXT
  5
20A
330
203
100
AcDbEntity
  8
0
 62
     0
100
AcDbMText
 10
28.22819535358829
 20
-6.237518159974321
 30
0.0
 40
0.3888888955116272
 41
0.0
 71
     5
 72
     1
  1
\A1;3.0000
 73
     1
 44
1.0
  0
POINT
  5
20B
330
203
100
AcDbEntity
  8
Defpoints
 62
     0
100
AcDbPoint
 10
26.72819535358829
 20
-6.987518159974336
 30
0.0
  0
POINT
  5
20C
330
203
100
AcDbEntity
  8
Defpoints
 62
     0
100
AcDbPoint
 10
29.72819535358829
 20
-6.987518159974336
 30
0.0
  0
POINT
  5
20D
330
203
100
AcDbEntity
  8
Defpoints
 62
     0
100
AcDbPoint
 10
29.72819535358829
 20
-6.237518159974321
 30
0.0
  0
ENDBLK
  5
20F
330
203
100
AcDbEntity
  8
0
100
AcDbBlockEnd
  0
BLOCK
  5
21C
330
211
100
AcDbEntity
  8
0
100
AcDbBlockBegin
  2
*D30
 70
     1
 10
0.0
 20
0.0
 30
0.0
  3
*D30
  1

  0
LINE
  5
212
330
211
100
AcDbEntity
  8
0
 62
     0
370
    -2
100
AcDbLine
 10
25.97819535358829
 20
-13.05001815997434
 30
0.0
 11
25.97819535358829
 21
-14.0252980800755
 31
0.0
  0
LINE
  5
213
330
211
100
AcDbEntity
  8
0
 62
     0
370
    -2
100
AcDbLine
 10
30.47819535358829
 20
-13.05001815997434
 30
0.0
 11
30.47819535358829
 21
-14.0252980800755
 31
0.0
  0
LINE
  5
214
330
211
100
AcDbEntity
  8
0
 62
     0
370
    -2
100
AcDbLine
 10
26.47819535358829
 20
-13.8452980800755
 30
0.0
 11
27.17523237422617
 21
-13.8452980800755
 31
0.0
  0
LINE
  5
215
330
211
100
AcDbEntity
  8
0
 62
     0
370
    -2
100
AcDbLine
 10
29.97819535358829
 20
-13.8452980800755
 30
0.0
 11
29.28115833295042
 21
-13.8452980800755
 31
0.0
  0
SOLID
  5
216
330
211
100
AcDbEntity
  8
0
 62
     0
100
AcDbTrace
 10
26.47819535358829
 20
-13.76196474674217
 30
0.0
 11
26.47819535358829
 21
-13.92863141340884
 31
0.0
 12
25.97819535358829
 22
-13.8452980800755
 32
0.0
 13
25.97819535358829
 23
-13.8452980800755
 33
0.0
  0
SOLID
  5
217
330
211
100
AcDbEntity
  8
0
 62
     0
100
AcDbTrace
 10
29.97819535358829
 20
-13.92863141340884
 30
0.0
 11
29.97819535358829
 21
-13.76196474674217
 31
0.0
 12
30.47819535358829
 22
-13.8452980800755
 32
0.0
 13
30.47819535358829
 23
-13.8452980800755
 33
0.0
  0
MTEXT
  5
218
330
211
100
AcDbEntity
  8
0
 62
     0
100
AcDbMText
 10
28.22819535358829
 20
-13.8452980800755
 30
0.0
 40
0.3888888955116272
 41
0.0
 71
     5
 72
     1
  1
\A1;4.5000
 73
     1
 44
1.0
  0
POINT
  5
219
330
211
100
AcDbEntity
  8
Defpoints
 62
     0
100
AcDbPoint
 10
25.97819535358829
 20
-12.98751815997434
 30
0.0
  0
POINT
  5
21A
330
211
100
AcDbEntity
  8
Defpoints
 62
     0
100
AcDbPoint
 10
30.47819535358829
 20
-12.98751815997434
 30
0.0
  0
POINT
  5
21B
330
211
100
AcDbEntity
  8
Defpoints
 62
     0
100
AcDbPoint
 10
30.47819535358829
 20
-13.8452980800755
 30
0.0
  0
ENDBLK
  5
21D
330
211
100
AcDbEntity
  8
0
100
AcDbBlockEnd
  0
BLOCK
  5
22A
330
21F
100
AcDbEntity
  8
0
100
AcDbBlockBegin
  2
*D31
 70
     1
 10
0.0
 20
0.0
 30
0.0
  3
*D31
  1

  0
LINE
  5
220
330
21F
100
AcDbEntity
  8
0
 62
     0
370
    -2
100
AcDbLine
 10
35.37362857060349
 20
-11.72898304645212
 30
0.0
 11
35.70867898834125
 21
-12.52916894208748
 31
0.0
  0
LINE
  5
221
330
21F
100
AcDbEntity
  8
0
 62
     0
370
    -2
100
AcDbLine
 10
35.14302197262655
 20
-11.82554165540375
 30
0.0
 11
35.47807239036432
 21
-12.6257275510391
 31
0.0
  0
LINE
  5
222
330
21F
100
AcDbEntity
  8
0
 62
     0
370
    -2
100
AcDbLine
 10
36.10036068589154
 20
-12.17002350106932
 30
0.0
 11
36.56156293121451
 21
-11.97691086836744
 31
0.0
  0
LINE
  5
223
330
21F
100
AcDbEntity
  8
0
 62
     0
370
    -2
100
AcDbLine
 10
34.94734959726868
 20
-12.65280737542472
 30
0.0
 11
34.48614735194571
 21
-12.84592000812661
 31
0.0
  0
SOLID
  5
224
330
21F
100
AcDbEntity
  8
0
 62
     0
100
AcDbTrace
 10
36.0681752471079
 20
-12.09315646018216
 30
0.0
 11
36.13254612467519
 21
-12.24689054195648
 31
0.0
 12
35.63915844056858
 22
-12.36313613377121
 32
0.0
 13
35.63915844056858
 23
-12.36313613377121
 33
0.0
  0
SOLID
  5
225
330
21F
100
AcDbEntity
  8
0
 62
     0
100
AcDbTrace
 10
34.97953503605233
 20
-12.72967441631188
 30
0.0
 11
34.91516415848503
 21
-12.57594033453756
 31
0.0
 12
35.40855184259164
 22
-12.45969474272284
 32
0.0
 13
35.40855184259164
 23
-12.45969474272284
 33
0.0
  0
MTEXT
  5
226
330
21F
100
AcDbEntity
  8
0
 62
     0
100
AcDbMText
 10
35.5238551415801
 20
-12.41141543824703
 30
0.0
 40
0.3333333432674408
 41
0.0
 71
     5
 72
     1
  1
\A1;0.2500
 73
     1
 44
1.0
  0
POINT
  5
227
330
21F
100
AcDbEntity
  8
Defpoints
 62
     0
100
AcDbPoint
 10
35.34948949151575
 20
-11.67133276578675
 30
0.0
  0
POINT
  5
228
330
21F
100
AcDbEntity
  8
Defpoints
 62
     0
100
AcDbPoint
 10
35.11888289353881
 20
-11.76789137473838
 30
0.0
  0
POINT
  5
229
330
21F
100
AcDbEntity
  8
Defpoints
 62
     0
100
AcDbPoint
 10
35.40855184259164
 20
-12.45969474272284
 30
0.0
  0
ENDBLK
  5
22B
330
21F
100
AcDbEntity
  8
0
100
AcDbBlockEnd
  0
BLOCK
  5
23B
330
230
100
AcDbEntity
  8
0
100
AcDbBlockBegin
  2
*D32
 70
     1
 10
0.0
 20
0.0
 30
0.0
  3
*D32
  1

  0
LINE
  5
231
330
230
100
AcDbEntity
  8
0
 62
     0
370
    -2
100
AcDbLine
 10
-26.29086591367912
 20
-2.546072348507523
 30
0.0
 11
-24.94414455131565
 21
-2.209392007916653
 31
0.0
  0
LINE
  5
232
330
230
100
AcDbEntity
  8
0
 62
     0
370
    -2
100
AcDbLine
 10
-24.79086591367913
 20
-8.546072348507522
 30
0.0
 11
-23.44414455131565
 21
-8.209392007916655
 31
0.0
  0
LINE
  5
233
330
230
100
AcDbEntity
  8
0
 62
     0
370
    -2
100
AcDbLine
 10
-24.99750238882364
 20
-2.738119670495859
 30
0.0
 11
-24.40136669778228
 21
-5.122662434661319
 31
0.0
  0
LINE
  5
234
330
230
100
AcDbEntity
  8
0
 62
     0
370
    -2
100
AcDbLine
 10
-23.74003801385998
 20
-7.767977170350528
 30
0.0
 11
-24.27303336196542
 21
-5.635995777928759
 31
0.0
  0
SOLID
  5
235
330
230
100
AcDbEntity
  8
0
 62
     0
100
AcDbTrace
 10
-24.91665718047819
 20
-2.717908368409498
 30
0.0
 11
-25.07834759716908
 21
-2.75833097258222
 31
0.0
 12
-25.1187702013418
 22
-2.253048420423193
 32
0.0
 13
-25.1187702013418
 23
-2.253048420423193
 33
0.0
  0
SOLID
  5
236
330
230
100
AcDbEntity
  8
0
 62
     0
100
AcDbTrace
 10
-23.82088322220542
 20
-7.788188472436889
 30
0.0
 11
-23.65919280551453
 21
-7.747765868264167
 31
0.0
 12
-23.61877020134181
 22
-8.253048420423195
 32
0.0
 13
-23.61877020134181
 23
-8.253048420423195
 33
0.0
  0
MTEXT
  5
237
330
230
100
AcDbEntity
  8
0
 62
     0
100
AcDbMText
 10
-24.33720002987384
 20
-5.379329106295039
 30
0.0
 40
0.3333333432674408
 41
0.0
 71
     5
 72
     1
  1
\A1;6.1847
 73
     1
 44
1.0
  0
POINT
  5
238
330
230
100
AcDbEntity
  8
Defpoints
 62
     0
100
AcDbPoint
 10
-26.3514998199382
 20
-2.561230825072293
 30
0.0
  0
POINT
  5
239
330
230
100
AcDbEntity
  8
Defpoints
 62
     0
100
AcDbPoint
 10
-24.85149981993821
 20
-8.561230825072293
 30
0.0
  0
POINT
  5
23A
330
230
100
AcDbEntity
  8
Defpoints
 62
     0
100
AcDbPoint
 10
-23.61877020134181
 20
-8.253048420423195
 30
0.0
  0
ENDBLK
  5
23C
330
230
100
AcDbEntity
  8
0
100
AcDbBlockEnd
  0
BLOCK
  5
24A
330
23F
100
AcDbEntity
  8
0
100
AcDbBlockBegin
  2
*D33
 70
     1
 10
0.0
 20
0.0
 30
0.0
  3
*D33
  1

  0
LINE
  5
240
330
23F
100
AcDbEntity
  8
0
 62
     0
370
    -2
100
AcDbLine
 10
-10.1499307172435
 20
-2.69499189576522
 30
0.0
 11
-10.1499307172435
 21
-3.739445020765203
 31
0.0
  0
LINE
  5
241
330
23F
100
AcDbEntity
  8
0
 62
     0
370
    -2
100
AcDbLine
 10
-4.1499307172435
 20
-2.69499189576522
 30
0.0
 11
-4.1499307172435
 21
-3.739445020765203
 31
0.0
  0
LINE
  5
242
330
23F
100
AcDbEntity
  8
0
 62
     0
370
    -2
100
AcDbLine
 10
-9.6499307172435
 20
-3.559445020765203
 30
0.0
 11
-8.193634437188681
 21
-3.559445020765203
 31
0.0
  0
LINE
  5
243
330
23F
100
AcDbEntity
  8
0
 62
     0
370
    -2
100
AcDbLine
 10
-4.6499307172435
 20
-3.559445020765203
 30
0.0
 11
-6.106226997298319
 21
-3.559445020765203
 31
0.0
  0
SOLID
  5
244
330
23F
100
AcDbEntity
  8
0
 62
     0
100
AcDbTrace
 10
-9.6499307172435
 20
-3.47611168743187
 30
0.0
 11
-9.6499307172435
 21
-3.642778354098537
 31
0.0
 12
-10.1499307172435
 22
-3.559445020765203
 32
0.0
 13
-10.1499307172435
 23
-3.559445020765203
 33
0.0
  0
SOLID
  5
245
330
23F
100
AcDbEntity
  8
0
 62
     0
100
AcDbTrace
 10
-4.6499307172435
 20
-3.642778354098537
 30
0.0
 11
-4.6499307172435
 21
-3.47611168743187
 31
0.0
 12
-4.1499307172435
 22
-3.559445020765203
 32
0.0
 13
-4.1499307172435
 23
-3.559445020765203
 33
0.0
  0
MTEXT
  5
246
330
23F
100
AcDbEntity
  8
0
 62
     0
100
AcDbMText
 10
-7.1499307172435
 20
-3.559445020765203
 30
0.0
 40
0.3888888955116272
 41
0.0
 71
     5
 72
     1
  1
\A1;6.0000
 73
     1
 44
1.0
  0
POINT
  5
247
330
23F
100
AcDbEntity
  8
Defpoints
 62
     0
100
AcDbPoint
 10
-10.1499307172435
 20
-2.63249189576522
 30
0.0
  0
POINT
  5
248
330
23F
100
AcDbEntity
  8
Defpoints
 62
     0
100
AcDbPoint
 10
-4.1499307172435
 20
-2.63249189576522
 30
0.0
  0
POINT
  5
249
330
23F
100
AcDbEntity
  8
Defpoints
 62
     0
100
AcDbPoint
 10
-4.1499307172435
 20
-3.559445020765203
 30
0.0
  0
ENDBLK
  5
24B
330
23F
100
AcDbEntity
  8
0
100
AcDbBlockEnd
  0
BLOCK
  5
262
330
257
100
AcDbEntity
  8
0
100
AcDbBlockBegin
  2
*D34
 70
     1
 10
0.0
 20
0.0
 30
0.0
  3
*D34
  1

  0
LINE
  5
258
330
257
100
AcDbEntity
  8
0
 62
     0
370
    -2
100
AcDbLine
 10
-9.657682142126795
 20
-18.84668764737298
 30
0.0
 11
-9.657682142126795
 21
-17.97918764737298
 31
0.0
  0
LINE
  5
259
330
257
100
AcDbEntity
  8
0
 62
     0
370
    -2
100
AcDbLine
 10
-6.657682142126781
 20
-18.84668764737298
 30
0.0
 11
-6.657682142126781
 21
-17.97918764737298
 31
0.0
  0
LINE
  5
25A
330
257
100
AcDbEntity
  8
0
 62
     0
370
    -2
100
AcDbLine
 10
-10.1576821421268
 20
-18.15918764737298
 30
0.0
 11
-10.6576821421268
 21
-18.15918764737298
 31
0.0
  0
LINE
  5
25B
330
257
100
AcDbEntity
  8
0
 62
     0
370
    -2
100
AcDbLine
 10
-6.157682142126781
 20
-18.15918764737298
 30
0.0
 11
-5.657682142126781
 21
-18.15918764737298
 31
0.0
  0
SOLID
  5
25C
330
257
100
AcDbEntity
  8
0
 62
     0
100
AcDbTrace
 10
-10.1576821421268
 20
-18.24252098070631
 30
0.0
 11
-10.1576821421268
 21
-18.07585431403965
 31
0.0
 12
-9.657682142126795
 22
-18.15918764737298
 32
0.0
 13
-9.657682142126795
 23
-18.15918764737298
 33
0.0
  0
SOLID
  5
25D
330
257
100
AcDbEntity
  8
0
 62
     0
100
AcDbTrace
 10
-6.157682142126781
 20
-18.07585431403965
 30
0.0
 11
-6.157682142126781
 21
-18.24252098070631
 31
0.0
 12
-6.657682142126781
 22
-18.15918764737298
 32
0.0
 13
-6.657682142126781
 23
-18.15918764737298
 33
0.0
  0
MTEXT
  5
25E
330
257
100
AcDbEntity
  8
0
 62
     0
100
AcDbMText
 10
-8.157682142126788
 20
-18.15918764737298
 30
0.0
 40
0.3888888955116272
 41
0.0
 71
     5
 72
     1
  1
\A1;3.0000
 73
     1
 44
1.0
  0
POINT
  5
25F
330
257
100
AcDbEntity
  8
Defpoints
 62
     0
100
AcDbPoint
 10
-9.657682142126795
 20
-18.90918764737298
 30
0.0
  0
POINT
  5
260
330
257
100
AcDbEntity
  8
Defpoints
 62
     0
100
AcDbPoint
 10
-6.657682142126781
 20
-18.90918764737298
 30
0.0
  0
POINT
  5
261
330
257
100
AcDbEntity
  8
Defpoints
 62
     0
100
AcDbPoint
 10
-6.657682142126781
 20
-18.15918764737298
 30
0.0
  0
ENDBLK
  5
263
330
257
100
AcDbEntity
  8
0
100
AcDbBlockEnd
  0
BLOCK
  5
270
330
265
100
AcDbEntity
  8
0
100
AcDbBlockBegin
  2
*D35
 70
     1
 10
0.0
 20
0.0
 30
0.0
  3
*D35
  1

  0
LINE
  5
266
330
265
100
AcDbEntity
  8
0
 62
     0
370
    -2
100
AcDbLine
 10
-8.720182142126795
 20
-18.90918764737298
 30
0.0
 11
-7.852682142126788
 21
-18.90918764737298
 31
0.0
  0
LINE
  5
267
330
265
100
AcDbEntity
  8
0
 62
     0
370
    -2
100
AcDbLine
 10
-8.720182142126795
 20
-23.40918764737298
 30
0.0
 11
-7.852682142126788
 21
-23.40918764737298
 31
0.0
  0
LINE
  5
268
330
265
100
AcDbEntity
  8
0
 62
     0
370
    -2
100
AcDbLine
 10
-8.032682142126788
 20
-19.40918764737298
 30
0.0
 11
-8.032682142126788
 21
-20.87474319961717
 31
0.0
  0
LINE
  5
269
330
265
100
AcDbEntity
  8
0
 62
     0
370
    -2
100
AcDbLine
 10
-8.032682142126788
 20
-22.90918764737298
 30
0.0
 11
-8.032682142126788
 21
-21.44363209512879
 31
0.0
  0
SOLID
  5
26A
330
265
100
AcDbEntity
  8
0
 62
     0
100
AcDbTrace
 10
-7.949348808793455
 20
-19.40918764737298
 30
0.0
 11
-8.116015475460122
 21
-19.40918764737298
 31
0.0
 12
-8.032682142126788
 22
-18.90918764737298
 32
0.0
 13
-8.032682142126788
 23
-18.90918764737298
 33
0.0
  0
SOLID
  5
26B
330
265
100
AcDbEntity
  8
0
 62
     0
100
AcDbTrace
 10
-8.116015475460122
 20
-22.90918764737298
 30
0.0
 11
-7.949348808793455
 21
-22.90918764737298
 31
0.0
 12
-8.032682142126788
 22
-23.40918764737298
 32
0.0
 13
-8.032682142126788
 23
-23.40918764737298
 33
0.0
  0
MTEXT
  5
26C
330
265
100
AcDbEntity
  8
0
 62
     0
100
AcDbMText
 10
-8.032682142126788
 20
-21.15918764737298
 30
0.0
 40
0.3888888955116272
 41
0.0
 71
     5
 72
     1
  1
\A1;4.5000
 73
     1
 44
1.0
  0
POINT
  5
26D
330
265
100
AcDbEntity
  8
Defpoints
 62
     0
100
AcDbPoint
 10
-8.782682142126795
 20
-18.90918764737298
 30
0.0
  0
POINT
  5
26E
330
265
100
AcDbEntity
  8
Defpoints
 62
     0
100
AcDbPoint
 10
-8.782682142126795
 20
-23.40918764737298
 30
0.0
  0
POINT
  5
26F
330
265
100
AcDbEntity
  8
Defpoints
 62
     0
100
AcDbPoint
 10
-8.032682142126788
 20
-23.40918764737298
 30
0.0
  0
ENDBLK
  5
271
330
265
100
AcDbEntity
  8
0
100
AcDbBlockEnd
  0
BLOCK
  5
27E
330
273
100
AcDbEntity
  8
0
100
AcDbBlockBegin
  2
*D36
 70
     1
 10
0.0
 20
0.0
 30
0.0
  3
*D36
  1

  0
LINE
  5
274
330
273
100
AcDbEntity
  8
0
 62
     0
370
    -2
100
AcDbLine
 10
-11.90768214212677
 20
-23.47168764737298
 30
0.0
 11
-11.90768214212677
 21
-24.51614078429391
 31
0.0
  0
LINE
  5
275
330
273
100
AcDbEntity
  8
0
 62
     0
370
    -2
100
AcDbLine
 10
-4.407682142126781
 20
-23.47168764737298
 30
0.0
 11
-4.407682142126781
 21
-24.51614078429391
 31
0.0
  0
LINE
  5
276
330
273
100
AcDbEntity
  8
0
 62
     0
370
    -2
100
AcDbLine
 10
-11.40768214212677
 20
-24.33614078429391
 30
0.0
 11
-9.210645121488913
 21
-24.33614078429391
 31
0.0
  0
LINE
  5
277
330
273
100
AcDbEntity
  8
0
 62
     0
370
    -2
100
AcDbLine
 10
-4.907682142126781
 20
-24.33614078429391
 30
0.0
 11
-7.104719162764663
 21
-24.33614078429391
 31
0.0
  0
SOLID
  5
278
330
273
100
AcDbEntity
  8
0
 62
     0
100
AcDbTrace
 10
-11.40768214212677
 20
-24.25280745096058
 30
0.0
 11
-11.40768214212677
 21
-24.41947411762724
 31
0.0
 12
-11.90768214212677
 22
-24.33614078429391
 32
0.0
 13
-11.90768214212677
 23
-24.33614078429391
 33
0.0
  0
SOLID
  5
279
330
273
100
AcDbEntity
  8
0
 62
     0
100
AcDbTrace
 10
-4.907682142126781
 20
-24.41947411762724
 30
0.0
 11
-4.907682142126781
 21
-24.25280745096058
 31
0.0
 12
-4.407682142126781
 22
-24.33614078429391
 32
0.0
 13
-4.407682142126781
 23
-24.33614078429391
 33
0.0
  0
MTEXT
  5
27A
330
273
100
AcDbEntity
  8
0
 62
     0
100
AcDbMText
 10
-8.157682142126788
 20
-24.33614078429391
 30
0.0
 40
0.3888888955116272
 41
0.0
 71
     5
 72
     1
  1
\A1;7.5000
 73
     1
 44
1.0
  0
POINT
  5
27B
330
273
100
AcDbEntity
  8
Defpoints
 62
     0
100
AcDbPoint
 10
-11.90768214212677
 20
-23.40918764737298
 30
0.0
  0
POINT
  5
27C
330
273
100
AcDbEntity
  8
Defpoints
 62
     0
100
AcDbPoint
 10
-4.407682142126781
 20
-23.40918764737298
 30
0.0
  0
POINT
  5
27D
330
273
100
AcDbEntity
  8
Defpoints
 62
     0
100
AcDbPoint
 10
-4.407682142126781
 20
-24.33614078429391
 30
0.0
  0
ENDBLK
  5
27F
330
273
100
AcDbEntity
  8
0
100
AcDbBlockEnd
  0
BLOCK
  5
28C
330
281
100
AcDbEntity
  8
0
100
AcDbBlockBegin
  2
*D37
 70
     1
 10
0.0
 20
0.0
 30
0.0
  3
*D37
  1

  0
LINE
  5
282
330
281
100
AcDbEntity
  8
0
 62
     0
370
    -2
100
AcDbLine
 10
-20.66367375996536
 20
-23.47168764737298
 30
0.0
 11
-20.66367375996536
 21
-24.51614078429391
 31
0.0
  0
LINE
  5
283
330
281
100
AcDbEntity
  8
0
 62
     0
370
    -2
100
AcDbLine
 10
-13.16367375996531
 20
-23.47168764737298
 30
0.0
 11
-13.16367375996531
 21
-24.51614078429391
 31
0.0
  0
LINE
  5
284
330
281
100
AcDbEntity
  8
0
 62
     0
370
    -2
100
AcDbLine
 10
-20.16367375996536
 20
-24.33614078429391
 30
0.0
 11
-17.96663673932747
 21
-24.33614078429391
 31
0.0
  0
LINE
  5
285
330
281
100
AcDbEntity
  8
0
 62
     0
370
    -2
100
AcDbLine
 10
-13.66367375996531
 20
-24.33614078429391
 30
0.0
 11
-15.86071078060322
 21
-24.33614078429391
 31
0.0
  0
SOLID
  5
286
330
281
100
AcDbEntity
  8
0
 62
     0
100
AcDbTrace
 10
-20.16367375996536
 20
-24.25280745096058
 30
0.0
 11
-20.16367375996536
 21
-24.41947411762724
 31
0.0
 12
-20.66367375996536
 22
-24.33614078429391
 32
0.0
 13
-20.66367375996536
 23
-24.33614078429391
 33
0.0
  0
SOLID
  5
287
330
281
100
AcDbEntity
  8
0
 62
     0
100
AcDbTrace
 10
-13.66367375996531
 20
-24.41947411762724
 30
0.0
 11
-13.66367375996531
 21
-24.25280745096058
 31
0.0
 12
-13.16367375996531
 22
-24.33614078429391
 32
0.0
 13
-13.16367375996531
 23
-24.33614078429391
 33
0.0
  0
MTEXT
  5
288
330
281
100
AcDbEntity
  8
0
 62
     0
100
AcDbMText
 10
-16.91367375996535
 20
-24.33614078429391
 30
0.0
 40
0.3888888955116272
 41
0.0
 71
     5
 72
     1
  1
\A1;7.5000
 73
     1
 44
1.0
  0
POINT
  5
289
330
281
100
AcDbEntity
  8
Defpoints
 62
     0
100
AcDbPoint
 10
-20.66367375996536
 20
-23.40918764737298
 30
0.0
  0
POINT
  5
28A
330
281
100
AcDbEntity
  8
Defpoints
 62
     0
100
AcDbPoint
 10
-13.16367375996531
 20
-23.40918764737298
 30
0.0
  0
POINT
  5
28B
330
281
100
AcDbEntity
  8
Defpoints
 62
     0
100
AcDbPoint
 10
-13.16367375996531
 20
-24.33614078429391
 30
0.0
  0
ENDBLK
  5
28D
330
281
100
AcDbEntity
  8
0
100
AcDbBlockEnd
  0
BLOCK
  5
29A
330
28F
100
AcDbEntity
  8
0
100
AcDbBlockBegin
  2
*D38
 70
     1
 10
0.0
 20
0.0
 30
0.0
  3
*D38
  1

  0
LINE
  5
290
330
28F
100
AcDbEntity
  8
0
 62
     0
370
    -2
100
AcDbLine
 10
-17.47617375996535
 20
-17.40918764737298
 30
0.0
 11
-16.60867375996535
 21
-17.40918764737298
 31
0.0
  0
LINE
  5
291
330
28F
100
AcDbEntity
  8
0
 62
     0
370
    -2
100
AcDbLine
 10
-17.47617375996535
 20
-23.40918764737298
 30
0.0
 11
-16.60867375996535
 21
-23.40918764737298
 31
0.0
  0
LINE
  5
292
330
28F
100
AcDbEntity
  8
0
 62
     0
370
    -2
100
AcDbLine
 10
-16.78867375996535
 20
-17.90918764737298
 30
0.0
 11
-16.78867375996535
 21
-20.12474319961717
 31
0.0
  0
LINE
  5
293
330
28F
100
AcDbEntity
  8
0
 62
     0
370
    -2
100
AcDbLine
 10
-16.78867375996535
 20
-22.90918764737298
 30
0.0
 11
-16.78867375996535
 21
-20.69363209512879
 31
0.0
  0
SOLID
  5
294
330
28F
100
AcDbEntity
  8
0
 62
     0
100
AcDbTrace
 10
-16.70534042663202
 20
-17.90918764737298
 30
0.0
 11
-16.87200709329868
 21
-17.90918764737298
 31
0.0
 12
-16.78867375996535
 22
-17.40918764737298
 32
0.0
 13
-16.78867375996535
 23
-17.40918764737298
 33
0.0
  0
SOLID
  5
295
330
28F
100
AcDbEntity
  8
0
 62
     0
100
AcDbTrace
 10
-16.87200709329868
 20
-22.90918764737298
 30
0.0
 11
-16.70534042663202
 21
-22.90918764737298
 31
0.0
 12
-16.78867375996535
 22
-23.40918764737298
 32
0.0
 13
-16.78867375996535
 23
-23.40918764737298
 33
0.0
  0
MTEXT
  5
296
330
28F
100
AcDbEntity
  8
0
 62
     0
100
AcDbMText
 10
-16.78867375996535
 20
-20.40918764737298
 30
0.0
 40
0.3888888955116272
 41
0.0
 71
     5
 72
     1
  1
\A1;6.0000
 73
     1
 44
1.0
  0
POINT
  5
297
330
28F
100
AcDbEntity
  8
Defpoints
 62
     0
100
AcDbPoint
 10
-17.53867375996535
 20
-17.40918764737298
 30
0.0
  0
POINT
  5
298
330
28F
100
AcDbEntity
  8
Defpoints
 62
     0
100
AcDbPoint
 10
-17.53867375996535
 20
-23.40918764737298
 30
0.0
  0
POINT
  5
299
330
28F
100
AcDbEntity
  8
Defpoints
 62
     0
100
AcDbPoint
 10
-16.78867375996535
 20
-23.40918764737298
 30
0.0
  0
ENDBLK
  5
29B
330
28F
100
AcDbEntity
  8
0
100
AcDbBlockEnd
  0
BLOCK
  5
2A8
330
29D
100
AcDbEntity
  8
0
100
AcDbBlockBegin
  2
*D39
 70
     1
 10
0.0
 20
0.0
 30
0.0
  3
*D39
  1

  0
LINE
  5
29E
330
29D
100
AcDbEntity
  8
0
 62
     0
370
    -2
100
AcDbLine
 10
-18.41367375996535
 20
-17.34668764737298
 30
0.0
 11
-18.41367375996535
 21
-16.47918764737295
 31
0.0
  0
LINE
  5
29F
330
29D
100
AcDbEntity
  8
0
 62
     0
370
    -2
100
AcDbLine
 10
-15.41367375996534
 20
-17.34668764737298
 30
0.0
 11
-15.41367375996534
 21
-16.47918764737295
 31
0.0
  0
LINE
  5
2A0
330
29D
100
AcDbEntity
  8
0
 62
     0
370
    -2
100
AcDbLine
 10
-18.91367375996535
 20
-16.65918764737295
 30
0.0
 11
-19.41367375996535
 21
-16.65918764737295
 31
0.0
  0
LINE
  5
2A1
330
29D
100
AcDbEntity
  8
0
 62
     0
370
    -2
100
AcDbLine
 10
-14.91367375996534
 20
-16.65918764737295
 30
0.0
 11
-14.41367375996534
 21
-16.65918764737295
 31
0.0
  0
SOLID
  5
2A2
330
29D
100
AcDbEntity
  8
0
 62
     0
100
AcDbTrace
 10
-18.91367375996535
 20
-16.74252098070628
 30
0.0
 11
-18.91367375996535
 21
-16.57585431403962
 31
0.0
 12
-18.41367375996535
 22
-16.65918764737295
 32
0.0
 13
-18.41367375996535
 23
-16.65918764737295
 33
0.0
  0
SOLID
  5
2A3
330
29D
100
AcDbEntity
  8
0
 62
     0
100
AcDbTrace
 10
-14.91367375996534
 20
-16.57585431403962
 30
0.0
 11
-14.91367375996534
 21
-16.74252098070628
 31
0.0
 12
-15.41367375996534
 22
-16.65918764737295
 32
0.0
 13
-15.41367375996534
 23
-16.65918764737295
 33
0.0
  0
MTEXT
  5
2A4
330
29D
100
AcDbEntity
  8
0
 62
     0
100
AcDbMText
 10
-16.91367375996535
 20
-16.65918764737295
 30
0.0
 40
0.3888888955116272
 41
0.0
 71
     5
 72
     1
  1
\A1;3.0000
 73
     1
 44
1.0
  0
POINT
  5
2A5
330
29D
100
AcDbEntity
  8
Defpoints
 62
     0
100
AcDbPoint
 10
-18.41367375996535
 20
-17.40918764737298
 30
0.0
  0
POINT
  5
2A6
330
29D
100
AcDbEntity
  8
Defpoints
 62
     0
100
AcDbPoint
 10
-15.41367375996534
 20
-17.40918764737298
 30
0.0
  0
POINT
  5
2A7
330
29D
100
AcDbEntity
  8
Defpoints
 62
     0
100
AcDbPoint
 10
-15.41367375996534
 20
-16.65918764737295
 30
0.0
  0
ENDBLK
  5
2A9
330
29D
100
AcDbEntity
  8
0
100
AcDbBlockEnd
  0
BLOCK
  5
2B8
330
2AD
100
AcDbEntity
  8
0
100
AcDbBlockBegin
  2
*D40
 70
     1
 10
0.0
 20
0.0
 30
0.0
  3
*D40
  1

  0
LINE
  5
2AE
330
2AD
100
AcDbEntity
  8
0
 62
     0
370
    -2
100
AcDbLine
 10
-29.9764998199382
 20
6.876269174927717
 30
0.0
 11
-29.9764998199382
 21
5.900989227011056
 31
0.0
  0
LINE
  5
2AF
330
2AD
100
AcDbEntity
  8
0
 62
     0
370
    -2
100
AcDbLine
 10
-23.97649981993821
 20
6.876269174927717
 30
0.0
 11
-23.97649981993821
 21
5.900989227011056
 31
0.0
  0
LINE
  5
2B0
330
2AD
100
AcDbEntity
  8
0
 62
     0
370
    -2
100
AcDbLine
 10
-29.4764998199382
 20
6.080989227011056
 30
0.0
 11
-28.02020353988338
 21
6.080989227011056
 31
0.0
  0
LINE
  5
2B1
330
2AD
100
AcDbEntity
  8
0
 62
     0
370
    -2
100
AcDbLine
 10
-24.47649981993821
 20
6.080989227011056
 30
0.0
 11
-25.93279609999302
 21
6.080989227011056
 31
0.0
  0
SOLID
  5
2B2
330
2AD
100
AcDbEntity
  8
0
 62
     0
100
AcDbTrace
 10
-29.4764998199382
 20
6.164322560344389
 30
0.0
 11
-29.4764998199382
 21
5.997655893677723
 31
0.0
 12
-29.9764998199382
 22
6.080989227011056
 32
0.0
 13
-29.9764998199382
 23
6.080989227011056
 33
0.0
  0
SOLID
  5
2B3
330
2AD
100
AcDbEntity
  8
0
 62
     0
100
AcDbTrace
 10
-24.47649981993821
 20
5.997655893677723
 30
0.0
 11
-24.47649981993821
 21
6.164322560344389
 31
0.0
 12
-23.97649981993821
 22
6.080989227011056
 32
0.0
 13
-23.97649981993821
 23
6.080989227011056
 33
0.0
  0
MTEXT
  5
2B4
330
2AD
100
AcDbEntity
  8
0
 62
     0
100
AcDbMText
 10
-26.9764998199382
 20
6.080989227011056
 30
0.0
 40
0.3888888955116272
 41
0.0
 71
     5
 72
     1
  1
\A1;6.0000
 73
     1
 44
1.0
  0
POINT
  5
2B5
330
2AD
100
AcDbEntity
  8
Defpoints
 62
     0
100
AcDbPoint
 10
-29.9764998199382
 20
6.938769174927717
 30
0.0
  0
POINT
  5
2B6
330
2AD
100
AcDbEntity
  8
Defpoints
 62
     0
100
AcDbPoint
 10
-23.97649981993821
 20
6.938769174927717
 30
0.0
  0
POINT
  5
2B7
330
2AD
100
AcDbEntity
  8
Defpoints
 62
     0
100
AcDbPoint
 10
-23.97649981993821
 20
6.080989227011056
 30
0.0
  0
ENDBLK
  5
2B9
330
2AD
100
AcDbEntity
  8
0
100
AcDbBlockEnd
  0
BLOCK
  5
2C7
330
2BC
100
AcDbEntity
  8
0
100
AcDbBlockBegin
  2
*D41
 70
     1
 10
0.0
 20
0.0
 30
0.0
  3
*D41
  1

  0
LINE
  5
2BD
330
2BC
100
AcDbEntity
  8
0
 62
     0
370
    -2
100
AcDbLine
 10
-27.53899981993819
 20
12.93876917492772
 30
0.0
 11
-26.6714998199382
 21
12.93876917492772
 31
0.0
  0
LINE
  5
2BE
330
2BC
100
AcDbEntity
  8
0
 62
     0
370
    -2
100
AcDbLine
 10
-27.53899981993819
 20
6.938769174927717
 30
0.0
 11
-26.6714998199382
 21
6.938769174927717
 31
0.0
  0
LINE
  5
2BF
330
2BC
100
AcDbEntity
  8
0
 62
     0
370
    -2
100
AcDbLine
 10
-26.8514998199382
 20
12.43876917492772
 30
0.0
 11
-26.8514998199382
 21
10.22321362268353
 31
0.0
  0
LINE
  5
2C0
330
2BC
100
AcDbEntity
  8
0
 62
     0
370
    -2
100
AcDbLine
 10
-26.8514998199382
 20
7.438769174927717
 30
0.0
 11
-26.8514998199382
 21
9.654324727171904
 31
0.0
  0
SOLID
  5
2C1
330
2BC
100
AcDbEntity
  8
0
 62
     0
100
AcDbTrace
 10
-26.76816648660487
 20
12.43876917492772
 30
0.0
 11
-26.93483315327153
 21
12.43876917492772
 31
0.0
 12
-26.8514998199382
 22
12.93876917492772
 32
0.0
 13
-26.8514998199382
 23
12.93876917492772
 33
0.0
  0
SOLID
  5
2C2
330
2BC
100
AcDbEntity
  8
0
 62
     0
100
AcDbTrace
 10
-26.93483315327153
 20
7.438769174927717
 30
0.0
 11
-26.76816648660487
 21
7.438769174927717
 31
0.0
 12
-26.8514998199382
 22
6.938769174927717
 32
0.0
 13
-26.8514998199382
 23
6.938769174927717
 33
0.0
  0
MTEXT
  5
2C3
330
2BC
100
AcDbEntity
  8
0
 62
     0
100
AcDbMText
 10
-26.8514998199382
 20
9.938769174927717
 30
0.0
 40
0.3888888955116272
 41
0.0
 71
     5
 72
     1
  1
\A1;6.0000
 73
     1
 44
1.0
  0
POINT
  5
2C4
330
2BC
100
AcDbEntity
  8
Defpoints
 62
     0
100
AcDbPoint
 10
-27.60149981993819
 20
12.93876917492772
 30
0.0
  0
POINT
  5
2C5
330
2BC
100
AcDbEntity
  8
Defpoints
 62
     0
100
AcDbPoint
 10
-27.60149981993819
 20
6.938769174927717
 30
0.0
  0
POINT
  5
2C6
330
2BC
100
AcDbEntity
  8
Defpoints
 62
     0
100
AcDbPoint
 10
-26.8514998199382
 20
6.938769174927717
 30
0.0
  0
ENDBLK
  5
2C8
330
2BC
100
AcDbEntity
  8
0
100
AcDbBlockEnd
  0
BLOCK
  5
2D5
330
2CA
100
AcDbEntity
  8
0
100
AcDbBlockBegin
  2
*D42
 70
     1
 10
0.0
 20
0.0
 30
0.0
  3
*D42
  1

  0
LINE
  5
2CB
330
2CA
100
AcDbEntity
  8
0
 62
     0
370
    -2
100
AcDbLine
 10
-28.4764998199382
 20
13.00126917492772
 30
0.0
 11
-28.4764998199382
 21
13.86876917492772
 31
0.0
  0
LINE
  5
2CC
330
2CA
100
AcDbEntity
  8
0
 62
     0
370
    -2
100
AcDbLine
 10
-25.4764998199382
 20
13.00126917492772
 30
0.0
 11
-25.4764998199382
 21
13.86876917492772
 31
0.0
  0
LINE
  5
2CD
330
2CA
100
AcDbEntity
  8
0
 62
     0
370
    -2
100
AcDbLine
 10
-28.9764998199382
 20
13.68876917492772
 30
0.0
 11
-29.4764998199382
 21
13.68876917492772
 31
0.0
  0
LINE
  5
2CE
330
2CA
100
AcDbEntity
  8
0
 62
     0
370
    -2
100
AcDbLine
 10
-24.9764998199382
 20
13.68876917492772
 30
0.0
 11
-24.4764998199382
 21
13.68876917492772
 31
0.0
  0
SOLID
  5
2CF
330
2CA
100
AcDbEntity
  8
0
 62
     0
100
AcDbTrace
 10
-28.9764998199382
 20
13.60543584159438
 30
0.0
 11
-28.9764998199382
 21
13.77210250826105
 31
0.0
 12
-28.4764998199382
 22
13.68876917492772
 32
0.0
 13
-28.4764998199382
 23
13.68876917492772
 33
0.0
  0
SOLID
  5
2D0
330
2CA
100
AcDbEntity
  8
0
 62
     0
100
AcDbTrace
 10
-24.9764998199382
 20
13.77210250826105
 30
0.0
 11
-24.9764998199382
 21
13.60543584159438
 31
0.0
 12
-25.4764998199382
 22
13.68876917492772
 32
0.0
 13
-25.4764998199382
 23
13.68876917492772
 33
0.0
  0
MTEXT
  5
2D1
330
2CA
100
AcDbEntity
  8
0
 62
     0
100
AcDbMText
 10
-26.9764998199382
 20
13.68876917492772
 30
0.0
 40
0.3888888955116272
 41
0.0
 71
     5
 72
     1
  1
\A1;3.0000
 73
     1
 44
1.0
  0
POINT
  5
2D2
330
2CA
100
AcDbEntity
  8
Defpoints
 62
     0
100
AcDbPoint
 10
-28.4764998199382
 20
12.93876917492772
 30
0.0
  0
POINT
  5
2D3
330
2CA
100
AcDbEntity
  8
Defpoints
 62
     0
100
AcDbPoint
 10
-25.4764998199382
 20
12.93876917492772
 30
0.0
  0
POINT
  5
2D4
330
2CA
100
AcDbEntity
  8
Defpoints
 62
     0
100
AcDbPoint
 10
-25.4764998199382
 20
13.68876917492772
 30
0.0
  0
ENDBLK
  5
2D6
330
2CA
100
AcDbEntity
  8
0
100
AcDbBlockEnd
  0
BLOCK
  5
2E5
330
2DA
100
AcDbEntity
  8
0
100
AcDbBlockBegin
  2
*D43
 70
     1
 10
0.0
 20
0.0
 30
0.0
  3
*D43
  1

  0
LINE
  5
2DB
330
2DA
100
AcDbEntity
  8
0
 62
     0
370
    -2
100
AcDbLine
 10
28.28601060742166
 20
5.036223078918857
 30
0.0
 11
30.5601159609661
 21
5.970061034943357
 31
0.0
  0
LINE
  5
2DC
330
2DA
100
AcDbEntity
  8
0
 62
     0
370
    -2
100
AcDbLine
 10
35.17669814737217
 20
-11.74415013584518
 30
0.0
 11
37.45080350091662
 21
-10.81031217982068
 31
0.0
  0
LINE
  5
2DD
330
2DA
100
AcDbEntity
  8
0
 62
     0
370
    -2
100
AcDbLine
 10
30.58353794107155
 20
5.439164236264046
 30
0.0
 11
33.98170777379099
 21
-2.83614322900433
 31
0.0
  0
LINE
  5
2DE
330
2DA
100
AcDbEntity
  8
0
 62
     0
370
    -2
100
AcDbLine
 10
37.09436565873099
 20
-10.41616491716616
 30
0.0
 11
34.19250282745415
 21
-3.349476572271771
 31
0.0
  0
SOLID
  5
2DF
330
2DA
100
AcDbEntity
  8
0
 62
     0
100
AcDbTrace
 10
30.66062494618271
 20
5.47081922145497
 30
0.0
 11
30.5064509359604
 21
5.407509251073123
 31
0.0
 12
30.39360802992601
 22
5.901686266930962
 32
0.0
 13
30.39360802992601
 23
5.901686266930962
 33
0.0
  0
SOLID
  5
2E0
330
2DA
100
AcDbEntity
  8
0
 62
     0
100
AcDbTrace
 10
37.01727865361984
 20
-10.44781990235709
 30
0.0
 11
37.17145266384215
 21
-10.38450993197524
 31
0.0
 12
37.28429556987653
 22
-10.87868694783308
 32
0.0
 13
37.28429556987653
 23
-10.87868694783308
 33
0.0
  0
MTEXT
  5
2E1
330
2DA
100
AcDbEntity
  8
0
 62
     0
100
AcDbMText
 10
34.08710530062257
 20
-3.092809900638052
 30
0.0
 40
0.3333333432674408
 41
0.0
 71
     5
 72
     1
  1
\A1;18.1401
 73
     1
 44
1.0
  0
POINT
  5
2E2
330
2DA
100
AcDbEntity
  8
Defpoints
 62
     0
100
AcDbPoint
 10
28.22819535358829
 20
5.012481840025664
 30
0.0
  0
POINT
  5
2E3
330
2DA
100
AcDbEntity
  8
Defpoints
 62
     0
100
AcDbPoint
 10
35.11888289353881
 20
-11.76789137473838
 30
0.0
  0
POINT
  5
2E4
330
2DA
100
AcDbEntity
  8
Defpoints
 62
     0
100
AcDbPoint
 10
37.28429556987653
 20
-10.87868694783308
 30
0.0
  0
ENDBLK
  5
2E6
330
2DA
100
AcDbEntity
  8
0
100
AcDbBlockEnd
  0
BLOCK
  5
2F3
330
2E8
100
AcDbEntity
  8
0
100
AcDbBlockBegin
  2
*D44
 70
     1
 10
0.0
 20
0.0
 30
0.0
  3
*D44
  1

  0
LINE
  5
2E9
330
2E8
100
AcDbEntity
  8
0
 62
     0
370
    -2
100
AcDbLine
 10
28.28601060742166
 20
5.036223078918857
 30
0.0
 11
29.4035840430409
 21
5.495143107051824
 31
0.0
  0
LINE
  5
2EA
330
2E8
100
AcDbEntity
  8
0
 62
     0
370
    -2
100
AcDbLine
 10
32.879802300722
 20
-6.150692397590499
 30
0.0
 11
33.99737573634124
 21
-5.691772369457534
 31
0.0
  0
LINE
  5
2EB
330
2E8
100
AcDbEntity
  8
0
 62
     0
370
    -2
100
AcDbLine
 10
29.42700602314635
 20
4.964246308372513
 30
0.0
 11
31.48170777379106
 21
-0.0394143598769823
 31
0.0
  0
LINE
  5
2EC
330
2E8
100
AcDbEntity
  8
0
 62
     0
370
    -2
100
AcDbLine
 10
33.64093789415561
 20
-5.297625106803012
 30
0.0
 11
31.69250282745422
 21
-0.5527477031444228
 31
0.0
  0
SOLID
  5
2ED
330
2E8
100
AcDbEntity
  8
0
 62
     0
100
AcDbTrace
 10
29.5040930282575
 20
4.995901293563437
 30
0.0
 11
29.34991901803519
 21
4.93259132318159
 31
0.0
 12
29.23707611200081
 22
5.426768339039429
 32
0.0
 13
29.23707611200081
 23
5.426768339039429
 33
0.0
  0
SOLID
  5
2EE
330
2E8
100
AcDbEntity
  8
0
 62
     0
100
AcDbTrace
 10
33.56385088904446
 20
-5.329280091993935
 30
0.0
 11
33.71802489926677
 21
-5.265970121612089
 31
0.0
 12
33.83086780530115
 22
-5.760147137469928
 32
0.0
 13
33.83086780530115
 23
-5.760147137469928
 33
0.0
  0
MTEXT
  5
2EF
330
2E8
100
AcDbEntity
  8
0
 62
     0
100
AcDbMText
 10
31.58710530062264
 20
-0.2960810315107025
 30
0.0
 40
0.3333333432674408
 41
0.0
 71
     5
 72
     1
  1
\A1;12.0934
 73
     1
 44
1.0
  0
POINT
  5
2F0
330
2E8
100
AcDbEntity
  8
Defpoints
 62
     0
100
AcDbPoint
 10
28.22819535358829
 20
5.012481840025664
 30
0.0
  0
POINT
  5
2F1
330
2E8
100
AcDbEntity
  8
Defpoints
 62
     0
100
AcDbPoint
 10
32.82198704688864
 20
-6.174433636483691
 30
0.0
  0
POINT
  5
2F2
330
2E8
100
AcDbEntity
  8
Defpoints
 62
     0
100
AcDbPoint
 10
33.83086780530115
 20
-5.760147137469928
 30
0.0
  0
ENDBLK
  5
2F4
330
2E8
100
AcDbEntity
  8
0
100
AcDbBlockEnd
  0
BLOCK
  5
301
330
2F6
100
AcDbEntity
  8
0
100
AcDbBlockBegin
  2
*D45
 70
     1
 10
0.0
 20
0.0
 30
0.0
  3
*D45
  1

  0
ARC
  5
2F7
330
2F6
100
AcDbEntity
  8
0
 62
     0
370
    -2
100
AcDbCircle
 10
28.22819535358828
 20
5.012481840025682
 30
0.0
 40
8.089943354701408
100
AcDbArc
 50
251.2167369565712
 51
267.0004367162084
  0
ARC
  5
2F8
330
2F6
100
AcDbEntity
  8
0
 62
     0
370
    -2
100
AcDbCircle
 10
28.22819535358828
 20
5.012481840025682
 30
0.0
 40
8.089943354701408
100
AcDbArc
 50
272.9995632837916
 51
288.7832630434289
  0
SOLID
  5
2F9
330
2F6
100
AcDbEntity
  8
0
 62
     0
100
AcDbTrace
 10
25.65257904150994
 20
-2.568589891889313
 30
0.0
 11
25.59406368022823
 21
-2.724646709336835
 31
0.0
 12
25.15515090852652
 22
-2.471072216767955
 32
0.0
 13
25.15515090852652
 23
-2.471072216767955
 33
0.0
  0
SOLID
  5
2FA
330
2F6
100
AcDbEntity
  8
0
 62
     0
100
AcDbTrace
 10
30.86232702694835
 20
-2.724646709336831
 30
0.0
 11
30.80381166566664
 21
-2.568589891889309
 31
0.0
 12
31.30123979865006
 22
-2.471072216767951
 32
0.0
 13
31.30123979865006
 23
-2.471072216767951
 33
0.0
  0
MTEXT
  5
2FB
330
2F6
100
AcDbEntity
  8
0
 62
     0
100
AcDbMText
 10
28.22819535358829
 20
-3.077461514675726
 30
0.0
 40
0.3333333432674408
 41
0.0
 71
     5
 72
     1
  1
\A1;45%%d
 73
     1
 44
1.0
  0
POINT
  5
2FC
330
2F6
100
AcDbEntity
  8
Defpoints
 62
     0
100
AcDbPoint
 10
27.18041237613678
 20
-3.00932184209222
 30
0.0
  0
POINT
  5
2FD
330
2F6
100
AcDbEntity
  8
Defpoints
 62
     0
100
AcDbPoint
 10
33.15436439139333
 20
-6.983847190150797
 30
0.0
  0
POINT
  5
2FE
330
2F6
100
AcDbEntity
  8
Defpoints
 62
     0
100
AcDbPoint
 10
23.30202631578325
 20
-6.983847190150804
 30
0.0
  0
POINT
  5
2FF
330
2F6
100
AcDbEntity
  8
Defpoints
 62
     0
100
AcDbPoint
 10
28.22819535358828
 20
5.012481840025682
 30
0.0
  0
POINT
  5
300
330
2F6
100
AcDbEntity
  8
Defpoints
 62
     0
100
AcDbPoint
 10
28.22819535358828
 20
5.012481840025682
 30
0.0
  0
ENDBLK
  5
302
330
2F6
100
AcDbEntity
  8
0
100
AcDbBlockEnd
  0
BLOCK
  5
312
330
307
100
AcDbEntity
  8
0
100
AcDbBlockBegin
  2
*D46
 70
     1
 10
0.0
 20
0.0
 30
0.0
  3
*D46
  1

  0
ARC
  5
308
330
307
100
AcDbEntity
  8
0
 62
     0
370
    -2
100
AcDbCircle
 10
11.09926895352725
 20
5.19877460012728
 30
0.0
 40
6.06565561473932
100
AcDbArc
 50
245.134304943175
 51
265.9979679820322
  0
ARC
  5
309
330
307
100
AcDbEntity
  8
0
 62
     0
370
    -2
100
AcDbCircle
 10
11.09926895352725
 20
5.19877460012728
 30
0.0
 40
6.06565561473932
100
AcDbArc
 50
274.0020320179676
 51
294.865695056825
  0
SOLID
  5
30A
330
307
100
AcDbEntity
  8
0
 62
     0
100
AcDbTrace
 10
8.586832804630735
 20
-0.2304706053204846
 30
0.0
 11
8.510577778458313
 21
-0.3786696227302537
 31
0.0
 12
8.104108239315217
 22
-0.0758050355081039
 32
0.0
 13
8.104108239315217
 23
-0.0758050355081039
 33
0.0
  0
SOLID
  5
30B
330
307
100
AcDbEntity
  8
0
 62
     0
100
AcDbTrace
 10
13.68796012859619
 20
-0.3786696227302538
 30
0.0
 11
13.61170510242377
 21
-0.2304706053204846
 31
0.0
 12
14.09442966773929
 22
-0.0758050355081039
 32
0.0
 13
14.09442966773929
 23
-0.0758050355081039
 33
0.0
  0
MTEXT
  5
30C
330
307
100
AcDbEntity
  8
0
 62
     0
100
AcDbMText
 10
11.09926895352724
 20
-0.8668810146120407
 30
0.0
 40
0.3333333432674408
 41
0.0
 71
     5
 72
     1
  1
\A1;59%%d
 73
     1
 44
1.0
  0
POINT
  5
30D
330
307
100
AcDbEntity
  8
Defpoints
 62
     0
100
AcDbPoint
 10
12.13830751349415
 20
-0.7772254758031547
 30
0.0
  0
POINT
  5
30E
330
307
100
AcDbEntity
  8
Defpoints
 62
     0
100
AcDbPoint
 10
16.03674720387597
 20
-3.49629211435898
 30
0.0
  0
POINT
  5
30F
330
307
100
AcDbEntity
  8
Defpoints
 62
     0
100
AcDbPoint
 10
6.161790703178532
 20
-3.496292114358987
 30
0.0
  0
POINT
  5
310
330
307
100
AcDbEntity
  8
Defpoints
 62
     0
100
AcDbPoint
 10
11.09926895352725
 20
5.19877460012728
 30
0.0
  0
POINT
  5
311
330
307
100
AcDbEntity
  8
Defpoints
 62
     0
100
AcDbPoint
 10
11.09926895352725
 20
5.19877460012728
 30
0.0
  0
ENDBLK
  5
313
330
307
100
AcDbEntity
  8
0
100
AcDbBlockEnd
  0
BLOCK
  5
320
330
315
100
AcDbEntity
  8
0
100
AcDbBlockBegin
  2
*D47
 70
     1
 10
0.0
 20
0.0
 30
0.0
  3
*D47
  1

  0
ARC
  5
316
330
315
100
AcDbEntity
  8
0
 62
     0
370
    -2
100
AcDbCircle
 10
11.09926895352724
 20
5.19877460012723
 30
0.0
 40
5.123170646061078
100
AcDbArc
 50
249.3495782733036
 51
254.943628032639
  0
ARC
  5
317
330
315
100
AcDbEntity
  8
0
 62
     0
370
    -2
100
AcDbCircle
 10
11.09926895352724
 20
5.19877460012723
 30
0.0
 40
5.123170646061078
100
AcDbArc
 50
285.0563719673611
 51
290.6504217266964
  0
SOLID
  5
318
330
315
100
AcDbEntity
  8
0
 62
     0
100
AcDbTrace
 10
9.750731890161555
 20
0.1700457103172768
 30
0.0
 11
9.786121405549666
 21
0.3329117902061609
 31
0.0
 12
10.25702488752226
 22
0.1453102040973846
 32
0.0
 13
10.25702488752226
 23
0.1453102040973846
 33
0.0
  0
SOLID
  5
319
330
315
100
AcDbEntity
  8
0
 62
     0
100
AcDbTrace
 10
12.41241650150481
 20
0.3329117902061626
 30
0.0
 11
12.44780601689293
 21
0.1700457103172785
 31
0.0
 12
11.94151301953222
 22
0.1453102040973855
 32
0.0
 13
11.94151301953222
 23
0.1453102040973855
 33
0.0
  0
MTEXT
  5
31A
330
315
100
AcDbEntity
  8
0
 62
     0
100
AcDbMText
 10
11.22428068786235
 20
0.0771294020546023
 30
0.0
 40
0.3333333432674408
 41
0.0
 71
     5
 72
     1
  1
\A1;19%%d
 73
     1
 44
1.0
  0
POINT
  5
31B
330
315
100
AcDbEntity
  8
Defpoints
 62
     0
100
AcDbPoint
 10
10.81738309211205
 20
0.0833647602614054
 30
0.0
  0
POINT
  5
31C
330
315
100
AcDbEntity
  8
Defpoints
 62
     0
100
AcDbPoint
 10
12.74311806741944
 20
-4.664320083225881
 30
0.0
  0
POINT
  5
31D
330
315
100
AcDbEntity
  8
Defpoints
 62
     0
100
AcDbPoint
 10
9.455419839635052
 20
-4.664320083225881
 30
0.0
  0
POINT
  5
31E
330
315
100
AcDbEntity
  8
Defpoints
 62
     0
100
AcDbPoint
 10
11.09926895352724
 20
5.19877460012723
 30
0.0
  0
POINT
  5
31F
330
315
100
AcDbEntity
  8
Defpoints
 62
     0
100
AcDbPoint
 10
11.09926895352724
 20
5.19877460012723
 30
0.0
  0
ENDBLK
  5
321
330
315
100
AcDbEntity
  8
0
100
AcDbBlockEnd
  0
BLOCK
  5
32E
330
323
100
AcDbEntity
  8
0
100
AcDbBlockBegin
  2
*D48
 70
     1
 10
0.0
 20
0.0
 30
0.0
  3
*D48
  1

  0
LINE
  5
324
330
323
100
AcDbEntity
  8
0
 62
     0
370
    -2
100
AcDbLine
 10
11.15361777386353
 20
5.229636481600287
 30
0.0
 11
12.30985126915566
 21
5.886201626272308
 31
0.0
  0
LINE
  5
325
330
323
100
AcDbEntity
  8
0
 62
     0
370
    -2
100
AcDbLine
 10
15.65902968358994
 20
-2.704546748178047
 30
0.0
 11
16.81526317888207
 21
-2.047981603506026
 31
0.0
  0
LINE
  5
326
330
323
100
AcDbEntity
  8
0
 62
     0
370
    -2
100
AcDbLine
 10
12.40022171837134
 20
5.362528844939773
 30
0.0
 11
14.38986913852995
 21
1.858692234548077
 31
0.0
  0
LINE
  5
327
330
323
100
AcDbEntity
  8
0
 62
     0
370
    -2
100
AcDbLine
 10
16.41184352452941
 20
-1.702073259458093
 30
0.0
 11
14.68136456930556
 21
1.345358891280636
 31
0.0
  0
SOLID
  5
328
330
323
100
AcDbEntity
  8
0
 62
     0
100
AcDbTrace
 10
12.47268681215305
 20
5.403678020237135
 30
0.0
 11
12.32775662458964
 21
5.32137966964241
 31
0.0
 12
12.15332666658717
 22
5.797319407630007
 32
0.0
 13
12.15332666658717
 23
5.797319407630007
 33
0.0
  0
SOLID
  5
329
330
323
100
AcDbEntity
  8
0
 62
     0
100
AcDbTrace
 10
16.3393784307477
 20
-1.743222434755455
 30
0.0
 11
16.48430861831111
 21
-1.660924084160731
 31
0.0
 12
16.65873857631358
 22
-2.136863822148328
 32
0.0
 13
16.65873857631358
 23
-2.136863822148328
 33
0.0
  0
MTEXT
  5
32A
330
323
100
AcDbEntity
  8
0
 62
     0
100
AcDbMText
 10
14.53561685391776
 20
1.602025562914356
 30
0.0
 40
0.3333333432674408
 41
0.0
 71
     5
 72
     1
  1
\A1;9.1241
 73
     1
 44
1.0
  0
POINT
  5
32B
330
323
100
AcDbEntity
  8
Defpoints
 62
     0
100
AcDbPoint
 10
11.09926895352725
 20
5.198774600127265
 30
0.0
  0
POINT
  5
32C
330
323
100
AcDbEntity
  8
Defpoints
 62
     0
100
AcDbPoint
 10
15.60468086325366
 20
-2.735408629651069
 30
0.0
  0
POINT
  5
32D
330
323
100
AcDbEntity
  8
Defpoints
 62
     0
100
AcDbPoint
 10
16.65873857631358
 20
-2.136863822148328
 30
0.0
  0
ENDBLK
  5
32F
330
323
100
AcDbEntity
  8
0
100
AcDbBlockEnd
  0
BLOCK
  5
33C
330
331
100
AcDbEntity
  8
0
100
AcDbBlockBegin
  2
*D49
 70
     1
 10
0.0
 20
0.0
 30
0.0
  3
*D49
  1

  0
LINE
  5
332
330
331
100
AcDbEntity
  8
0
 62
     0
370
    -2
100
AcDbLine
 10
11.15361777386353
 20
5.229636481600287
 30
0.0
 11
13.19102807562777
 21
6.386576316833247
 31
0.0
  0
LINE
  5
333
330
331
100
AcDbEntity
  8
0
 62
     0
370
    -2
100
AcDbLine
 10
17.91173563845314
 20
-6.671638363067218
 30
0.0
 11
19.94914594021738
 21
-5.514698527834259
 31
0.0
  0
LINE
  5
334
330
331
100
AcDbEntity
  8
0
 62
     0
370
    -2
100
AcDbLine
 10
13.28139852484345
 20
5.862903535500712
 30
0.0
 11
16.68153580519657
 21
-0.1248535728965088
 31
0.0
  0
LINE
  5
335
330
331
100
AcDbEntity
  8
0
 62
     0
370
    -2
100
AcDbLine
 10
19.54572628586472
 20
-5.168790183786326
 30
0.0
 11
16.97303123597217
 21
-0.6381869161639493
 31
0.0
  0
SOLID
  5
336
330
331
100
AcDbEntity
  8
0
 62
     0
100
AcDbTrace
 10
13.35386361862516
 20
5.904052710798074
 30
0.0
 11
13.20893343106175
 21
5.821754360203349
 31
0.0
 12
13.03450347305928
 22
6.297694098190946
 32
0.0
 13
13.03450347305928
 23
6.297694098190946
 33
0.0
  0
SOLID
  5
337
330
331
100
AcDbEntity
  8
0
 62
     0
100
AcDbTrace
 10
19.47326119208302
 20
-5.209939359083688
 30
0.0
 11
19.61819137964643
 21
-5.127641008488964
 31
0.0
 12
19.7926213376489
 22
-5.603580746476561
 32
0.0
 13
19.7926213376489
 23
-5.603580746476561
 33
0.0
  0
MTEXT
  5
338
330
331
100
AcDbEntity
  8
0
 62
     0
100
AcDbMText
 10
16.82728352058437
 20
-0.381520244530229
 30
0.0
 40
0.3333333432674408
 41
0.0
 71
     5
 72
     1
  1
\A1;13.6862
 73
     1
 44
1.0
  0
POINT
  5
339
330
331
100
AcDbEntity
  8
Defpoints
 62
     0
100
AcDbPoint
 10
11.09926895352725
 20
5.198774600127265
 30
0.0
  0
POINT
  5
33A
330
331
100
AcDbEntity
  8
Defpoints
 62
     0
100
AcDbPoint
 10
17.85738681811686
 20
-6.702500244540239
 30
0.0
  0
POINT
  5
33B
330
331
100
AcDbEntity
  8
Defpoints
 62
     0
100
AcDbPoint
 10
19.7926213376489
 20
-5.603580746476561
 30
0.0
  0
ENDBLK
  5
33D
330
331
100
AcDbEntity
  8
0
100
AcDbBlockEnd
  0
BLOCK
  5
34D
330
342
100
AcDbEntity
  8
0
100
AcDbBlockBegin
  2
*D50
 70
     1
 10
0.0
 20
0.0
 30
0.0
  3
*D50
  1

  0
LINE
  5
343
330
342
100
AcDbEntity
  8
0
 62
     0
370
    -2
100
AcDbLine
 10
-30.8514998199382
 20
-8.623730825072293
 30
0.0
 11
-30.8514998199382
 21
-9.599010772988947
 31
0.0
  0
LINE
  5
344
330
342
100
AcDbEntity
  8
0
 62
     0
370
    -2
100
AcDbLine
 10
-24.85149981993821
 20
-8.623730825072293
 30
0.0
 11
-24.85149981993821
 21
-9.599010772988947
 31
0.0
  0
LINE
  5
345
330
342
100
AcDbEntity
  8
0
 62
     0
370
    -2
100
AcDbLine
 10
-30.3514998199382
 20
-9.419010772988948
 30
0.0
 11
-28.89520353988338
 21
-9.419010772988948
 31
0.0
  0
LINE
  5
346
330
342
100
AcDbEntity
  8
0
 62
     0
370
    -2
100
AcDbLine
 10
-25.35149981993821
 20
-9.419010772988948
 30
0.0
 11
-26.80779609999302
 21
-9.419010772988948
 31
0.0
  0
SOLID
  5
347
330
342
100
AcDbEntity
  8
0
 62
     0
100
AcDbTrace
 10
-30.3514998199382
 20
-9.335677439655614
 30
0.0
 11
-30.3514998199382
 21
-9.502344106322282
 31
0.0
 12
-30.8514998199382
 22
-9.419010772988948
 32
0.0
 13
-30.8514998199382
 23
-9.419010772988948
 33
0.0
  0
SOLID
  5
348
330
342
100
AcDbEntity
  8
0
 62
     0
100
AcDbTrace
 10
-25.35149981993821
 20
-9.502344106322282
 30
0.0
 11
-25.35149981993821
 21
-9.335677439655614
 31
0.0
 12
-24.85149981993821
 22
-9.419010772988948
 32
0.0
 13
-24.85149981993821
 23
-9.419010772988948
 33
0.0
  0
MTEXT
  5
349
330
342
100
AcDbEntity
  8
0
 62
     0
100
AcDbMText
 10
-27.8514998199382
 20
-9.419010772988948
 30
0.0
 40
0.3888888955116272
 41
0.0
 71
     5
 72
     1
  1
\A1;6.0000
 73
     1
 44
1.0
  0
POINT
  5
34A
330
342
100
AcDbEntity
  8
Defpoints
 62
     0
100
AcDbPoint
 10
-30.8514998199382
 20
-8.561230825072293
 30
0.0
  0
POINT
  5
34B
330
342
100
AcDbEntity
  8
Defpoints
 62
     0
100
AcDbPoint
 10
-24.85149981993821
 20
-8.561230825072293
 30
0.0
  0
POINT
  5
34C
330
342
100
AcDbEntity
  8
Defpoints
 62
     0
100
AcDbPoint
 10
-24.85149981993821
 20
-9.419010772988948
 30
0.0
  0
ENDBLK
  5
34E
330
342
100
AcDbEntity
  8
0
100
AcDbBlockEnd
  0
BLOCK
  5
35E
330
353
100
AcDbEntity
  8
0
100
AcDbBlockBegin
  2
*D51
 70
     1
 10
0.0
 20
0.0
 30
0.0
  3
*D51
  1

  0
LINE
  5
354
330
353
100
AcDbEntity
  8
0
 62
     0
370
    -2
100
AcDbLine
 10
-28.41399981993819
 20
-2.561230825072293
 30
0.0
 11
-27.5464998199382
 21
-2.561230825072293
 31
0.0
  0
LINE
  5
355
330
353
100
AcDbEntity
  8
0
 62
     0
370
    -2
100
AcDbLine
 10
-28.41399981993819
 20
-8.561230825072293
 30
0.0
 11
-27.5464998199382
 21
-8.561230825072293
 31
0.0
  0
LINE
  5
356
330
353
100
AcDbEntity
  8
0
 62
     0
370
    -2
100
AcDbLine
 10
-27.7264998199382
 20
-3.061230825072293
 30
0.0
 11
-27.7264998199382
 21
-5.27678637731648
 31
0.0
  0
LINE
  5
357
330
353
100
AcDbEntity
  8
0
 62
     0
370
    -2
100
AcDbLine
 10
-27.7264998199382
 20
-8.061230825072293
 30
0.0
 11
-27.7264998199382
 21
-5.845675272828107
 31
0.0
  0
SOLID
  5
358
330
353
100
AcDbEntity
  8
0
 62
     0
100
AcDbTrace
 10
-27.64316648660487
 20
-3.061230825072293
 30
0.0
 11
-27.80983315327153
 21
-3.061230825072293
 31
0.0
 12
-27.7264998199382
 22
-2.561230825072293
 32
0.0
 13
-27.7264998199382
 23
-2.561230825072293
 33
0.0
  0
SOLID
  5
359
330
353
100
AcDbEntity
  8
0
 62
     0
100
AcDbTrace
 10
-27.80983315327153
 20
-8.061230825072293
 30
0.0
 11
-27.64316648660487
 21
-8.061230825072293
 31
0.0
 12
-27.7264998199382
 22
-8.561230825072293
 32
0.0
 13
-27.7264998199382
 23
-8.561230825072293
 33
0.0
  0
MTEXT
  5
35A
330
353
100
AcDbEntity
  8
0
 62
     0
100
AcDbMText
 10
-27.7264998199382
 20
-5.561230825072293
 30
0.0
 40
0.3888888955116272
 41
0.0
 71
     5
 72
     1
  1
\A1;6.0000
 73
     1
 44
1.0
  0
POINT
  5
35B
330
353
100
AcDbEntity
  8
Defpoints
 62
     0
100
AcDbPoint
 10
-28.47649981993819
 20
-2.561230825072293
 30
0.0
  0
POINT
  5
35C
330
353
100
AcDbEntity
  8
Defpoints
 62
     0
100
AcDbPoint
 10
-28.47649981993819
 20
-8.561230825072293
 30
0.0
  0
POINT
  5
35D
330
353
100
AcDbEntity
  8
Defpoints
 62
     0
100
AcDbPoint
 10
-27.7264998199382
 20
-8.561230825072293
 30
0.0
  0
ENDBLK
  5
35F
330
353
100
AcDbEntity
  8
0
100
AcDbBlockEnd
  0
BLOCK
  5
36C
330
361
100
AcDbEntity
  8
0
100
AcDbBlockBegin
  2
*D52
 70
     1
 10
0.0
 20
0.0
 30
0.0
  3
*D52
  1

  0
LINE
  5
362
330
361
100
AcDbEntity
  8
0
 62
     0
370
    -2
100
AcDbLine
 10
-29.3514998199382
 20
-2.498730825072293
 30
0.0
 11
-29.3514998199382
 21
-1.631230825072293
 31
0.0
  0
LINE
  5
363
330
361
100
AcDbEntity
  8
0
 62
     0
370
    -2
100
AcDbLine
 10
-26.3514998199382
 20
-2.498730825072293
 30
0.0
 11
-26.3514998199382
 21
-1.631230825072293
 31
0.0
  0
LINE
  5
364
330
361
100
AcDbEntity
  8
0
 62
     0
370
    -2
100
AcDbLine
 10
-29.8514998199382
 20
-1.811230825072293
 30
0.0
 11
-30.3514998199382
 21
-1.811230825072293
 31
0.0
  0
LINE
  5
365
330
361
100
AcDbEntity
  8
0
 62
     0
370
    -2
100
AcDbLine
 10
-25.8514998199382
 20
-1.811230825072293
 30
0.0
 11
-25.3514998199382
 21
-1.811230825072293
 31
0.0
  0
SOLID
  5
366
330
361
100
AcDbEntity
  8
0
 62
     0
100
AcDbTrace
 10
-29.8514998199382
 20
-1.894564158405627
 30
0.0
 11
-29.8514998199382
 21
-1.72789749173896
 31
0.0
 12
-29.3514998199382
 22
-1.811230825072293
 32
0.0
 13
-29.3514998199382
 23
-1.811230825072293
 33
0.0
  0
SOLID
  5
367
330
361
100
AcDbEntity
  8
0
 62
     0
100
AcDbTrace
 10
-25.8514998199382
 20
-1.72789749173896
 30
0.0
 11
-25.8514998199382
 21
-1.894564158405627
 31
0.0
 12
-26.3514998199382
 22
-1.811230825072293
 32
0.0
 13
-26.3514998199382
 23
-1.811230825072293
 33
0.0
  0
MTEXT
  5
368
330
361
100
AcDbEntity
  8
0
 62
     0
100
AcDbMText
 10
-27.8514998199382
 20
-1.811230825072293
 30
0.0
 40
0.3888888955116272
 41
0.0
 71
     5
 72
     1
  1
\A1;3.0000
 73
     1
 44
1.0
  0
POINT
  5
369
330
361
100
AcDbEntity
  8
Defpoints
 62
     0
100
AcDbPoint
 10
-29.3514998199382
 20
-2.561230825072293
 30
0.0
  0
POINT
  5
36A
330
361
100
AcDbEntity
  8
Defpoints
 62
     0
100
AcDbPoint
 10
-26.3514998199382
 20
-2.561230825072293
 30
0.0
  0
POINT
  5
36B
330
361
100
AcDbEntity
  8
Defpoints
 62
     0
100
AcDbPoint
 10
-26.3514998199382
 20
-1.811230825072293
 30
0.0
  0
ENDBLK
  5
36D
330
361
100
AcDbEntity
  8
0
100
AcDbBlockEnd
  0
BLOCK
  5
37A
330
36F
100
AcDbEntity
  8
0
100
AcDbBlockBegin
  2
*D53
 70
     1
 10
0.0
 20
0.0
 30
0.0
  3
*D53
  1

  0
LINE
  5
370
330
36F
100
AcDbEntity
  8
0
 62
     0
370
    -2
100
AcDbLine
 10
-19.08985014830794
 20
-5.381147692517732
 30
0.0
 11
-18.48469032599404
 21
-6.002708501656327
 31
0.0
  0
LINE
  5
371
330
36F
100
AcDbEntity
  8
0
 62
     0
370
    -2
100
AcDbLine
 10
-19.26897634078646
 20
-5.555547321996134
 30
0.0
 11
-18.66381651847257
 21
-6.177108131134729
 31
0.0
  0
LINE
  5
372
330
36F
100
AcDbEntity
  8
0
 62
     0
370
    -2
100
AcDbLine
 10
-18.25200832420408
 20
-5.524943825227633
 30
0.0
 11
-17.89376001922507
 21
-5.176148538591384
 31
0.0
  0
LINE
  5
373
330
36F
100
AcDbEntity
  8
0
 62
     0
370
    -2
100
AcDbLine
 10
-19.14763112664063
 20
-6.396934027978533
 30
0.0
 11
-19.50587943161964
 21
-6.745729314614782
 31
0.0
  0
SOLID
  5
374
330
36F
100
AcDbEntity
  8
0
 62
     0
100
AcDbTrace
 10
-18.31014087197679
 20
-5.465235774397797
 30
0.0
 11
-18.19387577643137
 21
-5.584651876057469
 31
0.0
 12
-18.61025662918309
 22
-5.873739111863882
 32
0.0
 13
-18.61025662918309
 23
-5.873739111863882
 33
0.0
  0
SOLID
  5
375
330
36F
100
AcDbEntity
  8
0
 62
     0
100
AcDbTrace
 10
-19.08949857886792
 20
-6.456642078808369
 30
0.0
 11
-19.20576367441334
 21
-6.337225977148697
 31
0.0
 12
-18.78938282166161
 22
-6.048138741342284
 32
0.0
 13
-18.78938282166161
 23
-6.048138741342284
 33
0.0
  0
MTEXT
  5
376
330
36F
100
AcDbEntity
  8
0
 62
     0
100
AcDbMText
 10
-18.69981972542236
 20
-5.960938926603085
 30
0.0
 40
0.3333333432674408
 41
0.0
 71
     5
 72
     1
  1
\A1;0.2500
 73
     1
 44
1.0
  0
POINT
  5
377
330
36F
100
AcDbEntity
  8
Defpoints
 62
     0
100
AcDbPoint
 10
-19.13344955913747
 20
-5.336366654395356
 30
0.0
  0
POINT
  5
378
330
36F
100
AcDbEntity
  8
Defpoints
 62
     0
100
AcDbPoint
 10
-19.312575751616
 20
-5.510766283873757
 30
0.0
  0
POINT
  5
379
330
36F
100
AcDbEntity
  8
Defpoints
 62
     0
100
AcDbPoint
 10
-18.78938282166161
 20
-6.048138741342284
 30
0.0
  0
ENDBLK
  5
37B
330
36F
100
AcDbEntity
  8
0
100
AcDbBlockEnd
  0
BLOCK
  5
38E
330
383
100
AcDbEntity
  8
0
100
AcDbBlockBegin
  2
*D54
 70
     1
 10
0.0
 20
0.0
 30
0.0
  3
*D54
  1

  0
LINE
  5
384
330
383
100
AcDbEntity
  8
0
 62
     0
370
    -2
100
AcDbLine
 10
0.986553441073475
 20
1.368779970704476
 30
0.0
 11
1.719696906075162
 21
0.9050376826550188
 31
0.0
  0
LINE
  5
385
330
383
100
AcDbEntity
  8
0
 62
     0
370
    -2
100
AcDbLine
 10
0.8528985258884841
 20
1.157481087341093
 30
0.0
 11
1.586041990890172
 21
0.6937387992916356
 31
0.0
  0
LINE
  5
386
330
383
100
AcDbEntity
  8
0
 62
     0
370
    -2
100
AcDbLine
 10
1.834861540454901
 20
1.423821941271432
 30
0.0
 11
2.10214816180905
 21
1.846383016200351
 31
0.0
  0
LINE
  5
387
330
383
100
AcDbEntity
  8
0
 62
     0
370
    -2
100
AcDbLine
 10
1.166633382561612
 20
0.3674009080502102
 30
0.0
 11
0.8993467612074625
 21
-0.0551601668787089
 31
0.0
  0
SOLID
  5
388
330
383
100
AcDbEntity
  8
0
 62
     0
100
AcDbTrace
 10
1.764434694633414
 20
1.468369711497123
 30
0.0
 11
1.905288386276387
 21
1.37927417104574
 31
0.0
 12
1.567574919100752
 22
1.001260866342513
 32
0.0
 13
1.567574919100752
 23
1.001260866342513
 33
0.0
  0
SOLID
  5
389
330
383
100
AcDbEntity
  8
0
 62
     0
100
AcDbTrace
 10
1.237060228383098
 20
0.3228531378245186
 30
0.0
 11
1.096206536740125
 21
0.4119486782759018
 31
0.0
 12
1.433920003915761
 22
0.7899619829791293
 32
0.0
 13
1.433920003915761
 23
0.7899619829791293
 33
0.0
  0
MTEXT
  5
38A
330
383
100
AcDbEntity
  8
0
 62
     0
100
AcDbMText
 10
1.500747461508247
 20
0.8956114246608067
 30
0.0
 40
0.3333333432674408
 41
0.0
 71
     5
 72
     1
  1
\A1;0.2500
 73
     1
 44
1.0
  0
POINT
  5
38B
330
383
100
AcDbEntity
  8
Defpoints
 62
     0
100
AcDbPoint
 10
0.9337333067073601
 20
1.402190798373745
 30
0.0
  0
POINT
  5
38C
330
383
100
AcDbEntity
  8
Defpoints
 62
     0
100
AcDbPoint
 10
0.8000783915223693
 20
1.190891915010361
 30
0.0
  0
POINT
  5
38D
330
383
100
AcDbEntity
  8
Defpoints
 62
     0
100
AcDbPoint
 10
1.433920003915761
 20
0.7899619829791293
 30
0.0
  0
ENDBLK
  5
38F
330
383
100
AcDbEntity
  8
0
100
AcDbBlockEnd
  0
BLOCK
  5
3A0
330
393
100
AcDbEntity
  8
0
100
AcDbBlockBegin
  2
*D55
 70
     1
 10
0.0
 20
0.0
 30
0.0
  3
*D55
  1

  0
LINE
  5
394
330
393
100
AcDbEntity
  8
0
 62
     0
370
    -2
100
AcDbLine
 10
-16.40932191990445
 20
0.3382930748827413
 30
0.0
 11
-17.71771897392723
 21
-0.5136643605269532
 31
0.0
  0
LINE
  5
395
330
393
100
AcDbEntity
  8
0
 62
     0
370
    -2
100
AcDbLine
 10
2.109460485417459
 20
0.3382930748827199
 30
0.0
 11
3.417857539440264
 21
-0.5136643605269955
 31
0.0
  0
ARC
  5
396
330
393
100
AcDbEntity
  8
0
 62
     0
370
    -2
100
AcDbCircle
 10
-7.149930717243471
 20
6.367508104234808
 30
0.0
 40
12.4306575216322
100
AcDbArc
 50
215.3747711904802
 51
267.426012378748
  0
ARC
  5
397
330
393
100
AcDbEntity
  8
0
 62
     0
370
    -2
100
AcDbCircle
 10
-7.149930717243471
 20
6.367508104234808
 30
0.0
 40
12.4306575216322
100
AcDbArc
 50
272.5739876212517
 51
324.6252288095195
  0
SOLID
  5
398
330
393
100
AcDbEntity
  8
0
 62
     0
100
AcDbTrace
 10
-17.21676984275834
 20
-0.7820082196367663
 30
0.0
 11
-17.35457999340198
 21
-0.8757426325135539
 31
0.0
 12
-17.56687815671052
 22
-0.4154449741442514
 32
0.0
 13
-17.56687815671052
 23
-0.4154449741442514
 33
0.0
  0
SOLID
  5
399
330
393
100
AcDbEntity
  8
0
 62
     0
100
AcDbTrace
 10
3.054718558915006
 20
-0.8757426325135945
 30
0.0
 11
2.916908408271369
 21
-0.7820082196368064
 31
0.0
 12
3.267016722223552
 22
-0.4154449741442932
 32
0.0
 13
3.267016722223552
 23
-0.4154449741442932
 33
0.0
  0
MTEXT
  5
39A
330
393
100
AcDbEntity
  8
0
 62
     0
100
AcDbMText
 10
-7.1499307172435
 20
-6.063149417397391
 30
0.0
 40
0.3333333432674408
 41
0.0
 71
     5
 72
     1
  1
\A1;114%%d
 73
     1
 44
1.0
  0
POINT
  5
39B
330
393
100
AcDbEntity
  8
Defpoints
 62
     0
100
AcDbPoint
 10
-11.19217010696315
 20
-5.387556639794031
 30
0.0
  0
POINT
  5
39C
330
393
100
AcDbEntity
  8
Defpoints
 62
     0
100
AcDbPoint
 10
2.057085201661657
 20
0.3723970284878249
 30
0.0
  0
POINT
  5
39D
330
393
100
AcDbEntity
  8
Defpoints
 62
     0
100
AcDbPoint
 10
-16.35694663614865
 20
0.3723970284878461
 30
0.0
  0
POINT
  5
39E
330
393
100
AcDbEntity
  8
Defpoints
 62
     0
100
AcDbPoint
 10
-7.149930717243471
 20
6.367508104234808
 30
0.0
  0
POINT
  5
39F
330
393
100
AcDbEntity
  8
Defpoints
 62
     0
100
AcDbPoint
 10
-7.149930717243471
 20
6.367508104234808
 30
0.0
  0
ENDBLK
  5
3A1
330
393
100
AcDbEntity
  8
0
100
AcDbBlockEnd
  0
BLOCK
  5
3B3
330
3A8
100
AcDbEntity
  8
0
100
AcDbBlockBegin
  2
*D56
 70
     1
 10
0.0
 20
0.0
 30
0.0
  3
*D56
  1

  0
ARC
  5
3A9
330
3A8
100
AcDbEntity
  8
0
 62
     0
370
    -2
100
AcDbCircle
 10
-27.8514998199382
 20
3.438769174927728
 30
0.0
 40
3.897401861503944
100
AcDbArc
 50
263.3193162356023
 51
263.7642654552885
  0
ARC
  5
3AA
330
3A8
100
AcDbEntity
  8
0
 62
     0
370
    -2
100
AcDbCircle
 10
-27.8514998199382
 20
3.438769174927728
 30
0.0
 40
3.897401861503944
100
AcDbArc
 50
276.2357345447115
 51
276.6806837643976
  0
SOLID
  5
3AB
330
3A8
100
AcDbEntity
  8
0
 62
     0
100
AcDbTrace
 10
-28.28992373846887
 20
-0.3501938683184197
 30
0.0
 11
-28.31989141530675
 21
-0.5141442148344247
 31
0.0
 12
-28.79675861643582
 22
-0.3422660110627795
 32
0.0
 13
-28.79675861643582
 23
-0.3422660110627795
 33
0.0
  0
SOLID
  5
3AC
330
3A8
100
AcDbEntity
  8
0
 62
     0
100
AcDbTrace
 10
-27.38310822456965
 20
-0.5141442148344252
 30
0.0
 11
-27.41307590140753
 21
-0.3501938683184201
 31
0.0
 12
-26.90624102344058
 22
-0.3422660110627804
 32
0.0
 13
-26.90624102344058
 23
-0.3422660110627804
 33
0.0
  0
MTEXT
  5
3AD
330
3A8
100
AcDbEntity
  8
0
 62
     0
100
AcDbMText
 10
-27.8514998199382
 20
-0.458632686576216
 30
0.0
 40
0.3333333432674408
 41
0.0
 71
     5
 72
     1
  1
\A1;28%%d
 73
     1
 44
1.0
  0
POINT
  5
3AE
330
3A8
100
AcDbEntity
  8
Defpoints
 62
     0
100
AcDbPoint
 10
-28.16940632902516
 20
-0.4456454169425257
 30
0.0
  0
POINT
  5
3AF
330
3A8
100
AcDbEntity
  8
Defpoints
 62
     0
100
AcDbPoint
 10
-25.98769638238371
 20
-4.016444575290286
 30
0.0
  0
POINT
  5
3B0
330
3A8
100
AcDbEntity
  8
Defpoints
 62
     0
100
AcDbPoint
 10
-29.71530325749269
 20
-4.016444575290286
 30
0.0
  0
POINT
  5
3B1
330
3A8
100
AcDbEntity
  8
Defpoints
 62
     0
100
AcDbPoint
 10
-27.8514998199382
 20
3.438769174927728
 30
0.0
  0
POINT
  5
3B2
330
3A8
100
AcDbEntity
  8
Defpoints
 62
     0
100
AcDbPoint
 10
-27.8514998199382
 20
3.438769174927728
 30
0.0
  0
ENDBLK
  5
3B4
330
3A8
100
AcDbEntity
  8
0
100
AcDbBlockEnd
  0
BLOCK
  5
3C2
330
3B7
100
AcDbEntity
  8
0
100
AcDbBlockBegin
  2
*D57
 70
     1
 10
0.0
 20
0.0
 30
0.0
  3
*D57
  1

  0
LINE
  5
3B8
330
3B7
100
AcDbEntity
  8
0
 62
     0
370
    -2
100
AcDbLine
 10
-27.80628047364761
 20
3.481913823739036
 30
0.0
 11
-26.79297765528812
 21
4.448725549779991
 31
0.0
  0
LINE
  5
3B9
330
3B7
100
AcDbEntity
  8
0
 62
     0
370
    -2
100
AcDbLine
 10
-23.53681843948652
 20
-0.9928539056616962
 30
0.0
 11
-22.52351562112703
 21
-0.0260421796207397
 31
0.0
  0
LINE
  5
3BA
330
3B7
100
AcDbEntity
  8
0
 62
     0
370
    -2
100
AcDbLine
 10
-26.57805218211443
 20
3.962714190878716
 30
0.0
 11
-24.68228743143559
 21
1.975787767596934
 31
0.0
  0
LINE
  5
3BB
330
3B7
100
AcDbEntity
  8
0
 62
     0
370
    -2
100
AcDbLine
 10
-22.99890452893448
 20
0.2114560021273226
 30
0.0
 11
-24.19250620646845
 21
1.462454424329493
 31
0.0
  0
SOLID
  5
3BC
330
3B7
100
AcDbEntity
  8
0
 62
     0
100
AcDbTrace
 10
-26.51775972039365
 20
4.020240389293812
 30
0.0
 11
-26.6383446438352
 21
3.90518799246362
 31
0.0
 12
-26.923209372605
 22
4.324468961203385
 32
0.0
 13
-26.923209372605
 23
4.324468961203385
 33
0.0
  0
SOLID
  5
3BD
330
3B7
100
AcDbEntity
  8
0
 62
     0
100
AcDbTrace
 10
-23.05919699065526
 20
0.153929803712227
 30
0.0
 11
-22.9386120672137
 21
0.2689822005424182
 31
0.0
 12
-22.65374733844391
 22
-0.1502987681973462
 32
0.0
 13
-22.65374733844391
 23
-0.1502987681973462
 33
0.0
  0
MTEXT
  5
3BE
330
3B7
100
AcDbEntity
  8
0
 62
     0
100
AcDbMText
 10
-24.43739681895202
 20
1.719121095963214
 30
0.0
 40
0.3333333432674408
 41
0.0
 71
     5
 72
     1
  1
\A1;6.1848
 73
     1
 44
1.0
  0
POINT
  5
3BF
330
3B7
100
AcDbEntity
  8
Defpoints
 62
     0
100
AcDbPoint
 10
-27.8514998199382
 20
3.438769174927714
 30
0.0
  0
POINT
  5
3C0
330
3B7
100
AcDbEntity
  8
Defpoints
 62
     0
100
AcDbPoint
 10
-23.5820377857771
 20
-1.035998554473018
 30
0.0
  0
POINT
  5
3C1
330
3B7
100
AcDbEntity
  8
Defpoints
 62
     0
100
AcDbPoint
 10
-22.65374733844391
 20
-0.1502987681973462
 30
0.0
  0
ENDBLK
  5
3C3
330
3B7
100
AcDbEntity
  8
0
100
AcDbBlockEnd
  0
BLOCK
  5
3D0
330
3C5
100
AcDbEntity
  8
0
100
AcDbBlockBegin
  2
*D58
 70
     1
 10
0.0
 20
0.0
 30
0.0
  3
*D58
  1

  0
LINE
  5
3C6
330
3C5
100
AcDbEntity
  8
0
 62
     0
370
    -2
100
AcDbLine
 10
-27.80716166321043
 20
3.482818895221761
 30
0.0
 11
-26.10456847354794
 21
5.174336073972899
 31
0.0
  0
LINE
  5
3C7
330
3C5
100
AcDbEntity
  8
0
 62
     0
370
    -2
100
AcDbLine
 10
-19.08911140240971
 20
-5.292316934101309
 30
0.0
 11
-17.38651821274722
 21
-3.60079975535017
 31
0.0
  0
LINE
  5
3C8
330
3C5
100
AcDbEntity
  8
0
 62
     0
370
    -2
100
AcDbLine
 10
-25.87986460257154
 20
4.69276762570389
 30
0.0
 11
-21.46973752707305
 21
0.2537631517241623
 31
0.0
  0
LINE
  5
3C9
330
3C5
100
AcDbEntity
  8
0
 62
     0
370
    -2
100
AcDbLine
 10
-17.86660986647557
 20
-3.372957695974871
 30
0.0
 11
-20.95974361083123
 21
-0.2595701915432791
 31
0.0
  0
SOLID
  5
3CA
330
3C5
100
AcDbEntity
  8
0
 62
     0
100
AcDbTrace
 10
-25.82074706026785
 20
4.751500586095953
 30
0.0
 11
-25.93898214487523
 21
4.634034665311828
 31
0.0
 12
-26.23226236492392
 22
5.047472879526044
 32
0.0
 13
-26.23226236492392
 23
5.047472879526044
 33
0.0
  0
SOLID
  5
3CB
330
3C5
100
AcDbEntity
  8
0
 62
     0
100
AcDbTrace
 10
-17.92572740877926
 20
-3.431690656366934
 30
0.0
 11
-17.80749232417187
 21
-3.314224735582809
 31
0.0
 12
-17.51421210412319
 22
-3.727662949797025
 32
0.0
 13
-17.51421210412319
 23
-3.727662949797025
 33
0.0
  0
MTEXT
  5
3CC
330
3C5
100
AcDbEntity
  8
0
 62
     0
100
AcDbMText
 10
-21.21474056895214
 20
-0.0029035199095588
 30
0.0
 40
0.3333333432674408
 41
0.0
 71
     5
 72
     1
  1
\A1;12.3696
 73
     1
 44
1.0
  0
POINT
  5
3CD
330
3C5
100
AcDbEntity
  8
Defpoints
 62
     0
100
AcDbPoint
 10
-27.8514998199382
 20
3.438769174927714
 30
0.0
  0
POINT
  5
3CE
330
3C5
100
AcDbEntity
  8
Defpoints
 62
     0
100
AcDbPoint
 10
-19.13344955913747
 20
-5.336366654395356
 30
0.0
  0
POINT
  5
3CF
330
3C5
100
AcDbEntity
  8
Defpoints
 62
     0
100
AcDbPoint
 10
-17.51421210412319
 20
-3.727662949797025
 30
0.0
  0
ENDBLK
  5
3D1
330
3C5
100
AcDbEntity
  8
0
100
AcDbBlockEnd
  0
BLOCK
  5
3E0
330
3D3
100
AcDbEntity
  8
0
100
AcDbBlockBegin
  2
*D59
 70
     1
 10
0.0
 20
0.0
 30
0.0
  3
*D59
  1

  0
LINE
  5
3D4
330
3D3
100
AcDbEntity
  8
0
 62
     0
370
    -2
100
AcDbLine
 10
-37.46893673588461
 20
-6.641141597596562
 30
0.0
 11
-38.47061424753037
 21
-7.690986793200816
 31
0.0
  0
LINE
  5
3D5
330
3D3
100
AcDbEntity
  8
0
 62
     0
370
    -2
100
AcDbLine
 10
-18.23395953133294
 20
-6.641249941138344
 30
0.0
 11
-17.23238539234605
 21
-7.690986793200893
 31
0.0
  0
ARC
  5
3D6
330
3D3
100
AcDbEntity
  8
0
 62
     0
370
    -2
100
AcDbCircle
 10
-27.85149981993817
 20
3.438769174927714
 30
0.0
 40
15.20301203069118
100
AcDbArc
 50
228.2294411201217
 51
270.2033653831201
  0
ARC
  5
3D7
330
3D3
100
AcDbEntity
  8
0
 62
     0
370
    -2
100
AcDbCircle
 10
-27.85149981993817
 20
3.438769174927714
 30
0.0
 40
15.20301203069118
100
AcDbArc
 50
273.3961965802615
 51
311.7705588798779
  0
SOLID
  5
3D8
330
3D3
100
AcDbEntity
  8
0
 62
     0
100
AcDbTrace
 10
-37.92244903577345
 20
-7.838686584781033
 30
0.0
 11
-38.03550296423631
 21
-7.961147137763994
 31
0.0
 12
-38.34635765895376
 22
-7.560755075883936
 32
0.0
 13
-38.34635765895376
 23
-7.560755075883936
 33
0.0
  0
SOLID
  5
3D9
330
3D3
100
AcDbEntity
  8
0
 62
     0
100
AcDbTrace
 10
-17.66749667564011
 20
-7.961147137764067
 30
0.0
 11
-17.78055060410297
 21
-7.838686584781106
 31
0.0
 12
-17.35664198092266
 22
-7.560755075884012
 32
0.0
 13
-17.35664198092266
 23
-7.560755075884012
 33
0.0
  0
MTEXT
  5
3DA
330
3D3
100
AcDbEntity
  8
0
 62
     0
100
AcDbMText
 10
-27.37420508718106
 20
-11.75674873475285
 30
0.0
 40
0.3333333432674408
 41
0.0
 71
     5
 72
     1
  1
\A1;87%%d
 73
     1
 44
1.0
  0
POINT
  5
3DB
330
3D3
100
AcDbEntity
  8
Defpoints
 62
     0
100
AcDbPoint
 10
-31.67130117713172
 20
-11.27655251360234
 30
0.0
  0
POINT
  5
3DC
330
3D3
100
AcDbEntity
  8
Defpoints
 62
     0
100
AcDbPoint
 10
-18.27710418014426
 20
-6.596030594847761
 30
0.0
  0
POINT
  5
3DD
330
3D3
100
AcDbEntity
  8
Defpoints
 62
     0
100
AcDbPoint
 10
-37.42579208707329
 20
-6.595922251305979
 30
0.0
  0
POINT
  5
3DE
330
3D3
100
AcDbEntity
  8
Defpoints
 62
     0
100
AcDbPoint
 10
-27.85149981993817
 20
3.438769174927714
 30
0.0
  0
POINT
  5
3DF
330
3D3
100
AcDbEntity
  8
Defpoints
 62
     0
100
AcDbPoint
 10
-27.85149981993817
 20
3.438769174927714
 30
0.0
  0
ENDBLK
  5
3E1
330
3D3
100
AcDbEntity
  8
0
100
AcDbBlockEnd
  0
BLOCK
  5
3EF
330
3E4
100
AcDbEntity
  8
0
100
AcDbBlockBegin
  2
*D60
 70
     1
 10
0.0
 20
0.0
 30
0.0
  3
*D60
  1

  0
LINE
  5
3E5
330
3E4
100
AcDbEntity
  8
0
 62
     0
370
    -2
100
AcDbLine
 10
-5.590638011115343
 20
1.887272339610836
 30
0.0
 11
-4.430277402492559
 21
2.274059209151764
 31
0.0
  0
LINE
  5
3E6
330
3E4
100
AcDbEntity
  8
0
 62
     0
370
    -2
100
AcDbLine
 10
-4.090638011115343
 20
-2.612727660389168
 30
0.0
 11
-2.930277402492558
 21
-2.22594079084824
 31
0.0
  0
LINE
  5
3E7
330
3E4
100
AcDbEntity
  8
0
 62
     0
370
    -2
100
AcDbLine
 10
-4.442926513133233
 20
1.742796562243476
 30
0.0
 11
-3.899109525845784
 21
0.1113456003811315
 31
0.0
  0
LINE
  5
3E8
330
3E4
100
AcDbEntity
  8
0
 62
     0
370
    -2
100
AcDbLine
 10
-3.25915427915007
 20
-1.808520139706014
 30
0.0
 11
-3.727998411423304
 21
-0.401987742886309
 31
0.0
  0
SOLID
  5
3E9
330
3E4
100
AcDbEntity
  8
0
 62
     0
100
AcDbTrace
 10
-4.363869571629023
 20
1.769148876078213
 30
0.0
 11
-4.521983454637442
 21
1.716444248408739
 31
0.0
 12
-4.601040396141651
 22
2.217138211268733
 32
0.0
 13
-4.601040396141651
 23
2.217138211268733
 33
0.0
  0
SOLID
  5
3EA
330
3E4
100
AcDbEntity
  8
0
 62
     0
100
AcDbTrace
 10
-3.338211220654279
 20
-1.83487245354075
 30
0.0
 11
-3.180097337645861
 21
-1.782167825871277
 31
0.0
 12
-3.101040396141651
 22
-2.282861788731271
 32
0.0
 13
-3.101040396141651
 23
-2.282861788731271
 33
0.0
  0
MTEXT
  5
3EB
330
3E4
100
AcDbEntity
  8
0
 62
     0
100
AcDbMText
 10
-3.813553968634544
 20
-0.1453210712525888
 30
0.0
 40
0.3333333432674408
 41
0.0
 71
     5
 72
     1
  1
\A1;4.7434
 73
     1
 44
1.0
  0
POINT
  5
3EC
330
3E4
100
AcDbEntity
  8
Defpoints
 62
     0
100
AcDbPoint
 10
-5.6499307172435
 20
1.867508104234783
 30
0.0
  0
POINT
  5
3ED
330
3E4
100
AcDbEntity
  8
Defpoints
 62
     0
100
AcDbPoint
 10
-4.1499307172435
 20
-2.63249189576522
 30
0.0
  0
POINT
  5
3EE
330
3E4
100
AcDbEntity
  8
Defpoints
 62
     0
100
AcDbPoint
 10
-3.101040396141651
 20
-2.282861788731271
 30
0.0
  0
ENDBLK
  5
3F0
330
3E4
100
AcDbEntity
  8
0
100
AcDbBlockEnd
  0
BLOCK
  5
3FE
330
3F3
100
AcDbEntity
  8
0
100
AcDbBlockBegin
  2
*D61
 70
     1
 10
0.0
 20
0.0
 30
0.0
  3
*D61
  1

  0
LINE
  5
3F4
330
3F3
100
AcDbEntity
  8
0
 62
     0
370
    -2
100
AcDbLine
 10
-7.7124307172435
 20
1.867508104234783
 30
0.0
 11
-6.8449307172435
 21
1.867508104234783
 31
0.0
  0
LINE
  5
3F5
330
3F3
100
AcDbEntity
  8
0
 62
     0
370
    -2
100
AcDbLine
 10
-7.7124307172435
 20
-2.63249189576522
 30
0.0
 11
-6.844930717243501
 21
-2.63249189576522
 31
0.0
  0
LINE
  5
3F6
330
3F3
100
AcDbEntity
  8
0
 62
     0
370
    -2
100
AcDbLine
 10
-7.0249307172435
 20
1.367508104234783
 30
0.0
 11
-7.0249307172435
 21
-0.0980474480093922
 31
0.0
  0
LINE
  5
3F7
330
3F3
100
AcDbEntity
  8
0
 62
     0
370
    -2
100
AcDbLine
 10
-7.0249307172435
 20
-2.13249189576522
 30
0.0
 11
-7.0249307172435
 21
-0.6669363435210198
 31
0.0
  0
SOLID
  5
3F8
330
3F3
100
AcDbEntity
  8
0
 62
     0
100
AcDbTrace
 10
-6.941597383910167
 20
1.367508104234783
 30
0.0
 11
-7.108264050576833
 21
1.367508104234783
 31
0.0
 12
-7.0249307172435
 22
1.867508104234783
 32
0.0
 13
-7.0249307172435
 23
1.867508104234783
 33
0.0
  0
SOLID
  5
3F9
330
3F3
100
AcDbEntity
  8
0
 62
     0
100
AcDbTrace
 10
-7.108264050576834
 20
-2.13249189576522
 30
0.0
 11
-6.941597383910167
 21
-2.13249189576522
 31
0.0
 12
-7.0249307172435
 22
-2.63249189576522
 32
0.0
 13
-7.0249307172435
 23
-2.63249189576522
 33
0.0
  0
MTEXT
  5
3FA
330
3F3
100
AcDbEntity
  8
0
 62
     0
100
AcDbMText
 10
-7.0249307172435
 20
-0.3824918957652059
 30
0.0
 40
0.3888888955116272
 41
0.0
 71
     5
 72
     1
  1
\A1;4.5000
 73
     1
 44
1.0
  0
POINT
  5
3FB
330
3F3
100
AcDbEntity
  8
Defpoints
 62
     0
100
AcDbPoint
 10
-7.7749307172435
 20
1.867508104234783
 30
0.0
  0
POINT
  5
3FC
330
3F3
100
AcDbEntity
  8
Defpoints
 62
     0
100
AcDbPoint
 10
-7.7749307172435
 20
-2.63249189576522
 30
0.0
  0
POINT
  5
3FD
330
3F3
100
AcDbEntity
  8
Defpoints
 62
     0
100
AcDbPoint
 10
-7.0249307172435
 20
-2.63249189576522
 30
0.0
  0
ENDBLK
  5
3FF
330
3F3
100
AcDbEntity
  8
0
100
AcDbBlockEnd
  0
BLOCK
  5
40C
330
401
100
AcDbEntity
  8
0
100
AcDbBlockBegin
  2
*D62
 70
     1
 10
0.0
 20
0.0
 30
0.0
  3
*D62
  1

  0
ARC
  5
402
330
401
100
AcDbEntity
  8
0
 62
     0
370
    -2
100
AcDbCircle
 10
-7.1499307172435
 20
6.367508104234794
 30
0.0
 40
2.711797198236397
100
AcDbArc
 50
230.4066656678209
 51
240.9858584224494
  0
ARC
  5
403
330
401
100
AcDbEntity
  8
0
 62
     0
370
    -2
100
AcDbCircle
 10
-7.1499307172435
 20
6.367508104234794
 30
0.0
 40
2.711797198236397
100
AcDbArc
 50
299.0141415775504
 51
309.593334332179
  0
SOLID
  5
404
330
401
100
AcDbEntity
  8
0
 62
     0
100
AcDbTrace
 10
-8.498749779393028
 20
3.919750537128089
 30
0.0
 11
-8.43169311195397
 21
4.07233225664175
 31
0.0
 12
-8.007476287132517
 22
3.794871394567746
 32
0.0
 13
-8.007476287132517
 23
3.794871394567746
 33
0.0
  0
SOLID
  5
405
330
401
100
AcDbEntity
  8
0
 62
     0
100
AcDbTrace
 10
-5.868168322533035
 20
4.072332256641747
 30
0.0
 11
-5.801111655093977
 21
3.919750537128086
 31
0.0
 12
-6.292385147354488
 22
3.794871394567744
 32
0.0
 13
-6.292385147354488
 23
3.794871394567744
 33
0.0
  0
MTEXT
  5
406
330
401
100
AcDbEntity
  8
0
 62
     0
100
AcDbMText
 10
-7.024887261632777
 20
3.65859537426882
 30
0.0
 40
0.3333333432674408
 41
0.0
 71
     5
 72
     1
  1
\A1;37%%d
 73
     1
 44
1.0
  0
POINT
  5
407
330
401
100
AcDbEntity
  8
Defpoints
 62
     0
100
AcDbPoint
 10
-7.440214217572677
 20
3.671292323960631
 30
0.0
  0
POINT
  5
408
330
401
100
AcDbEntity
  8
Defpoints
 62
     0
100
AcDbPoint
 10
-5.175589068218251
 20
0.4444831571590147
 30
0.0
  0
POINT
  5
409
330
401
100
AcDbEntity
  8
Defpoints
 62
     0
100
AcDbPoint
 10
-9.124272366268762
 20
0.4444831571590147
 30
0.0
  0
POINT
  5
40A
330
401
100
AcDbEntity
  8
Defpoints
 62
     0
100
AcDbPoint
 10
-7.1499307172435
 20
6.367508104234794
 30
0.0
  0
POINT
  5
40B
330
401
100
AcDbEntity
  8
Defpoints
 62
     0
100
AcDbPoint
 10
-7.1499307172435
 20
6.367508104234794
 30
0.0
  0
ENDBLK
  5
40D
330
401
100
AcDbEntity
  8
0
100
AcDbBlockEnd
  0
BLOCK
  5
41A
330
40F
100
AcDbEntity
  8
0
100
AcDbBlockBegin
  2
*D63
 70
     1
 10
0.0
 20
0.0
 30
0.0
  3
*D63
  1

  0
ARC
  5
410
330
40F
100
AcDbEntity
  8
0
 62
     0
370
    -2
100
AcDbCircle
 10
28.22819535358829
 20
5.012481840025611
 30
0.0
 40
9.037717606003387
100
AcDbArc
 50
266.0452026953375
 51
267.4663414172639
  0
ARC
  5
411
330
40F
100
AcDbEntity
  8
0
 62
     0
370
    -2
100
AcDbCircle
 10
28.22819535358829
 20
5.012481840025611
 30
0.0
 40
9.037717606003387
100
AcDbArc
 50
272.5336585827361
 51
273.9547973046625
  0
SOLID
  5
412
330
40F
100
AcDbEntity
  8
0
 62
     0
100
AcDbTrace
 10
27.61291396796585
 20
-3.920770810493009
 30
0.0
 11
27.59682412993852
 21
-4.086659010465256
 31
0.0
 12
27.10720444903544
 22
-3.955445396397161
 32
0.0
 13
27.10720444903544
 23
-3.955445396397161
 33
0.0
  0
SOLID
  5
413
330
40F
100
AcDbEntity
  8
0
 62
     0
100
AcDbTrace
 10
28.85956657723806
 20
-4.086659010465254
 30
0.0
 11
28.84347673921074
 21
-3.920770810493007
 31
0.0
 12
29.34918625814114
 22
-3.95544539639716
 32
0.0
 13
29.34918625814114
 23
-3.95544539639716
 33
0.0
  0
MTEXT
  5
414
330
40F
100
AcDbEntity
  8
0
 62
     0
100
AcDbMText
 10
28.22819535358829
 20
-4.025235765977776
 30
0.0
 40
0.3333333432674408
 41
0.0
 71
     5
 72
     1
  1
\A1;14%%d
 73
     1
 44
1.0
  0
POINT
  5
415
330
40F
100
AcDbEntity
  8
Defpoints
 62
     0
100
AcDbPoint
 10
27.85367418679633
 20
-4.017472391391534
 30
0.0
  0
POINT
  5
416
330
40F
100
AcDbEntity
  8
Defpoints
 62
     0
100
AcDbPoint
 10
29.83672574635385
 20
-7.855761302098799
 30
0.0
  0
POINT
  5
417
330
40F
100
AcDbEntity
  8
Defpoints
 62
     0
100
AcDbPoint
 10
26.61966496082274
 20
-7.855761302098792
 30
0.0
  0
POINT
  5
418
330
40F
100
AcDbEntity
  8
Defpoints
 62
     0
100
AcDbPoint
 10
28.22819535358829
 20
5.012481840025611
 30
0.0
  0
POINT
  5
419
330
40F
100
AcDbEntity
  8
Defpoints
 62
     0
100
AcDbPoint
 10
28.22819535358829
 20
5.012481840025611
 30
0.0
  0
ENDBLK
  5
41B
330
40F
100
AcDbEntity
  8
0
100
AcDbBlockEnd
  0
ENDSEC
  0
SECTION
  2
ENTITIES
  0
DIMENSION
  5
6E
330
1F
100
AcDbEntity
  8
0
100
AcDbDimension
  2
*D6
 10
11.84926895352725
 20
8.573774600127265
 30
0.0
 11
11.84926895352725
 21
10.82377460012727
 31
0.0
 70
   160
 71
     5
 42
4.5
  3
OdaDimStyle0
100
AcDbAlignedDimension
 13
11.09926895352725
 23
13.07377460012727
 33
0.0
 14
11.09926895352725
 24
8.573774600127265
 34
0.0
 50
270.0
100
AcDbRotatedDimension
1001
ACAD
1000
DSTYLE
1002
{
1070
    41
1040
0.5
1070
   140
1040
0.3888888955116272
1002
}
  0
LINE
  5
9F
330
1F
100
AcDbEntity
  8
Layer1
 62
     7
370
     9
100
AcDbLine
 10
14.82275609029505
 20
-18.98474510180005
 30
0.0
 11
17.82275609029504
 21
-18.98474510180005
 31
0.0
  0
LINE
  5
A0
330
1F
100
AcDbEntity
  8
Layer1
 62
     7
370
     9
100
AcDbLine
 10
4.600740709435691
 20
-17.48474510180005
 30
0.0
 11
7.600740709435691
 21
-17.48474510180005
 31
0.0
  0
LINE
  5
A1
330
1F
100
AcDbEntity
  8
Layer1
 62
     7
370
     9
100
AcDbLine
 10
7.600740709435691
 20
-17.48474510180005
 30
0.0
 11
10.60074070943569
 21
-23.48474510180005
 31
0.0
  0
LINE
  5
A2
330
1F
100
AcDbEntity
  8
Layer1
 62
     7
370
     9
100
AcDbLine
 10
4.600740709435691
 20
-17.48474510180005
 30
0.0
 11
1.600740709435691
 21
-23.48474510180005
 31
0.0
  0
DIMENSION
  5
A3
330
1F
100
AcDbEntity
  8
0
100
AcDbDimension
  2
*D7
 10
20.82275609029504
 20
-24.41169823872098
 30
0.0
 11
16.32275609029505
 21
-24.41169823872098
 31
0.0
 70
   160
 71
     5
 42
8.999999999999986
  3
OdaDimStyle0
100
AcDbAlignedDimension
 13
11.82275609029505
 23
-23.48474510180005
 33
0.0
 14
20.82275609029504
 24
-23.48474510180005
 34
0.0
100
AcDbRotatedDimension
1001
ACAD
1000
DSTYLE
1002
{
1070
    41
1040
0.5
1070
   140
1040
0.3888888955116272
1002
}
  0
DIMENSION
  5
B1
330
1F
100
AcDbEntity
  8
0
100
AcDbDimension
  2
*D8
 10
16.44775609029505
 20
-23.48474510180005
 30
0.0
 11
16.44775609029505
 21
-21.23474510180005
 31
0.0
 70
   160
 71
     5
 42
4.5
  3
OdaDimStyle0
100
AcDbAlignedDimension
 13
15.69775609029505
 23
-18.98474510180005
 33
0.0
 14
15.69775609029505
 24
-23.48474510180005
 34
0.0
 50
270.0
100
AcDbRotatedDimension
1001
ACAD
1000
DSTYLE
1002
{
1070
    41
1040
0.5
1070
   140
1040
0.3888888955116272
1002
}
  0
DIMENSION
  5
BF
330
1F
100
AcDbEntity
  8
0
100
AcDbDimension
  2
*D9
 10
17.82275609029504
 20
-18.23474510180005
 30
0.0
 11
16.32275609029505
 21
-18.23474510180005
 31
0.0
 70
   160
 71
     5
 42
2.999999999999986
  3
OdaDimStyle0
100
AcDbAlignedDimension
 13
14.82275609029505
 23
-18.98474510180005
 33
0.0
 14
17.82275609029504
 24
-18.98474510180005
 34
0.0
100
AcDbRotatedDimension
1001
ACAD
1000
DSTYLE
1002
{
1070
    41
1040
0.5
1070
   140
1040
0.3888888955116272
1002
}
  0
DIMENSION
  5
CD
330
1F
100
AcDbEntity
  8
0
100
AcDbDimension
  2
*D10
 10
7.600740709435691
 20
-16.73474510180005
 30
0.0
 11
6.100740709435691
 21
-16.73474510180005
 31
0.0
 70
   160
 71
     5
 42
3.0
  3
OdaDimStyle0
100
AcDbAlignedDimension
 13
4.600740709435691
 23
-17.48474510180005
 33
0.0
 14
7.600740709435691
 24
-17.48474510180005
 34
0.0
100
AcDbRotatedDimension
1001
ACAD
1000
DSTYLE
1002
{
1070
    41
1040
0.5
1070
   140
1040
0.3888888955116272
1002
}
  0
DIMENSION
  5
DB
330
1F
100
AcDbEntity
  8
0
100
AcDbDimension
  2
*D11
 10
6.225740709435691
 20
-23.48474510180005
 30
0.0
 11
6.225740709435691
 21
-20.48474510180005
 31
0.0
 70
   160
 71
     5
 42
6.0
  3
OdaDimStyle0
100
AcDbAlignedDimension
 13
5.475740709435691
 23
-17.48474510180005
 33
0.0
 14
5.475740709435691
 24
-23.48474510180005
 34
0.0
 50
270.0
100
AcDbRotatedDimension
1001
ACAD
1000
DSTYLE
1002
{
1070
    41
1040
0.5
1070
   140
1040
0.3888888955116272
1002
}
  0
DIMENSION
  5
E9
330
1F
100
AcDbEntity
  8
0
100
AcDbDimension
  2
*D12
 10
10.60074070943569
 20
-24.41169823872098
 30
0.0
 11
6.100740709435691
 21
-24.41169823872098
 31
0.0
 70
   160
 71
     5
 42
9.0
  3
OdaDimStyle0
100
AcDbAlignedDimension
 13
1.600740709435691
 23
-23.48474510180005
 33
0.0
 14
10.60074070943569
 24
-23.48474510180005
 34
0.0
100
AcDbRotatedDimension
1001
ACAD
1000
DSTYLE
1002
{
1070
    41
1040
0.5
1070
   140
1040
0.3888888955116272
1002
}
  0
LINE
  5
F7
330
1F
100
AcDbEntity
  8
Layer1
 62
     7
370
    40
100
AcDbLine
 10
27.22819535358829
 20
8.012481840025664
 30
0.0
 11
31.72819535358829
 21
8.012481840025664
 31
0.0
  0
LINE
  5
F8
330
1F
100
AcDbEntity
  8
Layer1
 62
     7
370
    40
100
AcDbLine
 10
27.97819535358829
 20
14.01248184002567
 30
0.0
 11
27.22819535358829
 21
8.012481840025664
 31
0.0
  0
LINE
  5
F9
330
1F
100
AcDbEntity
  8
Layer1
 62
     7
370
    40
100
AcDbLine
 10
30.97819535358829
 20
14.01248184002567
 30
0.0
 11
31.72819535358829
 21
8.012481840025664
 31
0.0
  0
DIMENSION
  5
FA
330
1F
100
AcDbEntity
  8
0
100
AcDbDimension
  2
*D13
 10
29.60319535358829
 20
8.012481840025664
 30
0.0
 11
29.60319535358829
 21
11.01248184002566
 31
0.0
 70
   160
 71
     5
 42
6.000000000000004
  3
OdaDimStyle0
100
AcDbAlignedDimension
 13
28.85319535358829
 23
14.01248184002567
 33
0.0
 14
28.85319535358829
 24
8.012481840025664
 34
0.0
 50
270.0
100
AcDbRotatedDimension
1001
ACAD
1000
DSTYLE
1002
{
1070
    41
1040
0.5
1070
   140
1040
0.3888888955116272
1002
}
  0
LINE
  5
108
330
1F
100
AcDbEntity
  8
Layer1
 62
     7
370
    40
100
AcDbLine
 10
27.97819535358829
 20
14.01248184002567
 30
0.0
 11
30.97819535358829
 21
14.01248184002567
 31
0.0
  0
DIMENSION
  5
109
330
1F
100
AcDbEntity
  8
0
100
AcDbDimension
  2
*D14
 10
30.97819535358829
 20
14.76248184002567
 30
0.0
 11
29.47819535358829
 21
14.76248184002567
 31
0.0
 70
   160
 71
     5
 42
3.0
  3
OdaDimStyle0
100
AcDbAlignedDimension
 13
27.97819535358829
 23
14.01248184002567
 33
0.0
 14
30.97819535358829
 24
14.01248184002567
 34
0.0
100
AcDbRotatedDimension
1001
ACAD
1000
DSTYLE
1002
{
1070
    41
1040
0.5
1070
   140
1040
0.3888888955116272
1002
}
  0
DIMENSION
  5
117
330
1F
100
AcDbEntity
  8
0
100
AcDbDimension
  2
*D15
 10
31.72819535358829
 20
7.154701919924499
 30
0.0
 11
29.47819535358829
 21
7.154701919924499
 31
0.0
 70
   160
 71
     5
 42
4.5
  3
OdaDimStyle0
100
AcDbAlignedDimension
 13
27.22819535358829
 23
8.012481840025664
 33
0.0
 14
31.72819535358829
 24
8.012481840025664
 34
0.0
100
AcDbRotatedDimension
1001
ACAD
1000
DSTYLE
1002
{
1070
    41
1040
0.5
1070
   140
1040
0.3888888955116272
1002
}
  0
MTEXT
  5
125
330
1F
100
AcDbEntity
  8
Layer1
 62
     7
370
    50
100
AcDbMText
 10
5.281545278347036
 20
18.05313028450234
 30
0.0
 40
0.7777777910232544
 41
15.575
 71
     1
 72
     1
  1
{\C7;\l\fPlotter|b0|i0|c00|p34;\H1.00x;      Cone Ratios \P1SmD x 1.5H x 1.5LgD\P}
 73
     1
 44
1.0
  0
MTEXT
  5
126
330
1F
100
AcDbEntity
  8
Layer1
 62
     7
370
    50
100
AcDbMText
 10
23.62875068012212
 20
18.17351156643126
 30
0.0
 40
0.7777777910232544
 41
15.575
 71
     1
 72
     1
  1
{\C7;\l\fPlotter|b0|i0|c00|p34;     Cone Ratios \P1SmD x 2H x 1.5LgD\P}
 73
     1
 44
1.0
  0
LINE
  5
127
330
1F
100
AcDbEntity
  8
Layer1
 62
     7
370
    40
100
AcDbLine
 10
9.599268953527254
 20
8.573774600127265
 30
0.0
 11
14.09926895352725
 21
8.573774600127265
 31
0.0
  0
DIMENSION
  5
128
330
1F
100
AcDbEntity
  8
0
100
AcDbDimension
  2
*D16
 10
13.34926895352725
 20
13.82377460012727
 30
0.0
 11
11.84926895352725
 21
13.82377460012727
 31
0.0
 70
   160
 71
     5
 42
3.000000000000004
  3
OdaDimStyle0
100
AcDbAlignedDimension
 13
10.34926895352725
 23
13.07377460012727
 33
0.0
 14
13.34926895352725
 24
13.07377460012727
 34
0.0
100
AcDbRotatedDimension
1001
ACAD
1000
DSTYLE
1002
{
1070
    41
1040
0.5
1070
   140
1040
0.3888888955116272
1002
}
  0
LINE
  5
136
330
1F
100
AcDbEntity
  8
Layer1
 62
     7
370
    40
100
AcDbLine
 10
10.34926895352725
 20
13.07377460012727
 30
0.0
 11
13.34926895352725
 21
13.07377460012727
 31
0.0
  0
LINE
  5
137
330
1F
100
AcDbEntity
  8
Layer1
 62
     7
370
    40
100
AcDbLine
 10
13.34926895352725
 20
13.07377460012727
 30
0.0
 11
14.09926895352725
 21
8.573774600127265
 31
0.0
  0
LINE
  5
138
330
1F
100
AcDbEntity
  8
Layer1
 62
     7
370
    40
100
AcDbLine
 10
10.34926895352725
 20
13.07377460012727
 30
0.0
 11
9.599268953527254
 21
8.573774600127265
 31
0.0
  0
DIMENSION
  5
139
330
1F
100
AcDbEntity
  8
0
100
AcDbDimension
  2
*D17
 10
14.09926895352725
 20
7.7159946800261
 30
0.0
 11
11.84926895352725
 21
7.7159946800261
 31
0.0
 70
   160
 71
     5
 42
4.5
  3
OdaDimStyle0
100
AcDbAlignedDimension
 13
9.599268953527254
 23
8.573774600127265
 33
0.0
 14
14.09926895352725
 24
8.573774600127265
 34
0.0
100
AcDbRotatedDimension
1001
ACAD
1000
DSTYLE
1002
{
1070
    41
1040
0.5
1070
   140
1040
0.3888888955116272
1002
}
  0
LINE
  5
147
330
1F
100
AcDbEntity
  8
Layer1
 62
     7
370
    50
100
AcDbLine
 10
23.63440366028794
 20
-6.174433636483691
 30
0.0
 11
21.33750781363777
 21
-11.76789137473838
 31
0.0
  0
LINE
  5
148
330
1F
100
AcDbEntity
  8
Layer1
 62
     7
370
    25
100
AcDbLine
 10
29.72819535358829
 20
-6.987518159974336
 30
0.0
 11
30.47819535358829
 21
-12.98751815997434
 31
0.0
  0
LINE
  5
149
330
1F
100
AcDbEntity
  8
Layer1
 62
     7
370
    25
100
AcDbLine
 10
25.97819535358829
 20
-12.98751815997434
 30
0.0
 11
30.47819535358829
 21
-12.98751815997434
 31
0.0
  0
LINE
  5
14A
330
1F
100
AcDbEntity
  8
Layer1
 62
     7
370
    25
100
AcDbLine
 10
26.72819535358829
 20
-6.987518159974336
 30
0.0
 11
29.72819535358829
 21
-6.987518159974336
 31
0.0
  0
LINE
  5
14B
330
1F
100
AcDbEntity
  8
Layer1
 62
     7
370
    25
100
AcDbLine
 10
26.72819535358829
 20
-6.987518159974336
 30
0.0
 11
25.97819535358829
 21
-12.98751815997434
 31
0.0
  0
DIMENSION
  5
14C
330
1F
100
AcDbEntity
  8
0
100
AcDbDimension
  2
*D18
 10
11.22426895352724
 20
-8.301225399872756
 30
0.0
 11
11.22426895352724
 21
-6.051225399872756
 31
0.0
 70
   160
 71
     5
 42
4.5
  3
OdaDimStyle0
100
AcDbAlignedDimension
 13
10.47426895352724
 23
-3.801225399872756
 33
0.0
 14
10.47426895352724
 24
-8.301225399872756
 34
0.0
 50
270.0
100
AcDbRotatedDimension
1001
ACAD
1000
DSTYLE
1002
{
1070
    41
1040
0.5
1070
   140
1040
0.3333333432674408
1002
}
  0
DIMENSION
  5
15A
330
1F
100
AcDbEntity
  8
0
100
AcDbDimension
  2
*D19
 10
12.59926895352725
 20
-3.004901847945341
 30
0.0
 11
11.09926895352724
 21
-3.004901847945341
 31
0.0
 70
   160
 71
     5
 42
3.000000000000011
  3
OdaDimStyle0
100
AcDbAlignedDimension
 13
9.59926895352724
 23
-3.926225399872756
 33
0.0
 14
12.59926895352725
 24
-3.926225399872756
 34
0.0
100
AcDbRotatedDimension
1001
ACAD
1000
DSTYLE
1002
{
1070
    41
1040
0.5
1070
   140
1040
0.3333333432674408
1002
}
  0
DIMENSION
  5
168
330
1F
100
AcDbEntity
  8
0
100
AcDbDimension
  2
*D20
 10
14.37660726058338
 20
-8.130002348696733
 30
0.0
 11
14.00959456236621
 21
-5.927926159393742
 31
0.0
 70
   161
 71
     5
 42
4.562071897723666
  3
OdaDimStyle0
100
AcDbAlignedDimension
 13
12.59926895352725
 23
-3.801225399872756
 33
0.0
 14
13.34926895352725
 24
-8.301225399872756
 34
0.0
1001
ACAD
1000
DSTYLE
1002
{
1070
    41
1040
0.5
1070
   140
1040
0.3333333432674408
1002
}
  0
DIMENSION
  5
176
330
1F
100
AcDbEntity
  8
0
100
AcDbDimension
  2
*D21
 10
13.34926895352725
 20
-9.173276603804602
 30
0.0
 11
11.22427416783535
 21
-9.173276603804602
 31
0.0
 70
   160
 71
     5
 42
4.500000000000014
  3
OdaDimStyle0
100
AcDbAlignedDimension
 13
8.84926895352724
 23
-8.301225399872756
 33
0.0
 14
13.34926895352725
 24
-8.301225399872756
 34
0.0
100
AcDbRotatedDimension
1001
ACAD
1000
DSTYLE
1002
{
1070
    41
1040
0.5
1070
   140
1040
0.3333333432674408
1002
}
  0
DIMENSION
  5
184
330
1F
100
AcDbEntity
  8
0
100
AcDbDimension
  2
*D22
 10
18.23367079028759
 20
-7.351276301656586
 30
0.0
 11
18.341804643698
 21
-7.288559690214036
 31
0.0
 70
   161
 71
     5
 42
0.2500104286162584
  3
OdaDimStyle0
100
AcDbAlignedDimension
 13
18.07365452493769
 23
-6.577067021655132
 33
0.0
 14
17.85738681811686
 24
-6.702500244540239
 34
0.0
1001
ACAD
1000
DSTYLE
1002
{
1070
    41
1040
0.5
1070
   140
1040
0.3333333432674408
1002
}
  0
LINE
  5
192
330
1F
100
AcDbEntity
  8
Layer1
 62
     7
370
    25
100
AcDbLine
 10
12.59926895352725
 20
-3.801225399872756
 30
0.0
 11
13.34926895352725
 21
-8.301225399872756
 31
0.0
  0
LINE
  5
193
330
1F
100
AcDbEntity
  8
Layer1
 62
     7
370
    25
100
AcDbLine
 10
9.59926895352724
 20
-3.801225399872756
 30
0.0
 11
12.59926895352725
 21
-3.801225399872756
 31
0.0
  0
LINE
  5
194
330
1F
100
AcDbEntity
  8
Layer1
 62
     7
370
    25
100
AcDbLine
 10
8.84926895352724
 20
-8.301225399872756
 30
0.0
 11
13.34926895352725
 21
-8.301225399872756
 31
0.0
  0
LINE
  5
195
330
1F
100
AcDbEntity
  8
Layer1
 62
     7
370
    25
100
AcDbLine
 10
9.59926895352724
 20
-3.801225399872756
 30
0.0
 11
8.84926895352724
 21
-8.301225399872756
 31
0.0
  0
LINE
  5
196
330
1F
100
AcDbEntity
  8
Layer1
 62
     7
370
    50
100
AcDbLine
 10
15.82038460637144
 20
-2.608982247551204
 30
0.0
 11
18.07365452493769
 21
-6.577067021655132
 31
0.0
  0
ARC
  5
197
330
1F
100
AcDbEntity
  8
Layer1
 62
     7
370
    50
100
AcDbCircle
 10
11.09926895352725
 20
5.198774600127273
 30
0.0
 40
9.124143795447358
100
AcDbArc
 50
240.41
 51
301.1600911877985
  0
ARC
  5
198
330
1F
100
AcDbEntity
  8
Layer1
 62
     7
370
    50
100
AcDbCircle
 10
11.09926895352725
 20
5.198774600127273
 30
0.0
 40
13.68621569317103
100
AcDbArc
 50
240.4099999999999
 51
300.6366546699492
  0
LINE
  5
199
330
1F
100
AcDbEntity
  8
Layer1
 62
     7
370
    50
100
AcDbLine
 10
6.593857043800831
 20
-2.735408629651069
 30
0.0
 11
4.341151088937643
 21
-6.702500244540239
 31
0.0
  0
LINE
  5
19A
330
1F
100
AcDbEntity
  8
Layer1
  6
Dotted_G
 62
     7
370
    25
100
AcDbLine
 10
15.60468086325366
 20
-2.735408629651069
 30
0.0
 11
17.85738681811686
 21
-6.702500244540239
 31
0.0
  0
LINE
  5
19B
330
1F
100
AcDbEntity
  8
Layer1
 62
     7
370
     9
100
AcDbLine
 10
1.600740709435691
 20
-23.48474510180005
 30
0.0
 11
10.60074070943569
 21
-23.48474510180005
 31
0.0
  0
MTEXT
  5
19C
330
1F
100
AcDbEntity
  8
Layer1
 62
     7
370
     9
100
AcDbMText
 10
3.463485994469889
 20
-25.96222100817213
 30
0.0
 40
0.3888888955116272
 41
7.175
 71
     1
 72
     1
  1
{\C7;\l\fPlotter|b0|i0|c00|p34;\H1.00x;      Ratios: \P1TD x 2H x 3BD\P}
 73
     1
 44
1.0
  0
MTEXT
  5
19D
330
1F
100
AcDbEntity
  8
Layer1
 62
     7
370
     9
100
AcDbMText
 10
13.43550137532925
 20
-25.96222100817213
 30
0.0
 40
0.3888888955116272
 41
7.175
 71
     1
 72
     1
  1
{\C7;\l\fPlotter|b0|i0|c00|p34;       Ratios: \P1TD x 1.5H x 3BD\P}
 73
     1
 44
1.0
  0
LINE
  5
19E
330
1F
100
AcDbEntity
  8
Layer1
 62
     7
370
     9
100
AcDbLine
 10
14.82275609029505
 20
-18.98474510180005
 30
0.0
 11
11.82275609029505
 21
-23.48474510180005
 31
0.0
  0
LINE
  5
19F
330
1F
100
AcDbEntity
  8
Layer1
 62
     7
370
     9
100
AcDbLine
 10
17.82275609029504
 20
-18.98474510180005
 30
0.0
 11
20.82275609029504
 21
-23.48474510180005
 31
0.0
  0
LINE
  5
1A0
330
1F
100
AcDbEntity
  8
Layer1
 62
     7
370
     9
100
AcDbLine
 10
11.82275609029505
 20
-23.48474510180005
 30
0.0
 11
20.82275609029504
 21
-23.48474510180005
 31
0.0
  0
LINE
  5
1A1
330
1F
100
AcDbEntity
  8
Layer1
 62
     7
370
    40
100
AcDbLine
 10
-28.4764998199382
 20
12.93876917492772
 30
0.0
 11
-29.9764998199382
 21
6.938769174927717
 31
0.0
  0
MTEXT
  5
1A2
330
1F
100
AcDbEntity
  8
Layer1
 62
     7
370
    50
100
AcDbMText
 10
-32.31846335026282
 20
19.17765714094153
 30
0.0
 40
0.7777777910232544
 41
15.575
 71
     1
 72
     1
  1
{\C7;\l\fPlotter|b0|i0|c00|p34;\H1.00x;    Cone Ratios \P1SmD x 2H x 2LgD\P\l\fPlotter|b0|i1|c01|p34;\H0.71x; \P   Default GEK reduction  \P      bell as of v2.3\P}
 73
     1
 44
1.0
  0
LINE
  5
1A3
330
1F
100
AcDbEntity
  8
Layer1
 62
     7
370
    40
100
AcDbLine
 10
-9.8999307172435
 20
8.867508104234808
 30
0.0
 11
-3.8999307172435
 21
8.867508104234808
 31
0.0
  0
DIMENSION
  5
1A4
330
1F
100
AcDbEntity
  8
0
100
AcDbDimension
  2
*D23
 10
-5.3999307172435
 20
14.11750810423482
 30
0.0
 11
-6.8999307172435
 21
14.11750810423482
 31
0.0
 70
   160
 71
     5
 42
3.0
  3
OdaDimStyle0
100
AcDbAlignedDimension
 13
-8.3999307172435
 23
13.36750810423482
 33
0.0
 14
-5.3999307172435
 24
13.36750810423482
 34
0.0
100
AcDbRotatedDimension
1001
ACAD
1000
DSTYLE
1002
{
1070
    41
1040
0.5
1070
   140
1040
0.3888888955116272
1002
}
  0
DIMENSION
  5
1B2
330
1F
100
AcDbEntity
  8
0
100
AcDbDimension
  2
*D24
 10
-3.8999307172435
 20
7.940554979234825
 30
0.0
 11
-6.8999307172435
 21
7.940554979234825
 31
0.0
 70
   160
 71
     5
 42
6.0
  3
OdaDimStyle0
100
AcDbAlignedDimension
 13
-9.8999307172435
 23
8.867508104234808
 33
0.0
 14
-3.8999307172435
 24
8.867508104234808
 34
0.0
100
AcDbRotatedDimension
1001
ACAD
1000
DSTYLE
1002
{
1070
    41
1040
0.5
1070
   140
1040
0.3888888955116272
1002
}
  0
LINE
  5
1C0
330
1F
100
AcDbEntity
  8
Layer1
 62
     7
370
    40
100
AcDbLine
 10
-8.3999307172435
 20
13.36750810423482
 30
0.0
 11
-9.8999307172435
 21
8.867508104234808
 31
0.0
  0
DIMENSION
  5
1C1
330
1F
100
AcDbEntity
  8
0
100
AcDbDimension
  2
*D25
 10
-6.7749307172435
 20
8.867508104234808
 30
0.0
 11
-6.7749307172435
 21
11.11750810423482
 31
0.0
 70
   160
 71
     5
 42
4.500000000000007
  3
OdaDimStyle0
100
AcDbAlignedDimension
 13
-7.5249307172435
 23
13.36750810423482
 33
0.0
 14
-7.5249307172435
 24
8.867508104234808
 34
0.0
 50
270.0
100
AcDbRotatedDimension
1001
ACAD
1000
DSTYLE
1002
{
1070
    41
1040
0.5
1070
   140
1040
0.3888888955116272
1002
}
  0
LINE
  5
1CF
330
1F
100
AcDbEntity
  8
Layer1
 62
     7
370
    40
100
AcDbLine
 10
-8.3999307172435
 20
13.36750810423482
 30
0.0
 11
-5.3999307172435
 21
13.36750810423482
 31
0.0
  0
LINE
  5
1D0
330
1F
100
AcDbEntity
  8
Layer1
 62
     7
370
    40
100
AcDbLine
 10
-5.3999307172435
 20
13.36750810423482
 30
0.0
 11
-3.8999307172435
 21
8.867508104234808
 31
0.0
  0
LINE
  5
1D1
330
1F
100
AcDbEntity
  8
Layer1
  6
Dotted_G
 62
     7
370
    25
100
AcDbLine
 10
-8.6499307172435
 20
1.867508104234783
 30
0.0
 11
-7.1499307172435
 21
6.367508104234808
 31
0.0
  0
LINE
  5
1D2
330
1F
100
AcDbEntity
  8
Layer1
  6
Dotted_G
 62
     7
370
    25
100
AcDbLine
 10
-5.6499307172435
 20
1.867508104234783
 30
0.0
 11
-7.1499307172435
 21
6.367508104234808
 31
0.0
  0
LINE
  5
1D3
330
1F
100
AcDbEntity
  8
Layer1
 62
     7
370
    25
100
AcDbLine
 10
-8.6499307172435
 20
1.867508104234783
 30
0.0
 11
-5.6499307172435
 21
1.867508104234783
 31
0.0
  0
ARC
  5
1D4
330
1F
100
AcDbEntity
  8
Layer1
 62
     7
370
    50
100
AcDbCircle
 10
7.1499307172435
 20
6.367508104234808
 30
0.0
 40
4.743416490252587
210
0.0
220
0.0
230
-1.0
100
AcDbArc
 50
210.0488474896241
 51
326.93
  0
LINE
  5
1D5
330
1F
100
AcDbEntity
  8
Layer1
 62
     7
370
    50
100
AcDbLine
 10
-15.09993982600937
 20
1.190891915010361
 30
0.0
 11
-11.12493527162643
 21
3.779200009622592
 31
0.0
  0
DIMENSION
  5
1D6
330
1F
100
AcDbEntity
  8
0
100
AcDbDimension
  2
*D26
 10
-5.6499307172435
 20
2.617508104234787
 30
0.0
 11
-7.1499307172435
 21
2.617508104234787
 31
0.0
 70
   160
 71
     5
 42
3.0
  3
OdaDimStyle0
100
AcDbAlignedDimension
 13
-8.6499307172435
 23
1.867508104234783
 33
0.0
 14
-5.6499307172435
 24
1.867508104234783
 34
0.0
100
AcDbRotatedDimension
1001
ACAD
1000
DSTYLE
1002
{
1070
    41
1040
0.5
1070
   140
1040
0.3888888955116272
1002
}
  0
LINE
  5
1E4
330
1F
100
AcDbEntity
  8
Layer1
  6
Dotted_G
 62
     7
370
    25
100
AcDbLine
 10
-11.12493527162643
 20
3.779200009622592
 30
0.0
 11
-7.1499307172435
 21
6.367508104234808
 31
0.0
  0
LINE
  5
1E5
330
1F
100
AcDbEntity
  8
Layer1
  6
Dotted_G
 62
     7
370
    25
100
AcDbLine
 10
32.82198704688864
 20
-6.174433636483691
 30
0.0
 11
35.11888289353881
 21
-11.76789137473838
 31
0.0
  0
DIMENSION
  5
1E6
330
1F
100
AcDbEntity
  8
0
100
AcDbDimension
  2
*D27
 10
31.79571781194584
 20
-12.82282785267964
 30
0.0
 11
31.42967584398994
 21
-9.89449210903242
 31
0.0
 70
   161
 71
     5
 42
6.046693311223912
  3
OdaDimStyle0
100
AcDbAlignedDimension
 13
29.72819535358829
 23
-6.987518159974336
 33
0.0
 14
30.47819535358829
 24
-12.98751815997434
 34
0.0
1001
ACAD
1000
DSTYLE
1002
{
1070
    41
1040
0.5
1070
   140
1040
0.3333333432674408
1002
}
  0
DIMENSION
  5
1F4
330
1F
100
AcDbEntity
  8
0
100
AcDbDimension
  2
*D28
 10
28.35319535358829
 20
-12.98751815997434
 30
0.0
 11
28.35319535358829
 21
-9.987518159974336
 31
0.0
 70
   160
 71
     5
 42
6.0
  3
OdaDimStyle0
100
AcDbAlignedDimension
 13
27.60319535358829
 23
-6.987518159974336
 33
0.0
 14
27.60319535358829
 24
-12.98751815997434
 34
0.0
 50
270.0
100
AcDbRotatedDimension
1001
ACAD
1000
DSTYLE
1002
{
1070
    41
1040
0.5
1070
   140
1040
0.3888888955116272
1002
}
  0
DIMENSION
  5
202
330
1F
100
AcDbEntity
  8
0
100
AcDbDimension
  2
*D29
 10
29.72819535358829
 20
-6.237518159974321
 30
0.0
 11
28.22819535358829
 21
-6.237518159974321
 31
0.0
 70
   160
 71
     5
 42
3.0
  3
OdaDimStyle0
100
AcDbAlignedDimension
 13
26.72819535358829
 23
-6.987518159974336
 33
0.0
 14
29.72819535358829
 24
-6.987518159974336
 34
0.0
100
AcDbRotatedDimension
1001
ACAD
1000
DSTYLE
1002
{
1070
    41
1040
0.5
1070
   140
1040
0.3888888955116272
1002
}
  0
DIMENSION
  5
210
330
1F
100
AcDbEntity
  8
0
100
AcDbDimension
  2
*D30
 10
30.47819535358829
 20
-13.8452980800755
 30
0.0
 11
28.22819535358829
 21
-13.8452980800755
 31
0.0
 70
   160
 71
     5
 42
4.5
  3
OdaDimStyle0
100
AcDbAlignedDimension
 13
25.97819535358829
 23
-12.98751815997434
 33
0.0
 14
30.47819535358829
 24
-12.98751815997434
 34
0.0
100
AcDbRotatedDimension
1001
ACAD
1000
DSTYLE
1002
{
1070
    41
1040
0.5
1070
   140
1040
0.3888888955116272
1002
}
  0
DIMENSION
  5
21E
330
1F
100
AcDbEntity
  8
0
100
AcDbDimension
  2
*D31
 10
35.40855184259164
 20
-12.45969474272284
 30
0.0
 11
35.5238551415801
 21
-12.41141543824703
 31
0.0
 70
   161
 71
     5
 42
0.2500059359158689
  3
OdaDimStyle0
100
AcDbAlignedDimension
 13
35.34948949151575
 23
-11.67133276578675
 33
0.0
 14
35.11888289353881
 24
-11.76789137473838
 34
0.0
1001
ACAD
1000
DSTYLE
1002
{
1070
    41
1040
0.5
1070
   140
1040
0.3333333432674408
1002
}
  0
ARC
  5
22C
330
1F
100
AcDbEntity
  8
Layer1
 62
     7
370
    50
100
AcDbCircle
 10
28.22819535358829
 20
5.012481840025661
 30
0.0
 40
12.09338662244781
100
AcDbArc
 50
247.675
 51
293.509528845867
  0
ARC
  5
22D
330
1F
100
AcDbEntity
  8
Layer1
 62
     7
370
    50
100
AcDbCircle
 10
-28.22819535358829
 20
5.012481840025661
 30
0.0
 40
18.14007993367172
210
0.0
220
0.0
230
-1.0
100
AcDbArc
 50
246.8853453566747
 51
292.325
  0
LINE
  5
22E
330
1F
100
AcDbEntity
  8
Layer1
 62
     7
370
    50
100
AcDbLine
 10
33.05226637790845
 20
-6.077078058920485
 30
0.0
 11
35.34948949151575
 21
-11.67133276578675
 31
0.0
  0
DIMENSION
  5
22F
330
1F
100
AcDbEntity
  8
0
100
AcDbDimension
  2
*D32
 10
-23.61877020134181
 20
-8.253048420423195
 30
0.0
 11
-24.33720002987384
 21
-5.379329106295039
 31
0.0
 70
   161
 71
     5
 42
6.184658438426489
  3
OdaDimStyle0
100
AcDbAlignedDimension
 13
-26.3514998199382
 23
-2.561230825072293
 33
0.0
 14
-24.85149981993821
 24
-8.561230825072293
 34
0.0
1001
ACAD
1000
DSTYLE
1002
{
1070
    41
1040
0.5
1070
   140
1040
0.3333333432674408
1002
}
  0
LINE
  5
23D
330
1F
100
AcDbEntity
  8
Layer1
 62
     7
370
    25
100
AcDbLine
 10
-10.1499307172435
 20
-2.63249189576522
 30
0.0
 11
-4.1499307172435
 21
-2.63249189576522
 31
0.0
  0
DIMENSION
  5
23E
330
1F
100
AcDbEntity
  8
0
100
AcDbDimension
  2
*D33
 10
-4.1499307172435
 20
-3.559445020765203
 30
0.0
 11
-7.1499307172435
 21
-3.559445020765203
 31
0.0
 70
   160
 71
     5
 42
6.0
  3
OdaDimStyle0
100
AcDbAlignedDimension
 13
-10.1499307172435
 23
-2.63249189576522
 33
0.0
 14
-4.1499307172435
 24
-2.63249189576522
 34
0.0
100
AcDbRotatedDimension
1001
ACAD
1000
DSTYLE
1002
{
1070
    41
1040
0.5
1070
   140
1040
0.3888888955116272
1002
}
  0
LINE
  5
24C
330
1F
100
AcDbEntity
  8
Layer1
 62
     7
370
     9
100
AcDbLine
 10
-20.66367375996536
 20
-23.40918764737298
 30
0.0
 11
-13.16367375996531
 21
-23.40918764737298
 31
0.0
  0
LINE
  5
24D
330
1F
100
AcDbEntity
  8
Layer1
 62
     7
370
     9
100
AcDbLine
 10
-15.41367375996534
 20
-17.40918764737298
 30
0.0
 11
-13.16367375996531
 21
-23.40918764737298
 31
0.0
  0
LINE
  5
24E
330
1F
100
AcDbEntity
  8
Layer1
 62
     7
370
     9
100
AcDbLine
 10
-18.41367375996535
 20
-17.40918764737298
 30
0.0
 11
-15.41367375996534
 21
-17.40918764737298
 31
0.0
  0
LINE
  5
24F
330
1F
100
AcDbEntity
  8
Layer1
 62
     7
370
     9
100
AcDbLine
 10
-18.41367375996535
 20
-17.40918764737298
 30
0.0
 11
-20.66367375996536
 21
-23.40918764737298
 31
0.0
  0
LINE
  5
250
330
1F
100
AcDbEntity
  8
Layer1
 62
     7
370
     9
100
AcDbLine
 10
-9.657682142126795
 20
-18.90918764737298
 30
0.0
 11
-6.657682142126781
 21
-18.90918764737298
 31
0.0
  0
LINE
  5
251
330
1F
100
AcDbEntity
  8
Layer1
 62
     7
370
     9
100
AcDbLine
 10
-6.657682142126781
 20
-18.90918764737298
 30
0.0
 11
-4.407682142126781
 21
-23.40918764737298
 31
0.0
  0
LINE
  5
252
330
1F
100
AcDbEntity
  8
Layer1
 62
     7
370
     9
100
AcDbLine
 10
-11.90768214212677
 20
-23.40918764737298
 30
0.0
 11
-4.407682142126781
 21
-23.40918764737298
 31
0.0
  0
LINE
  5
253
330
1F
100
AcDbEntity
  8
Layer1
 62
     7
370
     9
100
AcDbLine
 10
-9.657682142126795
 20
-18.90918764737298
 30
0.0
 11
-11.90768214212677
 21
-23.40918764737298
 31
0.0
  0
MTEXT
  5
254
330
1F
100
AcDbEntity
  8
Layer1
 62
     7
370
     9
100
AcDbMText
 10
-11.4199368570926
 20
-25.76166355374503
 30
0.0
 40
0.3888888955116272
 41
7.175
 71
     1
 72
     1
  1
{\C7;\l\fPlotter|b0|i0|c00|p34;\H1.00x;       Ratios: \P1TD x 1.5H x 2.5BD\P}
 73
     1
 44
1.0
  0
MTEXT
  5
255
330
1F
100
AcDbEntity
  8
Layer1
 62
     7
370
     9
100
AcDbMText
 10
-19.67592847493117
 20
-25.76166355374503
 30
0.0
 40
0.3888888955116272
 41
7.175
 71
     1
 72
     1
  1
{\C7;\l\fPlotter|b0|i0|c00|p34;       Ratios: \P1TD x 2H x 2.5BD\P}
 73
     1
 44
1.0
  0
DIMENSION
  5
256
330
1F
100
AcDbEntity
  8
0
100
AcDbDimension
  2
*D34
 10
-6.657682142126781
 20
-18.15918764737298
 30
0.0
 11
-8.157682142126788
 21
-18.15918764737298
 31
0.0
 70
   160
 71
     5
 42
3.000000000000014
  3
OdaDimStyle0
100
AcDbAlignedDimension
 13
-9.657682142126795
 23
-18.90918764737298
 33
0.0
 14
-6.657682142126781
 24
-18.90918764737298
 34
0.0
100
AcDbRotatedDimension
1001
ACAD
1000
DSTYLE
1002
{
1070
    41
1040
0.5
1070
   140
1040
0.3888888955116272
1002
}
  0
DIMENSION
  5
264
330
1F
100
AcDbEntity
  8
0
100
AcDbDimension
  2
*D35
 10
-8.032682142126788
 20
-23.40918764737298
 30
0.0
 11
-8.032682142126788
 21
-21.15918764737298
 31
0.0
 70
   160
 71
     5
 42
4.5
  3
OdaDimStyle0
100
AcDbAlignedDimension
 13
-8.782682142126795
 23
-18.90918764737298
 33
0.0
 14
-8.782682142126795
 24
-23.40918764737298
 34
0.0
 50
270.0
100
AcDbRotatedDimension
1001
ACAD
1000
DSTYLE
1002
{
1070
    41
1040
0.5
1070
   140
1040
0.3888888955116272
1002
}
  0
DIMENSION
  5
272
330
1F
100
AcDbEntity
  8
0
100
AcDbDimension
  2
*D36
 10
-4.407682142126781
 20
-24.33614078429391
 30
0.0
 11
-8.157682142126788
 21
-24.33614078429391
 31
0.0
 70
   160
 71
     5
 42
7.499999999999993
  3
OdaDimStyle0
100
AcDbAlignedDimension
 13
-11.90768214212677
 23
-23.40918764737298
 33
0.0
 14
-4.407682142126781
 24
-23.40918764737298
 34
0.0
100
AcDbRotatedDimension
1001
ACAD
1000
DSTYLE
1002
{
1070
    41
1040
0.5
1070
   140
1040
0.3888888955116272
1002
}
  0
DIMENSION
  5
280
330
1F
100
AcDbEntity
  8
0
100
AcDbDimension
  2
*D37
 10
-13.16367375996531
 20
-24.33614078429391
 30
0.0
 11
-16.91367375996535
 21
-24.33614078429391
 31
0.0
 70
   160
 71
     5
 42
7.50000000000005
  3
OdaDimStyle0
100
AcDbAlignedDimension
 13
-20.66367375996536
 23
-23.40918764737298
 33
0.0
 14
-13.16367375996531
 24
-23.40918764737298
 34
0.0
100
AcDbRotatedDimension
1001
ACAD
1000
DSTYLE
1002
{
1070
    41
1040
0.5
1070
   140
1040
0.3888888955116272
1002
}
  0
DIMENSION
  5
28E
330
1F
100
AcDbEntity
  8
0
100
AcDbDimension
  2
*D38
 10
-16.78867375996535
 20
-23.40918764737298
 30
0.0
 11
-16.78867375996535
 21
-20.40918764737298
 31
0.0
 70
   160
 71
     5
 42
6.0
  3
OdaDimStyle0
100
AcDbAlignedDimension
 13
-17.53867375996535
 23
-17.40918764737298
 33
0.0
 14
-17.53867375996535
 24
-23.40918764737298
 34
0.0
 50
270.0
100
AcDbRotatedDimension
1001
ACAD
1000
DSTYLE
1002
{
1070
    41
1040
0.5
1070
   140
1040
0.3888888955116272
1002
}
  0
DIMENSION
  5
29C
330
1F
100
AcDbEntity
  8
0
100
AcDbDimension
  2
*D39
 10
-15.41367375996534
 20
-16.65918764737295
 30
0.0
 11
-16.91367375996535
 21
-16.65918764737295
 31
0.0
 70
   160
 71
     5
 42
3.000000000000007
  3
OdaDimStyle0
100
AcDbAlignedDimension
 13
-18.41367375996535
 23
-17.40918764737298
 33
0.0
 14
-15.41367375996534
 24
-17.40918764737298
 34
0.0
100
AcDbRotatedDimension
1001
ACAD
1000
DSTYLE
1002
{
1070
    41
1040
0.5
1070
   140
1040
0.3888888955116272
1002
}
  0
LINE
  5
2AA
330
1F
100
AcDbEntity
  8
Layer1
 62
     7
370
    40
100
AcDbLine
 10
-25.4764998199382
 20
12.93876917492772
 30
0.0
 11
-23.97649981993821
 21
6.938769174927717
 31
0.0
  0
LINE
  5
2AB
330
1F
100
AcDbEntity
  8
Layer1
 62
     7
370
    40
100
AcDbLine
 10
-29.9764998199382
 20
6.938769174927717
 30
0.0
 11
-23.97649981993821
 21
6.938769174927717
 31
0.0
  0
DIMENSION
  5
2AC
330
1F
100
AcDbEntity
  8
0
100
AcDbDimension
  2
*D40
 10
-23.97649981993821
 20
6.080989227011056
 30
0.0
 11
-26.9764998199382
 21
6.080989227011056
 31
0.0
 70
   160
 71
     5
 42
5.999999999999986
  3
OdaDimStyle0
100
AcDbAlignedDimension
 13
-29.9764998199382
 23
6.938769174927717
 33
0.0
 14
-23.97649981993821
 24
6.938769174927717
 34
0.0
100
AcDbRotatedDimension
1001
ACAD
1000
DSTYLE
1002
{
1070
    41
1040
0.5
1070
   140
1040
0.3888888955116272
1002
}
  0
LINE
  5
2BA
330
1F
100
AcDbEntity
  8
Layer1
 62
     7
370
    40
100
AcDbLine
 10
-28.4764998199382
 20
12.93876917492772
 30
0.0
 11
-25.4764998199382
 21
12.93876917492772
 31
0.0
  0
DIMENSION
  5
2BB
330
1F
100
AcDbEntity
  8
0
100
AcDbDimension
  2
*D41
 10
-26.8514998199382
 20
6.938769174927717
 30
0.0
 11
-26.8514998199382
 21
9.938769174927717
 31
0.0
 70
   160
 71
     5
 42
6.0
  3
OdaDimStyle0
100
AcDbAlignedDimension
 13
-27.60149981993819
 23
12.93876917492772
 33
0.0
 14
-27.60149981993819
 24
6.938769174927717
 34
0.0
 50
270.0
100
AcDbRotatedDimension
1001
ACAD
1000
DSTYLE
1002
{
1070
    41
1040
0.5
1070
   140
1040
0.3888888955116272
1002
}
  0
DIMENSION
  5
2C9
330
1F
100
AcDbEntity
  8
0
100
AcDbDimension
  2
*D42
 10
-25.4764998199382
 20
13.68876917492772
 30
0.0
 11
-26.9764998199382
 21
13.68876917492772
 31
0.0
 70
   160
 71
     5
 42
2.999999999999993
  3
OdaDimStyle0
100
AcDbAlignedDimension
 13
-28.4764998199382
 23
12.93876917492772
 33
0.0
 14
-25.4764998199382
 24
12.93876917492772
 34
0.0
100
AcDbRotatedDimension
1001
ACAD
1000
DSTYLE
1002
{
1070
    41
1040
0.5
1070
   140
1040
0.3888888955116272
1002
}
  0
LINE
  5
2D7
330
1F
100
AcDbEntity
  8
Layer1
  6
Dotted_G
 62
     7
370
    25
100
AcDbLine
 10
23.63440366028794
 20
-6.174433636483691
 30
0.0
 11
28.22819535358829
 21
5.012481840025661
 31
0.0
  0
LINE
  5
2D8
330
1F
100
AcDbEntity
  8
Layer1
  6
Dotted_G
 62
     7
370
    25
100
AcDbLine
 10
32.82198704688864
 20
-6.174433636483691
 30
0.0
 11
28.22819535358829
 21
5.012481840025661
 31
0.0
  0
DIMENSION
  5
2D9
330
1F
100
AcDbEntity
  8
0
100
AcDbDimension
  2
*D43
 10
37.28429556987653
 20
-10.87868694783308
 30
0.0
 11
34.08710530062257
 21
-3.092809900638052
 31
0.0
 70
   161
 71
     5
 42
18.14007993367173
  3
OdaDimStyle0
100
AcDbAlignedDimension
 13
28.22819535358829
 23
5.012481840025664
 33
0.0
 14
35.11888289353881
 24
-11.76789137473838
 34
0.0
1001
ACAD
1000
DSTYLE
1002
{
1070
    41
1040
0.5
1070
   140
1040
0.3333333432674408
1002
}
  0
DIMENSION
  5
2E7
330
1F
100
AcDbEntity
  8
0
100
AcDbDimension
  2
*D44
 10
33.83086780530115
 20
-5.760147137469928
 30
0.0
 11
31.58710530062264
 21
-0.2960810315107025
 31
0.0
 70
   161
 71
     5
 42
12.09338662244782
  3
OdaDimStyle0
100
AcDbAlignedDimension
 13
28.22819535358829
 23
5.012481840025664
 33
0.0
 14
32.82198704688864
 24
-6.174433636483691
 34
0.0
1001
ACAD
1000
DSTYLE
1002
{
1070
    41
1040
0.5
1070
   140
1040
0.3333333432674408
1002
}
  0
DIMENSION
  5
2F5
330
1F
100
AcDbEntity
  8
0
100
AcDbDimension
  2
*D45
 10
28.22819535358828
 20
5.012481840025682
 30
0.0
 11
28.22819535358829
 21
-3.077461514675726
 31
0.0
 70
   162
 71
     5
 42
0.7792895110154672
  3
OdaDimStyle0
100
AcDb2LineAngularDimension
 13
23.30202631578325
 23
-6.983847190150804
 33
0.0
 14
28.22819535358828
 24
5.012481840025682
 34
0.0
 15
33.15436439139333
 25
-6.983847190150797
 35
0.0
 16
27.18041237613678
 26
-3.00932184209222
 36
0.0
1001
ACAD
1000
DSTYLE
1002
{
1070
    41
1040
0.5
1070
   140
1040
0.3333333432674408
1002
}
  0
LINE
  5
303
330
1F
100
AcDbEntity
  8
Layer1
  6
Dotted_G
 62
     7
370
    25
100
AcDbLine
 10
12.59926895352725
 20
-3.801225399872756
 30
0.0
 11
11.09926895352725
 21
5.198774600127265
 31
0.0
  0
LINE
  5
304
330
1F
100
AcDbEntity
  8
Layer1
  6
Dotted_G
 62
     7
370
    25
100
AcDbLine
 10
9.59926895352724
 20
-3.801225399872756
 30
0.0
 11
11.09926895352725
 21
5.198774600127265
 31
0.0
  0
LINE
  5
305
330
1F
100
AcDbEntity
  8
Layer1
  6
Dotted_G
 62
     7
370
    25
100
AcDbLine
 10
6.593857043800831
 20
-2.735408629651069
 30
0.0
 11
11.09926895352725
 21
5.198774600127265
 31
0.0
  0
DIMENSION
  5
306
330
1F
100
AcDbEntity
  8
0
100
AcDbDimension
  2
*D46
 10
11.09926895352725
 20
5.19877460012728
 30
0.0
 11
11.09926895352724
 21
-0.8668810146120407
 31
0.0
 70
   162
 71
     5
 42
1.032885851330244
  3
OdaDimStyle0
100
AcDb2LineAngularDimension
 13
6.161790703178532
 23
-3.496292114358987
 33
0.0
 14
11.09926895352725
 24
5.19877460012728
 34
0.0
 15
16.03674720387597
 25
-3.49629211435898
 35
0.0
 16
12.13830751349415
 26
-0.7772254758031547
 36
0.0
1001
ACAD
1000
DSTYLE
1002
{
1070
    41
1040
0.5
1070
   140
1040
0.3333333432674408
1002
}
  0
DIMENSION
  5
314
330
1F
100
AcDbEntity
  8
0
100
AcDbDimension
  2
*D47
 10
11.09926895352724
 20
5.19877460012723
 30
0.0
 11
11.22428068786235
 21
0.0771294020546023
 31
0.0
 70
   162
 71
     5
 42
0.3302973548292544
  3
OdaDimStyle0
100
AcDb2LineAngularDimension
 13
9.455419839635052
 23
-4.664320083225881
 33
0.0
 14
11.09926895352724
 24
5.19877460012723
 34
0.0
 15
12.74311806741944
 25
-4.664320083225881
 35
0.0
 16
10.81738309211205
 26
0.0833647602614054
 36
0.0
1001
ACAD
1000
DSTYLE
1002
{
1070
    41
1040
0.5
1070
   140
1040
0.3333333432674408
1002
}
  0
DIMENSION
  5
322
330
1F
100
AcDbEntity
  8
0
100
AcDbDimension
  2
*D48
 10
16.65873857631358
 20
-2.136863822148328
 30
0.0
 11
14.53561685391776
 21
1.602025562914356
 31
0.0
 70
   161
 71
     5
 42
9.124143795447347
  3
OdaDimStyle0
100
AcDbAlignedDimension
 13
11.09926895352725
 23
5.198774600127265
 33
0.0
 14
15.60468086325366
 24
-2.735408629651069
 34
0.0
1001
ACAD
1000
DSTYLE
1002
{
1070
    41
1040
0.5
1070
   140
1040
0.3333333432674408
1002
}
  0
DIMENSION
  5
330
330
1F
100
AcDbEntity
  8
0
100
AcDbDimension
  2
*D49
 10
19.7926213376489
 20
-5.603580746476561
 30
0.0
 11
16.82728352058437
 21
-0.381520244530229
 31
0.0
 70
   161
 71
     5
 42
13.68621569317103
  3
OdaDimStyle0
100
AcDbAlignedDimension
 13
11.09926895352725
 23
5.198774600127265
 33
0.0
 14
17.85738681811686
 24
-6.702500244540239
 34
0.0
1001
ACAD
1000
DSTYLE
1002
{
1070
    41
1040
0.5
1070
   140
1040
0.3333333432674408
1002
}
  0
LINE
  5
33E
330
1F
100
AcDbEntity
  8
Layer1
  6
Dotted_G
 62
     7
370
    25
100
AcDbLine
 10
15.60468086325366
 20
-2.735408629651069
 30
0.0
 11
11.09926895352725
 21
5.198774600127265
 31
0.0
  0
LINE
  5
33F
330
1F
100
AcDbEntity
  8
Layer1
 62
     7
370
    25
100
AcDbLine
 10
-26.3514998199382
 20
-2.561230825072293
 30
0.0
 11
-24.85149981993821
 21
-8.561230825072293
 31
0.0
  0
LINE
  5
340
330
1F
100
AcDbEntity
  8
Layer1
 62
     7
370
    25
100
AcDbLine
 10
-30.8514998199382
 20
-8.561230825072293
 30
0.0
 11
-24.85149981993821
 21
-8.561230825072293
 31
0.0
  0
DIMENSION
  5
341
330
1F
100
AcDbEntity
  8
0
100
AcDbDimension
  2
*D50
 10
-24.85149981993821
 20
-9.419010772988948
 30
0.0
 11
-27.8514998199382
 21
-9.419010772988948
 31
0.0
 70
   160
 71
     5
 42
5.999999999999986
  3
OdaDimStyle0
100
AcDbAlignedDimension
 13
-30.8514998199382
 23
-8.561230825072293
 33
0.0
 14
-24.85149981993821
 24
-8.561230825072293
 34
0.0
100
AcDbRotatedDimension
1001
ACAD
1000
DSTYLE
1002
{
1070
    41
1040
0.5
1070
   140
1040
0.3888888955116272
1002
}
  0
LINE
  5
34F
330
1F
100
AcDbEntity
  8
Layer1
 62
     7
370
    50
100
AcDbLine
 10
-32.12085848144042
 20
-1.035890210931264
 30
0.0
 11
-36.39021714294269
 21
-5.510549596790248
 31
0.0
  0
LINE
  5
350
330
1F
100
AcDbEntity
  8
Layer1
 62
     7
370
    25
100
AcDbLine
 10
-29.3514998199382
 20
-2.561230825072293
 30
0.0
 11
-26.3514998199382
 21
-2.561230825072293
 31
0.0
  0
LINE
  5
351
330
1F
100
AcDbEntity
  8
Layer1
 62
     7
370
    25
100
AcDbLine
 10
-29.3514998199382
 20
-2.561230825072293
 30
0.0
 11
-30.8514998199382
 21
-8.561230825072293
 31
0.0
  0
DIMENSION
  5
352
330
1F
100
AcDbEntity
  8
0
100
AcDbDimension
  2
*D51
 10
-27.7264998199382
 20
-8.561230825072293
 30
0.0
 11
-27.7264998199382
 21
-5.561230825072293
 31
0.0
 70
   160
 71
     5
 42
6.0
  3
OdaDimStyle0
100
AcDbAlignedDimension
 13
-28.47649981993819
 23
-2.561230825072293
 33
0.0
 14
-28.47649981993819
 24
-8.561230825072293
 34
0.0
 50
270.0
100
AcDbRotatedDimension
1001
ACAD
1000
DSTYLE
1002
{
1070
    41
1040
0.5
1070
   140
1040
0.3888888955116272
1002
}
  0
DIMENSION
  5
360
330
1F
100
AcDbEntity
  8
0
100
AcDbDimension
  2
*D52
 10
-26.3514998199382
 20
-1.811230825072293
 30
0.0
 11
-27.8514998199382
 21
-1.811230825072293
 31
0.0
 70
   160
 71
     5
 42
2.999999999999993
  3
OdaDimStyle0
100
AcDbAlignedDimension
 13
-29.3514998199382
 23
-2.561230825072293
 33
0.0
 14
-26.3514998199382
 24
-2.561230825072293
 34
0.0
100
AcDbRotatedDimension
1001
ACAD
1000
DSTYLE
1002
{
1070
    41
1040
0.5
1070
   140
1040
0.3888888955116272
1002
}
  0
DIMENSION
  5
36E
330
1F
100
AcDbEntity
  8
0
100
AcDbDimension
  2
*D53
 10
-18.78938282166161
 20
-6.048138741342284
 30
0.0
 11
-18.69981972542236
 21
-5.960938926603085
 31
0.0
 70
   161
 71
     5
 42
0.2500028471718983
  3
OdaDimStyle0
100
AcDbAlignedDimension
 13
-19.13344955913747
 23
-5.336366654395356
 33
0.0
 14
-19.312575751616
 24
-5.510766283873757
 34
0.0
1001
ACAD
1000
DSTYLE
1002
{
1070
    41
1040
0.5
1070
   140
1040
0.3333333432674408
1002
}
  0
LINE
  5
37C
330
1F
100
AcDbEntity
  8
Layer1
 62
     7
370
    50
100
AcDbLine
 10
-23.4047532374133
 20
-0.8596543536235046
 30
0.0
 11
-19.13344955913747
 21
-5.336366654395356
 31
0.0
  0
ARC
  5
37D
330
1F
100
AcDbEntity
  8
Layer1
 62
     7
370
    50
100
AcDbCircle
 10
27.8514998199382
 20
3.438769174927714
 30
0.0
 40
12.36961637129127
210
0.0
220
0.0
230
-1.0
100
AcDbArc
 50
225.1869728316147
 51
313.6550000000001
  0
ARC
  5
37E
330
1F
100
AcDbEntity
  8
Layer1
 62
     7
370
    50
100
AcDbCircle
 10
27.8514998199382
 20
3.438769174927714
 30
0.0
 40
6.184658438426458
210
0.0
220
0.0
230
-1.0
100
AcDbArc
 50
224.0283241886465
 51
313.6550000000001
  0
MTEXT
  5
37F
330
1F
100
AcDbEntity
  8
Layer1
 62
     7
370
    50
100
AcDbMText
 10
-12.79239611246689
 20
17.95382050042463
 30
0.0
 40
0.7777777910232544
 41
15.575
 71
     1
 72
     1
  1
{\C7;\l\fPlotter|b0|i0|c00|p34;\H1.00x;    Cone Ratios \P1SmD x 1.5H x 2LgD\P}
 73
     1
 44
1.0
  0
MTEXT
  5
380
330
1F
100
AcDbEntity
  8
Layer1
 62
     7
370
    50
100
AcDbMText
 10
-20.86331593146948
 20
24.44712671162498
 30
0.0
 40
0.7777777910232544
 41
47.075
 71
     1
 72
     1
  1
{\C7;\l\fPlotter|b0|i0|c00|p34;Use 16awg stainless sheet steel to make these.  Regular 304 ss is ok.  \P            \l\fPlotter|b0|i1|c01|p34; Files include a 1/4" overlap at the seam\P}
 73
     1
 44
1.0
  0
MTEXT
  5
381
330
1F
100
AcDbEntity
  8
Layer1
 62
     7
370
    50
100
AcDbMText
 10
-31.10255734356893
 20
27.84719357195262
 30
0.0
 40
2.0
 41
73.58749999999999
 71
     1
 72
     1
  1
{\C7;\l\fPlotter|b1|i0|c00|p34;\H1.00x;3" Reduction bell cones in various ratios\P}
 73
     1
 44
1.0
  0
DIMENSION
  5
382
330
1F
100
AcDbEntity
  8
0
100
AcDbDimension
  2
*D54
 10
1.433920003915761
 20
0.7899619829791293
 30
0.0
 11
1.500747461508247
 21
0.8956114246608067
 31
0.0
 70
   161
 71
     5
 42
0.2500217079849665
  3
OdaDimStyle0
100
AcDbAlignedDimension
 13
0.9337333067073601
 23
1.402190798373745
 33
0.0
 14
0.8000783915223693
 24
1.190891915010361
 34
0.0
1001
ACAD
1000
DSTYLE
1002
{
1070
    41
1040
0.5
1070
   140
1040
0.3333333432674408
1002
}
  0
LINE
  5
390
330
1F
100
AcDbEntity
  8
Layer1
 62
     7
370
    50
100
AcDbLine
 10
-3.044035027349587
 20
3.99229851691188
 30
0.0
 11
0.9337333067073601
 21
1.402190798373745
 31
0.0
  0
ARC
  5
391
330
1F
100
AcDbEntity
  8
Layer1
 62
     7
370
    50
100
AcDbCircle
 10
7.1499307172435
 20
6.367508104234808
 30
0.0
 40
9.486832980505179
210
0.0
220
0.0
230
-1.0
100
AcDbArc
 50
211.559948828023
 51
326.9299999999999
  0
DIMENSION
  5
392
330
1F
100
AcDbEntity
  8
0
100
AcDbDimension
  2
*D55
 10
-7.149930717243471
 20
6.367508104234808
 30
0.0
 11
-7.1499307172435
 21
-6.063149417397391
 31
0.0
 70
   162
 71
     5
 42
1.987231886320743
  3
OdaDimStyle0
100
AcDb2LineAngularDimension
 13
-16.35694663614865
 23
0.3723970284878461
 33
0.0
 14
-7.149930717243471
 24
6.367508104234808
 34
0.0
 15
2.057085201661657
 25
0.3723970284878249
 35
0.0
 16
-11.19217010696315
 26
-5.387556639794031
 36
0.0
1001
ACAD
1000
DSTYLE
1002
{
1070
    41
1040
0.5
1070
   140
1040
0.3333333432674408
1002
}
  0
LINE
  5
3A2
330
1F
100
AcDbEntity
  8
Layer1
  6
Dotted_G
 62
     7
370
    25
100
AcDbLine
 10
-7.1499307172435
 20
6.367508104234808
 30
0.0
 11
0.8000783915223693
 21
1.190891915010361
 31
0.0
  0
MTEXT
  5
3A3
330
1F
100
AcDbEntity
  8
Layer1
 62
     7
370
     9
100
AcDbMText
 10
-21.29468631286148
 20
-14.36922298122878
 30
0.0
 40
0.7777777910232544
 41
43.925
 71
     1
 72
     1
  1
{\C7;\l\fPlotter|b0|i0|c00|p34;\H1.00x;Other cone ratios of interest, but will not fit in default GEK downdraft\P}
 73
     1
 44
1.0
  0
LINE
  5
3A4
330
1F
100
AcDbEntity
  8
Layer1
  6
Dotted_G
 62
     7
370
    25
100
AcDbLine
 10
-32.12085848144042
 20
-1.035890210931264
 30
0.0
 11
-27.8514998199382
 21
3.438769174927714
 31
0.0
  0
LINE
  5
3A5
330
1F
100
AcDbEntity
  8
Layer1
  6
Dotted_G
 62
     7
370
    25
100
AcDbLine
 10
-29.3514998199382
 20
-2.561230825072293
 30
0.0
 11
-27.8514998199382
 21
3.438769174927714
 31
0.0
  0
LINE
  5
3A6
330
1F
100
AcDbEntity
  8
Layer1
  6
Dotted_G
 62
     7
370
    25
100
AcDbLine
 10
-26.3514998199382
 20
-2.561230825072293
 30
0.0
 11
-27.8514998199382
 21
3.438769174927714
 31
0.0
  0
DIMENSION
  5
3A7
330
1F
100
AcDbEntity
  8
0
100
AcDbDimension
  2
*D56
 10
-27.8514998199382
 20
3.438769174927728
 30
0.0
 11
-27.8514998199382
 21
-0.458632686576216
 31
0.0
 70
   162
 71
     5
 42
0.4899573262537256
  3
OdaDimStyle0
100
AcDb2LineAngularDimension
 13
-29.71530325749269
 23
-4.016444575290286
 33
0.0
 14
-27.8514998199382
 24
3.438769174927728
 34
0.0
 15
-25.98769638238371
 25
-4.016444575290286
 35
0.0
 16
-28.16940632902516
 26
-0.4456454169425257
 36
0.0
1001
ACAD
1000
DSTYLE
1002
{
1070
    41
1040
0.5
1070
   140
1040
0.3333333432674408
1002
}
  0
LINE
  5
3B5
330
1F
100
AcDbEntity
  8
Layer1
  6
Dotted_G
 62
     7
370
    25
100
AcDbLine
 10
-27.8514998199382
 20
3.438769174927714
 30
0.0
 11
-19.312575751616
 21
-5.510766283873757
 31
0.0
  0
DIMENSION
  5
3B6
330
1F
100
AcDbEntity
  8
0
100
AcDbDimension
  2
*D57
 10
-22.65374733844391
 20
-0.1502987681973462
 30
0.0
 11
-24.43739681895202
 21
1.719121095963214
 31
0.0
 70
   161
 71
     5
 42
6.184808185645628
  3
OdaDimStyle0
100
AcDbAlignedDimension
 13
-27.8514998199382
 23
3.438769174927714
 33
0.0
 14
-23.5820377857771
 24
-1.035998554473018
 34
0.0
1001
ACAD
1000
DSTYLE
1002
{
1070
    41
1040
0.5
1070
   140
1040
0.3333333432674408
1002
}
  0
DIMENSION
  5
3C4
330
1F
100
AcDbEntity
  8
0
100
AcDbDimension
  2
*D58
 10
-17.51421210412319
 20
-3.727662949797025
 30
0.0
 11
-21.21474056895214
 21
-0.0029035199095588
 31
0.0
 70
   161
 71
     5
 42
12.36961637129127
  3
OdaDimStyle0
100
AcDbAlignedDimension
 13
-27.8514998199382
 23
3.438769174927714
 33
0.0
 14
-19.13344955913747
 24
-5.336366654395356
 34
0.0
1001
ACAD
1000
DSTYLE
1002
{
1070
    41
1040
0.5
1070
   140
1040
0.3333333432674408
1002
}
  0
DIMENSION
  5
3D2
330
1F
100
AcDbEntity
  8
0
100
AcDbDimension
  2
*D59
 10
-27.85149981993817
 20
3.438769174927714
 30
0.0
 11
-27.37420508718106
 21
-11.75674873475285
 31
0.0
 70
   162
 71
     5
 42
1.523846969916252
  3
OdaDimStyle0
100
AcDb2LineAngularDimension
 13
-37.42579208707329
 23
-6.595922251305979
 33
0.0
 14
-27.85149981993817
 24
3.438769174927714
 34
0.0
 15
-18.27710418014426
 25
-6.596030594847761
 35
0.0
 16
-31.67130117713172
 26
-11.27655251360234
 36
0.0
1001
ACAD
1000
DSTYLE
1002
{
1070
    41
1040
0.5
1070
   140
1040
0.3333333432674408
1002
}
  0
LINE
  5
3E2
330
1F
100
AcDbEntity
  8
Layer1
 62
     7
370
    25
100
AcDbLine
 10
-5.6499307172435
 20
1.867508104234783
 30
0.0
 11
-4.1499307172435
 21
-2.63249189576522
 31
0.0
  0
DIMENSION
  5
3E3
330
1F
100
AcDbEntity
  8
0
100
AcDbDimension
  2
*D60
 10
-3.101040396141651
 20
-2.282861788731271
 30
0.0
 11
-3.813553968634544
 21
-0.1453210712525888
 31
0.0
 70
   161
 71
     5
 42
4.743416490252573
  3
OdaDimStyle0
100
AcDbAlignedDimension
 13
-5.6499307172435
 23
1.867508104234783
 33
0.0
 14
-4.1499307172435
 24
-2.63249189576522
 34
0.0
1001
ACAD
1000
DSTYLE
1002
{
1070
    41
1040
0.5
1070
   140
1040
0.3333333432674408
1002
}
  0
LINE
  5
3F1
330
1F
100
AcDbEntity
  8
Layer1
 62
     7
370
    25
100
AcDbLine
 10
-8.6499307172435
 20
1.867508104234783
 30
0.0
 11
-10.1499307172435
 21
-2.63249189576522
 31
0.0
  0
DIMENSION
  5
3F2
330
1F
100
AcDbEntity
  8
0
100
AcDbDimension
  2
*D61
 10
-7.0249307172435
 20
-2.63249189576522
 30
0.0
 11
-7.0249307172435
 21
-0.3824918957652059
 31
0.0
 70
   160
 71
     5
 42
4.500000000000004
  3
OdaDimStyle0
100
AcDbAlignedDimension
 13
-7.7749307172435
 23
1.867508104234783
 33
0.0
 14
-7.7749307172435
 24
-2.63249189576522
 34
0.0
 50
270.0
100
AcDbRotatedDimension
1001
ACAD
1000
DSTYLE
1002
{
1070
    41
1040
0.5
1070
   140
1040
0.3888888955116272
1002
}
  0
DIMENSION
  5
400
330
1F
100
AcDbEntity
  8
0
100
AcDbDimension
  2
*D62
 10
-7.1499307172435
 20
6.367508104234794
 30
0.0
 11
-7.024887261632777
 21
3.65859537426882
 31
0.0
 70
   162
 71
     5
 42
0.6435011087932833
  3
OdaDimStyle0
100
AcDb2LineAngularDimension
 13
-9.124272366268762
 23
0.4444831571590147
 33
0.0
 14
-7.1499307172435
 24
6.367508104234794
 34
0.0
 15
-5.175589068218251
 25
0.4444831571590147
 35
0.0
 16
-7.440214217572677
 26
3.671292323960631
 36
0.0
1001
ACAD
1000
DSTYLE
1002
{
1070
    41
1040
0.5
1070
   140
1040
0.3333333432674408
1002
}
  0
DIMENSION
  5
40E
330
1F
100
AcDbEntity
  8
0
100
AcDbDimension
  2
*D63
 10
28.22819535358829
 20
5.012481840025611
 30
0.0
 11
28.22819535358829
 21
-4.025235765977776
 31
0.0
 70
   162
 71
     5
 42
0.2487099890935233
  3
OdaDimStyle0
100
AcDb2LineAngularDimension
 13
26.61966496082274
 23
-7.855761302098792
 33
0.0
 14
28.22819535358829
 24
5.012481840025611
 34
0.0
 15
29.83672574635385
 25
-7.855761302098799
 35
0.0
 16
27.85367418679633
 26
-4.017472391391534
 36
0.0
1001
ACAD
1000
DSTYLE
1002
{
1070
    41
1040
0.5
1070
   140
1040
0.3333333432674408
1002
}
  0
LINE
  5
41C
330
1F
100
AcDbEntity
  8
Layer1
  6
Dotted_G
 62
     7
370
    25
100
AcDbLine
 10
26.72819535358829
 20
-6.987518159974336
 30
0.0
 11
28.22819535358829
 21
5.012481840025664
 31
0.0
  0
LINE
  5
41D
330
1F
100
AcDbEntity
  8
Layer1
  6
Dotted_G
 62
     7
370
    25
100
AcDbLine
 10
29.72819535358829
 20
-6.987518159974336
 30
0.0
 11
28.22819535358829
 21
5.012481840025661
 31
0.0
  0
ENDSEC
  0
SECTION
  2
OBJECTS
  0
DICTIONARY
  5
C
330
0
100
AcDbDictionary
281
     1
  3
ACAD_GROUP
350
D
  3
ACAD_LAYOUT
350
1A
  3
ACAD_MLEADERSTYLE
350
421
  3
ACAD_MLINESTYLE
350
17
  3
ACAD_PLOTSETTINGS
350
19
  3
ACAD_PLOTSTYLENAME
350
E
  3
ACAD_SCALELIST
350
6F
  3
ACAD_TABLESTYLE
350
420
  3
ACAD_VISUALSTYLE
350
2A
  3
AcDbVariableDictionary
350
41E
  0
DICTIONARY
  5
D
102
{ACAD_REACTORS
330
C
102
}
330
C
100
AcDbDictionary
281
     1
  0
DICTIONARY
  5
1A
102
{ACAD_REACTORS
330
C
102
}
330
C
100
AcDbDictionary
281
     1
  3
Layout1
350
1E
  3
Layout2
350
26
  3
Model
350
22
  0
DICTIONARY
  5
421
102
{ACAD_REACTORS
330
C
102
}
330
C
100
AcDbDictionary
281
     1
  0
DICTIONARY
  5
17
102
{ACAD_REACTORS
330
C
102
}
330
C
100
AcDbDictionary
281
     1
  3
Standard
350
18
  0
DICTIONARY
  5
19
102
{ACAD_REACTORS
330
C
102
}
330
C
100
AcDbDictionary
281
     1
  0
ACDBDICTIONARYWDFLT
  5
E
102
{ACAD_REACTORS
330
C
102
}
330
C
100
AcDbDictionary
281
     1
  3
Normal
350
F
100
AcDbDictionaryWithDefault
340
F
  0
DICTIONARY
  5
6F
102
{ACAD_REACTORS
330
C
102
}
330
C
100
AcDbDictionary
281
     1
  3
A0
350
70
  3
A1
350
71
  3
A2
350
72
  3
A3
350
73
  3
A4
350
74
  3
A5
350
75
  3
A6
350
76
  3
A7
350
77
  3
A8
350
78
  3
A9
350
79
  3
B0
350
7A
  3
B1
350
7B
  3
B2
350
7C
  3
B3
350
7D
  3
B4
350
7E
  3
B5
350
7F
  3
B6
350
80
  3
B7
350
81
  3
B8
350
82
  3
B9
350
83
  3
C0
350
84
  3
C1
350
85
  3
C2
350
86
  3
C3
350
87
  3
C4
350
88
  3
C5
350
89
  3
C6
350
8A
  3
C7
350
8B
  3
C8
350
8C
  3
C9
350
8D
  3
D0
350
8E
  3
D1
350
8F
  3
D2
350
90
  0
DICTIONARY
  5
420
102
{ACAD_REACTORS
330
C
102
}
330
C
100
AcDbDictionary
281
     1
  0
DICTIONARY
  5
2A
102
{ACAD_REACTORS
330
C
102
}
330
C
100
AcDbDictionary
281
     1
  3
2dWireframe
350
2F
  3
3D Hidden
350
31
  3
3dWireframe
350
30
  3
Basic
350
32
  3
Brighten
350
36
  3
ColorChange
350
3A
  3
Conceptual
350
34
  3
Dim
350
35
  3
Facepattern
350
39
  3
Flat
350
2B
  3
FlatWithEdges
350
2C
  3
Gouraud
350
2D
  3
GouraudWithEdges
350
2E
  3
Linepattern
350
38
  3
Realistic
350
33
  3
Thicken
350
37
  0
DICTIONARY
  5
41E
102
{ACAD_REACTORS
330
C
102
}
330
C
100
AcDbDictionary
281
     1
  3
CANNOSCALE
350
41F
  0
LAYOUT
  5
1E
102
{ACAD_REACTORS
330
1A
102
}
330
1A
100
AcDbPlotSettings
  1

  2
none_device
  4

  6

 40
0.0
 41
0.0
 42
0.0
 43
0.0
 44
0.0
 45
0.0
 46
0.0
 47
0.0
 48
0.0
 49
0.0
140
0.0
141
0.0
142
1.0
143
1.0
 70
   688
 72
     0
 73
     0
 74
     5
  7

 75
    16
 76
     0
 77
     2
 78
   300
147
1.0
148
0.0
149
0.0
100
AcDbLayout
  1
Layout1
 70
     1
 71
     1
 10
0.0
 20
0.0
 11
12.0
 21
9.0
 12
0.0
 22
0.0
 32
0.0
 14
1.000000000000000E+20
 24
1.000000000000000E+20
 34
1.000000000000000E+20
 15
-1.000000000000000E+20
 25
-1.000000000000000E+20
 35
-1.000000000000000E+20
146
0.0
 13
0.0
 23
0.0
 33
0.0
 16
1.0
 26
0.0
 36
0.0
 17
0.0
 27
1.0
 37
0.0
 76
     0
330
1B
  0
LAYOUT
  5
26
102
{ACAD_REACTORS
330
1A
102
}
330
1A
100
AcDbPlotSettings
  1

  2
none_device
  4

  6

 40
0.0
 41
0.0
 42
0.0
 43
0.0
 44
0.0
 45
0.0
 46
0.0
 47
0.0
 48
0.0
 49
0.0
140
0.0
141
0.0
142
1.0
143
1.0
 70
   688
 72
     0
 73
     0
 74
     5
  7

 75
    16
 76
     0
 77
     2
 78
   300
147
1.0
148
0.0
149
0.0
100
AcDbLayout
  1
Layout2
 70
     1
 71
     2
 10
0.0
 20
0.0
 11
0.0
 21
0.0
 12
0.0
 22
0.0
 32
0.0
 14
0.0
 24
0.0
 34
0.0
 15
0.0
 25
0.0
 35
0.0
146
0.0
 13
0.0
 23
0.0
 33
0.0
 16
1.0
 26
0.0
 36
0.0
 17
0.0
 27
1.0
 37
0.0
 76
     0
330
23
  0
LAYOUT
  5
22
102
{ACAD_REACTORS
330
1A
102
}
330
1A
100
AcDbPlotSettings
  1

  2
none_device
  4

  6

 40
0.0
 41
0.0
 42
0.0
 43
0.0
 44
0.0
 45
0.0
 46
0.0
 47
0.0
 48
0.0
 49
0.0
140
0.0
141
0.0
142
1.0
143
1.0
 70
  1712
 72
     0
 73
     0
 74
     0
  7

 75
     0
 76
     0
 77
     2
 78
   300
147
1.0
148
0.0
149
0.0
100
AcDbLayout
  1
Model
 70
     1
 71
     0
 10
0.0
 20
0.0
 11
12.0
 21
9.0
 12
0.0
 22
0.0
 32
0.0
 14
1.000000000000000E+20
 24
1.000000000000000E+20
 34
1.000000000000000E+20
 15
-1.000000000000000E+20
 25
-1.000000000000000E+20
 35
-1.000000000000000E+20
146
0.0
 13
0.0
 23
0.0
 33
0.0
 16
1.0
 26
0.0
 36
0.0
 17
0.0
 27
1.0
 37
0.0
 76
     0
330
1F
331
29
  0
MLINESTYLE
  5
18
102
{ACAD_REACTORS
330
17
102
}
330
17
100
AcDbMlineStyle
  2
Standard
 70
     0
  3

 62
   256
 51
90.0
 52
90.0
 71
     2
 49
0.5
 62
   256
  6
BYLAYER
 49
-0.5
 62
   256
  6
BYLAYER
  0
ACDBPLACEHOLDER
  5
F
102
{ACAD_REACTORS
330
E
102
}
330
E
  0
SCALE
  5
70
102
{ACAD_REACTORS
330
6F
102
}
330
6F
100
AcDbScale
 70
     0
300
1:1
140
1.0
141
1.0
290
     1
  0
SCALE
  5
71
102
{ACAD_REACTORS
330
6F
102
}
330
6F
100
AcDbScale
 70
     0
300
1:2
140
1.0
141
2.0
290
     0
  0
SCALE
  5
72
102
{ACAD_REACTORS
330
6F
102
}
330
6F
100
AcDbScale
 70
     0
300
1:4
140
1.0
141
4.0
290
     0
  0
SCALE
  5
73
102
{ACAD_REACTORS
330
6F
102
}
330
6F
100
AcDbScale
 70
     0
300
1:5
140
1.0
141
5.0
290
     0
  0
SCALE
  5
74
102
{ACAD_REACTORS
330
6F
102
}
330
6F
100
AcDbScale
 70
     0
300
1:8
140
1.0
141
8.0
290
     0
  0
SCALE
  5
75
102
{ACAD_REACTORS
330
6F
102
}
330
6F
100
AcDbScale
 70
     0
300
1:10
140
1.0
141
10.0
290
     0
  0
SCALE
  5
76
102
{ACAD_REACTORS
330
6F
102
}
330
6F
100
AcDbScale
 70
     0
300
1:16
140
1.0
141
16.0
290
     0
  0
SCALE
  5
77
102
{ACAD_REACTORS
330
6F
102
}
330
6F
100
AcDbScale
 70
     0
300
1:20
140
1.0
141
20.0
290
     0
  0
SCALE
  5
78
102
{ACAD_REACTORS
330
6F
102
}
330
6F
100
AcDbScale
 70
     0
300
1:30
140
1.0
141
30.0
290
     0
  0
SCALE
  5
79
102
{ACAD_REACTORS
330
6F
102
}
330
6F
100
AcDbScale
 70
     0
300
1:40
140
1.0
141
40.0
290
     0
  0
SCALE
  5
7A
102
{ACAD_REACTORS
330
6F
102
}
330
6F
100
AcDbScale
 70
     0
300
1:50
140
1.0
141
50.0
290
     0
  0
SCALE
  5
7B
102
{ACAD_REACTORS
330
6F
102
}
330
6F
100
AcDbScale
 70
     0
300
1:100
140
1.0
141
100.0
290
     0
  0
SCALE
  5
7C
102
{ACAD_REACTORS
330
6F
102
}
330
6F
100
AcDbScale
 70
     0
300
2:1
140
2.0
141
1.0
290
     0
  0
SCALE
  5
7D
102
{ACAD_REACTORS
330
6F
102
}
330
6F
100
AcDbScale
 70
     0
300
4:1
140
4.0
141
1.0
290
     0
  0
SCALE
  5
7E
102
{ACAD_REACTORS
330
6F
102
}
330
6F
100
AcDbScale
 70
     0
300
8:1
140
8.0
141
1.0
290
     0
  0
SCALE
  5
7F
102
{ACAD_REACTORS
330
6F
102
}
330
6F
100
AcDbScale
 70
     0
300
10:1
140
10.0
141
1.0
290
     0
  0
SCALE
  5
80
102
{ACAD_REACTORS
330
6F
102
}
330
6F
100
AcDbScale
 70
     0
300
100:1
140
100.0
141
1.0
290
     0
  0
SCALE
  5
81
102
{ACAD_REACTORS
330
6F
102
}
330
6F
100
AcDbScale
 70
     0
300
1/128" = 1'-0"
140
0.0078125
141
12.0
290
     0
  0
SCALE
  5
82
102
{ACAD_REACTORS
330
6F
102
}
330
6F
100
AcDbScale
 70
     0
300
1/64" = 1'-0"
140
0.015625
141
12.0
290
     0
  0
SCALE
  5
83
102
{ACAD_REACTORS
330
6F
102
}
330
6F
100
AcDbScale
 70
     0
300
1/32" = 1'-0"
140
0.03125
141
12.0
290
     0
  0
SCALE
  5
84
102
{ACAD_REACTORS
330
6F
102
}
330
6F
100
AcDbScale
 70
     0
300
1/16" = 1'-0"
140
0.0625
141
12.0
290
     0
  0
SCALE
  5
85
102
{ACAD_REACTORS
330
6F
102
}
330
6F
100
AcDbScale
 70
     0
300
3/32" = 1'-0"
140
0.09375
141
12.0
290
     0
  0
SCALE
  5
86
102
{ACAD_REACTORS
330
6F
102
}
330
6F
100
AcDbScale
 70
     0
300
1/8" = 1'-0"
140
0.125
141
12.0
290
     0
  0
SCALE
  5
87
102
{ACAD_REACTORS
330
6F
102
}
330
6F
100
AcDbScale
 70
     0
300
3/16" = 1'-0"
140
0.1875
141
12.0
290
     0
  0
SCALE
  5
88
102
{ACAD_REACTORS
330
6F
102
}
330
6F
100
AcDbScale
 70
     0
300
1/4" = 1'-0"
140
0.25
141
12.0
290
     0
  0
SCALE
  5
89
102
{ACAD_REACTORS
330
6F
102
}
330
6F
100
AcDbScale
 70
     0
300
3/8" = 1'-0"
140
0.375
141
12.0
290
     0
  0
SCALE
  5
8A
102
{ACAD_REACTORS
330
6F
102
}
330
6F
100
AcDbScale
 70
     0
300
1/2" = 1'-0"
140
0.5
141
12.0
290
     0
  0
SCALE
  5
8B
102
{ACAD_REACTORS
330
6F
102
}
330
6F
100
AcDbScale
 70
     0
300
3/4" = 1'-0"
140
0.75
141
12.0
290
     0
  0
SCALE
  5
8C
102
{ACAD_REACTORS
330
6F
102
}
330
6F
100
AcDbScale
 70
     0
300
1" = 1'-0"
140
1.0
141
12.0
290
     0
  0
SCALE
  5
8D
102
{ACAD_REACTORS
330
6F
102
}
330
6F
100
AcDbScale
 70
     0
300
1-1/2" = 1'-0"
140
1.5
141
12.0
290
     0
  0
SCALE
  5
8E
102
{ACAD_REACTORS
330
6F
102
}
330
6F
100
AcDbScale
 70
     0
300
3" = 1'-0"
140
3.0
141
12.0
290
     0
  0
SCALE
  5
8F
102
{ACAD_REACTORS
330
6F
102
}
330
6F
100
AcDbScale
 70
     0
300
6" = 1'-0"
140
6.0
141
12.0
290
     0
  0
SCALE
  5
90
102
{ACAD_REACTORS
330
6F
102
}
330
6F
100
AcDbScale
 70
     0
300
1'-0" = 1'-0"
140
12.0
141
12.0
290
     0
  0
VISUALSTYLE
  5
2F
102
{ACAD_REACTORS
330
2A
102
}
330
2A
100
AcDbVisualStyle
  2
2dWireframe
 70
     4
 71
     0
 72
     2
 73
     0
 90
        0
 40
-0.6
 41
-30.0
 62
     5
 63
     7
421
 16777215
 74
     1
 91
        4
 64
     7
 65
   257
 75
     1
175
     1
 42
1.0
 92
        0
 66
   257
 43
1.0
 76
     1
 77
     6
 78
     2
 67
     7
 79
     5
170
     0
171
     0
290
     0
174
     0
 93
        1
 44
0.0
173
     0
291
     0
 45
0.0
1001
ACAD
1000
AcDbSavedByObjectVersion
1070
     0
  0
VISUALSTYLE
  5
31
102
{ACAD_REACTORS
330
2A
102
}
330
2A
100
AcDbVisualStyle
  2
3D Hidden
 70
     6
 71
     1
 72
     2
 73
     2
 90
        0
 40
-0.6
 41
-30.0
 62
     5
 63
     7
421
 16777215
 74
     2
 91
        2
 64
     7
 65
   257
 75
     2
175
     1
 42
40.0
 92
        0
 66
   257
 43
1.0
 76
     1
 77
     6
 78
     2
 67
     7
 79
     3
170
     0
171
     0
290
     0
174
     0
 93
        1
 44
0.0
173
     0
291
     0
 45
0.0
1001
ACAD
1000
AcDbSavedByObjectVersion
1070
     0
  0
VISUALSTYLE
  5
30
102
{ACAD_REACTORS
330
2A
102
}
330
2A
100
AcDbVisualStyle
  2
3dWireframe
 70
     5
 71
     0
 72
     2
 73
     0
 90
        0
 40
-0.6
 41
-30.0
 62
     5
 63
     7
421
 16777215
 74
     1
 91
        4
 64
     7
 65
   257
 75
     1
175
     1
 42
1.0
 92
        0
 66
   257
 43
1.0
 76
     1
 77
     6
 78
     2
 67
     7
 79
     5
170
     0
171
     0
290
     0
174
     0
 93
        1
 44
0.0
173
     0
291
     0
 45
0.0
1001
ACAD
1000
AcDbSavedByObjectVersion
1070
     0
  0
VISUALSTYLE
  5
32
102
{ACAD_REACTORS
330
2A
102
}
330
2A
100
AcDbVisualStyle
  2
Basic
 70
     7
 71
     1
 72
     0
 73
     1
 90
        0
 40
-0.6
 41
-30.0
 62
     5
 63
     7
421
 16777215
 74
     0
 91
        4
 64
     7
 65
   257
 75
     1
175
     1
 42
1.0
 92
        8
 66
     7
 43
1.0
 76
     1
 77
     6
 78
     2
 67
     7
 79
     5
170
     0
171
     0
290
     0
174
     0
 93
        1
 44
0.0
173
     0
291
     1
 45
0.0
1001
ACAD
1000
AcDbSavedByObjectVersion
1070
     0
  0
VISUALSTYLE
  5
36
102
{ACAD_REACTORS
330
2A
102
}
330
2A
100
AcDbVisualStyle
  2
Brighten
 70
    12
 71
     2
 72
     2
 73
     0
 90
        0
 40
-0.6
 41
-30.0
 62
     5
 63
     7
421
 16777215
 74
     1
 91
        4
 64
     7
 65
   257
 75
     1
175
     1
 42
1.0
 92
        8
 66
     7
 43
1.0
 76
     1
 77
     6
 78
     2
 67
     7
 79
     5
170
     0
171
     0
290
     0
174
     0
 93
        1
 44
50.0
173
     0
291
     1
 45
0.0
1001
ACAD
1000
AcDbSavedByObjectVersion
1070
     0
  0
VISUALSTYLE
  5
3A
102
{ACAD_REACTORS
330
2A
102
}
330
2A
100
AcDbVisualStyle
  2
ColorChange
 70
    16
 71
     2
 72
     2
 73
     3
 90
        0
 40
-0.6
 41
-30.0
 62
     5
 63
     8
421
  8421504
 74
     1
 91
        4
 64
     7
 65
   257
 75
     1
175
     1
 42
1.0
 92
        8
 66
     8
424
  8421504
 43
1.0
 76
     1
 77
     6
 78
     2
 67
     7
 79
     5
170
     0
171
     0
290
     0
174
     0
 93
        1
 44
0.0
173
     0
291
     1
 45
0.0
1001
ACAD
1000
AcDbSavedByObjectVersion
1070
     0
  0
VISUALSTYLE
  5
34
102
{ACAD_REACTORS
330
2A
102
}
330
2A
100
AcDbVisualStyle
  2
Conceptual
 70
     9
 71
     3
 72
     2
 73
     0
 90
        0
 40
-0.6
 41
-30.0
 62
     5
 63
     7
421
 16777215
 74
     2
 91
        2
 64
     7
 65
   257
 75
     1
175
     1
 42
40.0
 92
        8
 66
     7
 43
1.0
 76
     1
 77
     6
 78
     2
 67
     7
 79
     3
170
     0
171
     0
290
     0
174
     0
 93
        1
 44
0.0
173
     0
291
     0
 45
0.0
1001
ACAD
1000
AcDbSavedByObjectVersion
1070
     0
  0
VISUALSTYLE
  5
35
102
{ACAD_REACTORS
330
2A
102
}
330
2A
100
AcDbVisualStyle
  2
Dim
 70
    11
 71
     2
 72
     2
 73
     0
 90
        0
 40
-0.6
 41
-30.0
 62
     5
 63
     7
421
 16777215
 74
     1
 91
        4
 64
     7
 65
   257
 75
     1
175
     1
 42
1.0
 92
        8
 66
     7
 43
1.0
 76
     1
 77
     6
 78
     2
 67
     7
 79
     5
170
     0
171
     0
290
     0
174
     0
 93
        1
 44
-50.0
173
     0
291
     1
 45
0.0
1001
ACAD
1000
AcDbSavedByObjectVersion
1070
     0
  0
VISUALSTYLE
  5
39
102
{ACAD_REACTORS
330
2A
102
}
330
2A
100
AcDbVisualStyle
  2
Facepattern
 70
    15
 71
     2
 72
     2
 73
     0
 90
        0
 40
-0.6
 41
-30.0
 62
     5
 63
     7
421
 16777215
 74
     1
 91
        4
 64
     7
 65
   257
 75
     1
175
     1
 42
1.0
 92
        8
 66
     7
 43
1.0
 76
     1
 77
     6
 78
     2
 67
     7
 79
     5
170
     0
171
     0
290
     0
174
     0
 93
        1
 44
0.0
173
     0
291
     1
 45
0.0
1001
ACAD
1000
AcDbSavedByObjectVersion
1070
     0
  0
VISUALSTYLE
  5
2B
102
{ACAD_REACTORS
330
2A
102
}
330
2A
100
AcDbVisualStyle
  2
Flat
 70
     0
 71
     2
 72
     1
 73
     1
 90
        2
 40
-0.6
 41
30.0
 62
     5
 63
     7
421
 16777215
 74
     0
 91
        4
 64
     7
 65
   257
 75
     1
175
     1
 42
1.0
 92
        8
 66
     7
 43
1.0
 76
     1
 77
     6
 78
     2
 67
     7
 79
     5
170
     0
171
     0
290
     0
174
     0
 93
       13
 44
0.0
173
     0
291
     1
 45
0.0
1001
ACAD
1000
AcDbSavedByObjectVersion
1070
     0
  0
VISUALSTYLE
  5
2C
102
{ACAD_REACTORS
330
2A
102
}
330
2A
100
AcDbVisualStyle
  2
FlatWithEdges
 70
     1
 71
     2
 72
     1
 73
     1
 90
        2
 40
-0.6
 41
30.0
 62
     5
 63
     7
421
 16777215
 74
     1
 91
        4
 64
     7
 65
   257
 75
     1
175
     1
 42
1.0
 92
        0
 66
   257
 43
1.0
 76
     1
 77
     6
 78
     2
 67
     7
 79
     5
170
     0
171
     0
290
     0
174
     0
 93
       13
 44
0.0
173
     0
291
     1
 45
0.0
1001
ACAD
1000
AcDbSavedByObjectVersion
1070
     0
  0
VISUALSTYLE
  5
2D
102
{ACAD_REACTORS
330
2A
102
}
330
2A
100
AcDbVisualStyle
  2
Gouraud
 70
     2
 71
     2
 72
     2
 73
     1
 90
        2
 40
-0.6
 41
30.0
 62
     5
 63
     7
421
 16777215
 74
     0
 91
        4
 64
     7
 65
   257
 75
     1
175
     1
 42
1.0
 92
        0
 66
     7
 43
1.0
 76
     1
 77
     6
 78
     2
 67
     7
 79
     5
170
     0
171
     0
290
     0
174
     0
 93
       13
 44
0.0
173
     0
291
     1
 45
0.0
1001
ACAD
1000
AcDbSavedByObjectVersion
1070
     0
  0
VISUALSTYLE
  5
2E
102
{ACAD_REACTORS
330
2A
102
}
330
2A
100
AcDbVisualStyle
  2
GouraudWithEdges
 70
     3
 71
     2
 72
     2
 73
     1
 90
        2
 40
-0.6
 41
30.0
 62
     5
 63
     7
421
 16777215
 74
     1
 91
        4
 64
     7
 65
   257
 75
     1
175
     1
 42
1.0
 92
        0
 66
   257
 43
1.0
 76
     1
 77
     6
 78
     2
 67
     7
 79
     5
170
     0
171
     0
290
     0
174
     0
 93
       13
 44
0.0
173
     0
291
     1
 45
0.0
1001
ACAD
1000
AcDbSavedByObjectVersion
1070
     0
  0
VISUALSTYLE
  5
38
102
{ACAD_REACTORS
330
2A
102
}
330
2A
100
AcDbVisualStyle
  2
Linepattern
 70
    14
 71
     2
 72
     2
 73
     0
 90
        0
 40
-0.6
 41
-30.0
 62
     5
 63
     7
421
 16777215
 74
     1
 91
        4
 64
     7
 65
   257
 75
     7
175
     7
 42
1.0
 92
        8
 66
     7
 43
1.0
 76
     1
 77
     6
 78
     2
 67
     7
 79
     5
170
     0
171
     0
290
     0
174
     0
 93
        1
 44
0.0
173
     0
291
     1
 45
0.0
1001
ACAD
1000
AcDbSavedByObjectVersion
1070
     0
  0
VISUALSTYLE
  5
33
102
{ACAD_REACTORS
330
2A
102
}
330
2A
100
AcDbVisualStyle
  2
Realistic
 70
     8
 71
     2
 72
     2
 73
     0
 90
        0
 40
-0.6
 41
-30.0
 62
     5
 63
     7
421
 16777215
 74
     1
 91
        0
 64
     7
 65
   257
 75
     1
175
     1
 42
1.0
 92
        8
 66
     8
424
  7895160
 43
1.0
 76
     1
 77
     6
 78
     2
 67
     7
 79
     5
170
     0
171
     0
290
     0
174
     0
 93
       13
 44
0.0
173
     0
291
     0
 45
0.0
1001
ACAD
1000
AcDbSavedByObjectVersion
1070
     0
  0
VISUALSTYLE
  5
37
102
{ACAD_REACTORS
330
2A
102
}
330
2A
100
AcDbVisualStyle
  2
Thicken
 70
    13
 71
     2
 72
     2
 73
     0
 90
        0
 40
-0.6
 41
-30.0
 62
     5
 63
     7
421
 16777215
 74
     1
 91
        4
 64
     7
 65
   257
 75
     1
175
     1
 42
1.0
 92
       12
 66
     7
 43
1.0
 76
     1
 77
     6
 78
     2
 67
     7
 79
     5
170
     0
171
     0
290
     0
174
     0
 93
        1
 44
0.0
173
     0
291
     1
 45
0.0
1001
ACAD
1000
AcDbSavedByObjectVersion
1070
     0
  0
DICTIONARYVAR
  5
41F
102
{ACAD_REACTORS
330
41E
102
}
330
41E
100
DictionaryVariables
280
     0
  1
1:1
  0
ENDSEC
  0
EOF
