  0
SECTION
  2
HEADER
  9
$ACADVER
  1
AC1018
  9
$ACADMAINTVER
 70
     0
  9
$DWGCODEPAGE
  3
UNDEFINED
  9
$INSBASE
 10
0.0
 20
0.0
 30
0.0
  9
$EXTMIN
 10
1.000000000000000E+20
 20
1.000000000000000E+20
 30
1.000000000000000E+20
  9
$EXTMAX
 10
-1.000000000000000E+20
 20
-1.000000000000000E+20
 30
-1.000000000000000E+20
  9
$LIMMIN
 10
0.0
 20
0.0
  9
$LIMMAX
 10
12.0
 20
9.0
  9
$ORTHOMODE
 70
     0
  9
$REGENMODE
 70
     1
  9
$FILLMODE
 70
     1
  9
$QTEXTMODE
 70
     0
  9
$MIRRTEXT
 70
     1
  9
$LTSCALE
 40
1.0
  9
$ATTMODE
 70
     1
  9
$TEXTSIZE
 40
0.2
  9
$TRACEWID
 40
0.05
  9
$TEXTSTYLE
  7
Standard
  9
$CLAYER
  8
0
  9
$CELTYPE
  6
ByLayer
  9
$CECOLOR
 62
   256
  9
$CELTSCALE
 40
1.0
  9
$DISPSILH
 70
     0
  9
$DIMSCALE
 40
1.0
  9
$DIMASZ
 40
0.18
  9
$DIMEXO
 40
0.0625
  9
$DIMDLI
 40
0.38
  9
$DIMRND
 40
0.0
  9
$DIMDLE
 40
0.0
  9
$DIMEXE
 40
0.18
  9
$DIMTP
 40
0.0
  9
$DIMTM
 40
0.0
  9
$DIMTXT
 40
0.18
  9
$DIMCEN
 40
0.09
  9
$DIMTSZ
 40
0.0
  9
$DIMTOL
 70
     0
  9
$DIMLIM
 70
     0
  9
$DIMTIH
 70
     1
  9
$DIMTOH
 70
     1
  9
$DIMSE1
 70
     0
  9
$DIMSE2
 70
     0
  9
$DIMTAD
 70
     0
  9
$DIMZIN
 70
     0
  9
$DIMBLK
  1

  9
$DIMASO
 70
     1
  9
$DIMSHO
 70
     1
  9
$DIMPOST
  1

  9
$DIMAPOST
  1

  9
$DIMALT
 70
     0
  9
$DIMALTD
 70
     2
  9
$DIMALTF
 40
25.4
  9
$DIMLFAC
 40
1.0
  9
$DIMTOFL
 70
     0
  9
$DIMTVP
 40
0.0
  9
$DIMTIX
 70
     0
  9
$DIMSOXD
 70
     0
  9
$DIMSAH
 70
     0
  9
$DIMBLK1
  1

  9
$DIMBLK2
  1

  9
$DIMSTYLE
  2
Standard
  9
$DIMCLRD
 70
     0
  9
$DIMCLRE
 70
     0
  9
$DIMCLRT
 70
     0
  9
$DIMTFAC
 40
1.0
  9
$DIMGAP
 40
0.09
  9
$DIMJUST
 70
     0
  9
$DIMSD1
 70
     0
  9
$DIMSD2
 70
     0
  9
$DIMTOLJ
 70
     1
  9
$DIMTZIN
 70
     0
  9
$DIMALTZ
 70
     0
  9
$DIMALTTZ
 70
     0
  9
$DIMUPT
 70
     0
  9
$DIMDEC
 70
     4
  9
$DIMTDEC
 70
     4
  9
$DIMALTU
 70
     2
  9
$DIMALTTD
 70
     2
  9
$DIMTXSTY
  7
Standard
  9
$DIMAUNIT
 70
     0
  9
$DIMADEC
 70
     0
  9
$DIMALTRND
 40
0.0
  9
$DIMAZIN
 70
     0
  9
$DIMDSEP
 70
    46
  9
$DIMATFIT
 70
     3
  9
$DIMFRAC
 70
     0
  9
$DIMLDRBLK
  1

  9
$DIMLUNIT
 70
     2
  9
$DIMLWD
 70
    -2
  9
$DIMLWE
 70
    -2
  9
$DIMTMOVE
 70
     0
  9
$LUNITS
 70
     2
  9
$LUPREC
 70
     4
  9
$SKETCHINC
 40
0.1
  9
$FILLETRAD
 40
0.5
  9
$AUNITS
 70
     0
  9
$AUPREC
 70
     0
  9
$MENU
  1
.
  9
$ELEVATION
 40
0.0
  9
$PELEVATION
 40
0.0
  9
$THICKNESS
 40
0.0
  9
$LIMCHECK
 70
     0
  9
$CHAMFERA
 40
0.5
  9
$CHAMFERB
 40
0.5
  9
$CHAMFERC
 40
1.0
  9
$CHAMFERD
 40
0.0
  9
$SKPOLY
 70
     0
  9
$TDCREATE
 40
2454899.721770833
  9
$TDUCREATE
 40
2454900.055104167
  9
$TDUPDATE
 40
2454899.721770845
  9
$TDUUPDATE
 40
2454900.055104178
  9
$TDINDWG
 40
0.0000000116
  9
$TDUSRTIMER
 40
0.0000000116
  9
$USRTIMER
 70
     1
  9
$ANGBASE
 50
0.0
  9
$ANGDIR
 70
     0
  9
$PDMODE
 70
     0
  9
$PDSIZE
 40
0.0
  9
$PLINEWID
 40
0.0
  9
$SPLFRAME
 70
     0
  9
$SPLINETYPE
 70
     6
  9
$SPLINESEGS
 70
     8
  9
$HANDSEED
  5
602
  9
$SURFTAB1
 70
     6
  9
$SURFTAB2
 70
     6
  9
$SURFTYPE
 70
     6
  9
$SURFU
 70
     6
  9
$SURFV
 70
     6
  9
$UCSBASE
  2

  9
$UCSNAME
  2

  9
$UCSORG
 10
0.0
 20
0.0
 30
0.0
  9
$UCSXDIR
 10
1.0
 20
0.0
 30
0.0
  9
$UCSYDIR
 10
0.0
 20
1.0
 30
0.0
  9
$UCSORTHOREF
  2

  9
$UCSORTHOVIEW
 70
     0
  9
$UCSORGTOP
 10
0.0
 20
0.0
 30
0.0
  9
$UCSORGBOTTOM
 10
0.0
 20
0.0
 30
0.0
  9
$UCSORGLEFT
 10
0.0
 20
0.0
 30
0.0
  9
$UCSORGRIGHT
 10
0.0
 20
0.0
 30
0.0
  9
$UCSORGFRONT
 10
0.0
 20
0.0
 30
0.0
  9
$UCSORGBACK
 10
0.0
 20
0.0
 30
0.0
  9
$PUCSBASE
  2

  9
$PUCSNAME
  2

  9
$PUCSORG
 10
0.0
 20
0.0
 30
0.0
  9
$PUCSXDIR
 10
1.0
 20
0.0
 30
0.0
  9
$PUCSYDIR
 10
0.0
 20
1.0
 30
0.0
  9
$PUCSORTHOREF
  2

  9
$PUCSORTHOVIEW
 70
     0
  9
$PUCSORGTOP
 10
0.0
 20
0.0
 30
0.0
  9
$PUCSORGBOTTOM
 10
0.0
 20
0.0
 30
0.0
  9
$PUCSORGLEFT
 10
0.0
 20
0.0
 30
0.0
  9
$PUCSORGRIGHT
 10
0.0
 20
0.0
 30
0.0
  9
$PUCSORGFRONT
 10
0.0
 20
0.0
 30
0.0
  9
$PUCSORGBACK
 10
0.0
 20
0.0
 30
0.0
  9
$USERI1
 70
     0
  9
$USERI2
 70
     0
  9
$USERI3
 70
     0
  9
$USERI4
 70
     0
  9
$USERI5
 70
     0
  9
$USERR1
 40
0.0
  9
$USERR2
 40
0.0
  9
$USERR3
 40
0.0
  9
$USERR4
 40
0.0
  9
$USERR5
 40
0.0
  9
$WORLDVIEW
 70
     1
  9
$SHADEDGE
 70
     3
  9
$SHADEDIF
 70
    70
  9
$TILEMODE
 70
     1
  9
$MAXACTVP
 70
    64
  9
$PINSBASE
 10
0.0
 20
0.0
 30
0.0
  9
$PLIMCHECK
 70
     0
  9
$PEXTMIN
 10
1.000000000000000E+20
 20
1.000000000000000E+20
 30
1.000000000000000E+20
  9
$PEXTMAX
 10
-1.000000000000000E+20
 20
-1.000000000000000E+20
 30
-1.000000000000000E+20
  9
$PLIMMIN
 10
0.0
 20
0.0
  9
$PLIMMAX
 10
12.0
 20
9.0
  9
$UNITMODE
 70
     0
  9
$VISRETAIN
 70
     1
  9
$PLINEGEN
 70
     0
  9
$PSLTSCALE
 70
     1
  9
$TREEDEPTH
 70
  3020
  9
$CMLSTYLE
  2
Standard
  9
$CMLJUST
 70
     0
  9
$CMLSCALE
 40
1.0
  9
$PROXYGRAPHICS
 70
     1
  9
$MEASUREMENT
 70
     0
  9
$CELWEIGHT
370
    -1
  9
$ENDCAPS
280
     0
  9
$JOINSTYLE
280
     0
  9
$LWDISPLAY
290
     0
  9
$INSUNITS
 70
     1
  9
$HYPERLINKBASE
  1

  9
$STYLESHEET
  1

  9
$XEDIT
290
     1
  9
$CEPSNTYPE
380
     0
  9
$PSTYLEMODE
290
     1
  9
$FINGERPRINTGUID
  2
{D6E899BA-1B94-7418-24E9-D02702401A78}
  9
$VERSIONGUID
  2
{FAEB1C32-E019-11D5-929B-00C0DF256EC4}
  9
$EXTNAMES
290
     1
  9
$PSVPSCALE
 40
0.0
  9
$OLESTARTUP
290
     0
  9
$SORTENTS
280
   127
  9
$INDEXCTL
280
     0
  9
$HIDETEXT
280
     1
  9
$XCLIPFRAME
290
     0
  9
$HALOGAP
280
     0
  9
$OBSCOLOR
 70
   257
  9
$OBSLTYPE
280
     0
  9
$INTERSECTIONDISPLAY
280
     0
  9
$INTERSECTIONCOLOR
 70
   257
  9
$DIMASSOC
280
     2
  9
$PROJECTNAME
  1

  0
ENDSEC
  0
SECTION
  2
CLASSES
  0
CLASS
  1
ACDBDICTIONARYWDFLT
  2
AcDbDictionaryWithDefault
  3
ObjectDBX Classes
 90
        0
 91
        4
280
     0
281
     0
  0
CLASS
  1
VISUALSTYLE
  2
AcDbVisualStyle
  3
ObjectDBX Classes
 90
     4095
 91
        4
280
     0
281
     0
  0
CLASS
  1
SCALE
  2
AcDbScale
  3
ObjectDBX Classes
 90
     1153
 91
        4
280
     0
281
     0
  0
CLASS
  1
DICTIONARYVAR
  2
AcDbDictionaryVar
  3
ObjectDBX Classes
 90
        0
 91
        4
280
     0
281
     0
  0
ENDSEC
  0
SECTION
  2
TABLES
  0
TABLE
  2
VPORT
  5
8
330
0
100
AcDbSymbolTable
 70
     1
  0
VPORT
  5
29
330
8
100
AcDbSymbolTableRecord
100
AcDbViewportTableRecord
  2
*Active
 70
     0
 10
0.0
 20
0.0
 11
1.0
 21
1.0
 12
10.42990654205607
 22
4.5
 13
0.0
 23
0.0
 14
0.5
 24
0.5
 15
0.5
 25
0.5
 16
0.0
 26
0.0
 36
1.0
 17
0.0
 27
0.0
 37
0.0
 40
9.0
 41
1.972972972850329
 42
50.0
 43
0.0
 44
0.0
 50
0.0
 51
0.0
 71
     0
 72
   100
 73
     1
 74
     3
 75
     0
 76
     0
 77
     0
 78
     0
281
     0
 65
     1
110
0.0
120
0.0
130
0.0
111
1.0
121
0.0
131
0.0
112
0.0
122
1.0
132
0.0
 79
     0
146
0.0
  0
ENDTAB
  0
TABLE
  2
LTYPE
  5
5
330
0
100
AcDbSymbolTable
 70
    11
  0
LTYPE
  5
14
330
5
100
AcDbSymbolTableRecord
100
AcDbLinetypeTableRecord
  2
ByBlock
 70
     0
  3

 72
    65
 73
     0
 40
0.0
  0
LTYPE
  5
15
330
5
100
AcDbSymbolTableRecord
100
AcDbLinetypeTableRecord
  2
ByLayer
 70
     0
  3

 72
    65
 73
     0
 40
0.0
  0
LTYPE
  5
16
330
5
100
AcDbSymbolTableRecord
100
AcDbLinetypeTableRecord
  2
Continuous
 70
     0
  3
Solid line
 72
    65
 73
     0
 40
0.0
  0
LTYPE
  5
60
330
5
100
AcDbSymbolTableRecord
100
AcDbLinetypeTableRecord
  2
Stitch_G
 70
     0
  3
Graphite's line style                   
 72
    65
 73
     2
 40
1.739999949932098
 49
0.8699999749660492
 74
     0
 49
-0.8699999749660492
 74
     0
  0
LTYPE
  5
61
330
5
100
AcDbSymbolTableRecord
100
AcDbLinetypeTableRecord
  2
Cutting_G
 70
     0
  3
Graphite's line style                   
 72
    65
 73
     6
 40
17.60999992489815
 49
12.0
 74
     0
 49
-0.8699999749660492
 74
     0
 49
1.5
 74
     0
 49
-0.8699999749660492
 74
     0
 49
1.5
 74
     0
 49
-0.8699999749660492
 74
     0
  0
LTYPE
  5
62
330
5
100
AcDbSymbolTableRecord
100
AcDbLinetypeTableRecord
  2
Divide_G
 70
     0
  3
Graphite's line style                   
 72
    65
 73
     6
 40
9.359999924898148
 49
6.0
 74
     0
 49
-0.8699999749660492
 74
     0
 49
0.375
 74
     0
 49
-0.8699999749660492
 74
     0
 49
0.375
 74
     0
 49
-0.8699999749660492
 74
     0
  0
LTYPE
  5
63
330
5
100
AcDbSymbolTableRecord
100
AcDbLinetypeTableRecord
  2
Border_G
 70
     0
  3
Graphite's line style                   
 72
    65
 73
     6
 40
14.98499992489815
 49
6.0
 74
     0
 49
-0.8699999749660492
 74
     0
 49
6.0
 74
     0
 49
-0.8699999749660492
 74
     0
 49
0.375
 74
     0
 49
-0.8699999749660492
 74
     0
  0
LTYPE
  5
64
330
5
100
AcDbSymbolTableRecord
100
AcDbLinetypeTableRecord
  2
Dashdot_G
 70
     0
  3
Graphite's line style                   
 72
    65
 73
     4
 40
8.114999949932098
 49
6.0
 74
     0
 49
-0.8699999749660492
 74
     0
 49
0.375
 74
     0
 49
-0.8699999749660492
 74
     0
  0
LTYPE
  5
65
330
5
100
AcDbSymbolTableRecord
100
AcDbLinetypeTableRecord
  2
Phantom_G
 70
     0
  3
Graphite's line style                   
 72
    65
 73
     6
 40
11.60999992489815
 49
6.0
 74
     0
 49
-0.8699999749660492
 74
     0
 49
1.5
 74
     0
 49
-0.8699999749660492
 74
     0
 49
1.5
 74
     0
 49
-0.8699999749660492
 74
     0
  0
LTYPE
  5
66
330
5
100
AcDbSymbolTableRecord
100
AcDbLinetypeTableRecord
  2
Hidden_G
 70
     0
  3
Graphite's line style                   
 72
    65
 73
     2
 40
2.369999974966049
 49
1.5
 74
     0
 49
-0.8699999749660492
 74
     0
  0
LTYPE
  5
67
330
5
100
AcDbSymbolTableRecord
100
AcDbLinetypeTableRecord
  2
Dashed_G
 70
     0
  3
Graphite's line style                   
 72
    65
 73
     2
 40
4.5
 49
3.0
 74
     0
 49
-1.5
 74
     0
  0
LTYPE
  5
68
330
5
100
AcDbSymbolTableRecord
100
AcDbLinetypeTableRecord
  2
Center_G
 70
     0
  3
Graphite's line style                   
 72
    65
 73
     4
 40
9.239999949932098
 49
6.0
 74
     0
 49
-0.8699999749660492
 74
     0
 49
1.5
 74
     0
 49
-0.8699999749660492
 74
     0
  0
LTYPE
  5
69
330
5
100
AcDbSymbolTableRecord
100
AcDbLinetypeTableRecord
  2
Dotted_G
 70
     0
  3

 72
    65
 73
     2
 40
0.1001
 49
0.0001
 74
     0
 49
-0.1
 74
     2
 75
     0
340
0
 46
0.0
 50
0.0
 44
0.0
 45
0.0
  9
.
  0
ENDTAB
  0
TABLE
  2
LAYER
  5
2
330
0
100
AcDbSymbolTable
 70
     7
  0
LAYER
  5
10
330
2
100
AcDbSymbolTableRecord
100
AcDbLayerTableRecord
  2
0
 70
     0
 62
     7
  6
Continuous
370
    -3
390
F
  0
LAYER
  5
6A
330
2
100
AcDbSymbolTableRecord
100
AcDbLayerTableRecord
  2
Layer1
 70
     0
 62
     7
  6
Continuous
370
    -3
390
F
  0
LAYER
  5
6B
330
2
100
AcDbSymbolTableRecord
100
AcDbLayerTableRecord
  2
Construction
 70
     0
 62
     7
  6
Continuous
370
    -3
390
F
  0
LAYER
  5
6C
330
2
100
AcDbSymbolTableRecord
100
AcDbLayerTableRecord
  2
Dimension
 70
     0
 62
     7
  6
Continuous
370
    -3
390
F
  0
LAYER
  5
6D
330
2
100
AcDbSymbolTableRecord
100
AcDbLayerTableRecord
  2
Constraints
 70
     0
 62
     7
  6
Continuous
370
    -3
390
F
  0
LAYER
  5
6E
330
2
100
AcDbSymbolTableRecord
100
AcDbLayerTableRecord
  2
unassigned
 70
     0
 62
     7
  6
Continuous
370
    -3
390
F
  0
LAYER
  5
92
330
2
100
AcDbSymbolTableRecord
100
AcDbLayerTableRecord
  2
Defpoints
 70
     0
 62
     7
  6
Continuous
290
     0
370
    -3
390
F
  0
ENDTAB
  0
TABLE
  2
STYLE
  5
3
330
0
100
AcDbSymbolTable
 70
     4
  0
STYLE
  5
11
330
3
100
AcDbSymbolTableRecord
100
AcDbTextStyleTableRecord
  2
Standard
 70
     0
 40
0.0
 41
1.0
 50
0.0
 71
     0
 42
0.2
  3
txt
  4

  0
STYLE
  5
3B
330
3
100
AcDbSymbolTableRecord
100
AcDbTextStyleTableRecord
  2
OdaShxStyle
 70
     0
 40
0.0
 41
1.0
 50
0.0
 71
     0
 42
0.2
  3
txt
  4

  0
STYLE
  5
3C
330
3
100
AcDbSymbolTableRecord
100
AcDbTextStyleTableRecord
  2
OdaTtfStyle
 70
     0
 40
0.0
 41
1.0
 50
0.0
 71
     0
 42
0.2
  3
VERDANA.TTF
  4

1001
ACAD
1000
Verdana
1071
       34
  0
STYLE
  5
3D
330
3
100
AcDbSymbolTableRecord
100
AcDbTextStyleTableRecord
  2

 70
     1
 40
0.0
 41
1.0
 50
0.0
 71
     0
 42
22.45
  3
ltypeshp.shx
  4

  0
ENDTAB
  0
TABLE
  2
VIEW
  5
6
330
0
100
AcDbSymbolTable
 70
     0
  0
ENDTAB
  0
TABLE
  2
UCS
  5
7
330
0
100
AcDbSymbolTable
 70
     0
  0
ENDTAB
  0
TABLE
  2
APPID
  5
9
330
0
100
AcDbSymbolTable
 70
     1
  0
APPID
  5
12
330
9
100
AcDbSymbolTableRecord
100
AcDbRegAppTableRecord
  2
ACAD
 70
     0
  0
ENDTAB
  0
TABLE
  2
DIMSTYLE
  5
A
330
0
100
AcDbSymbolTable
 70
     9
100
AcDbDimStyleTable
  0
DIMSTYLE
105
27
330
A
100
AcDbSymbolTableRecord
100
AcDbDimStyleTableRecord
  2
Standard
 70
     0
340
11
  0
DIMSTYLE
105
3E
102
{ACAD_REACTORS
330
6F
330
B4
330
C5
330
D7
330
103
330
128
330
144
330
15C
330
174
330
183
330
191
330
1BE
330
1CE
330
1DC
330
1EA
330
1F9
330
20A
330
218
330
255
330
264
330
274
330
282
330
290
330
2A2
330
2B1
330
2C3
330
2D1
330
2DF
330
30C
330
31B
330
32B
330
33B
330
34C
330
35B
330
36A
330
378
330
386
330
394
330
3A3
330
3B3
330
3CF
330
3EF
330
400
330
434
330
443
330
45F
330
46D
330
4FC
330
510
330
54E
330
592
330
5A3
330
5C6
330
5D6
102
}
330
A
100
AcDbSymbolTableRecord
100
AcDbDimStyleTableRecord
  2
OdaDimStyle0
 70
     0
340
11
  0
DIMSTYLE
105
3F
330
A
100
AcDbSymbolTableRecord
100
AcDbDimStyleTableRecord
  2
OdaDimStyle1
 70
     0
340
11
  0
DIMSTYLE
105
40
330
A
100
AcDbSymbolTableRecord
100
AcDbDimStyleTableRecord
  2
OdaDimStyle2
 70
     0
340
11
342
41
  0
DIMSTYLE
105
47
330
A
100
AcDbSymbolTableRecord
100
AcDbDimStyleTableRecord
  2
OdaDimStyle3
 70
     0
340
11
342
48
  0
DIMSTYLE
105
4B
330
A
100
AcDbSymbolTableRecord
100
AcDbDimStyleTableRecord
  2
OdaDimStyle4
 70
     0
340
11
342
4C
  0
DIMSTYLE
105
50
330
A
100
AcDbSymbolTableRecord
100
AcDbDimStyleTableRecord
  2
OdaDimStyle5
 70
     0
340
11
  0
DIMSTYLE
105
51
330
A
100
AcDbSymbolTableRecord
100
AcDbDimStyleTableRecord
  2
OdaDimStyle6
 70
     0
340
11
342
52
  0
DIMSTYLE
105
5A
330
A
100
AcDbSymbolTableRecord
100
AcDbDimStyleTableRecord
  2
OdaDimStyle7
 70
     0
340
11
342
5B
  0
ENDTAB
  0
TABLE
  2
BLOCK_RECORD
  5
1
330
0
100
AcDbSymbolTable
 70
    60
  0
BLOCK_RECORD
  5
1F
330
1
100
AcDbSymbolTableRecord
100
AcDbBlockTableRecord
  2
*Model_Space
340
22
  0
BLOCK_RECORD
  5
1B
330
1
100
AcDbSymbolTableRecord
100
AcDbBlockTableRecord
  2
*Paper_Space
340
1E
  0
BLOCK_RECORD
  5
23
330
1
100
AcDbSymbolTableRecord
100
AcDbBlockTableRecord
  2
*Paper_Space0
340
26
  0
BLOCK_RECORD
  5
41
330
1
100
AcDbSymbolTableRecord
100
AcDbBlockTableRecord
  2
_CLOSEDBLANK
340
0
  0
BLOCK_RECORD
  5
48
330
1
100
AcDbSymbolTableRecord
100
AcDbBlockTableRecord
  2
_NONE
340
0
  0
BLOCK_RECORD
  5
4C
330
1
100
AcDbSymbolTableRecord
100
AcDbBlockTableRecord
  2
_OBLIQUE
340
0
  0
BLOCK_RECORD
  5
52
330
1
100
AcDbSymbolTableRecord
100
AcDbBlockTableRecord
  2
_DOT
340
0
  0
BLOCK_RECORD
  5
5B
330
1
100
AcDbSymbolTableRecord
100
AcDbBlockTableRecord
  2
_DOTBLANK
340
0
  0
BLOCK_RECORD
  5
93
330
1
100
AcDbSymbolTableRecord
100
AcDbBlockTableRecord
  2
*D6
340
0
  0
BLOCK_RECORD
  5
B5
330
1
100
AcDbSymbolTableRecord
100
AcDbBlockTableRecord
  2
*D7
340
0
  0
BLOCK_RECORD
  5
C6
330
1
100
AcDbSymbolTableRecord
100
AcDbBlockTableRecord
  2
*D8
340
0
  0
BLOCK_RECORD
  5
D8
330
1
100
AcDbSymbolTableRecord
100
AcDbBlockTableRecord
  2
*D9
340
0
  0
BLOCK_RECORD
  5
104
330
1
100
AcDbSymbolTableRecord
100
AcDbBlockTableRecord
  2
*D10
340
0
  0
BLOCK_RECORD
  5
129
330
1
100
AcDbSymbolTableRecord
100
AcDbBlockTableRecord
  2
*D11
340
0
  0
BLOCK_RECORD
  5
145
330
1
100
AcDbSymbolTableRecord
100
AcDbBlockTableRecord
  2
*D12
340
0
  0
BLOCK_RECORD
  5
15D
330
1
100
AcDbSymbolTableRecord
100
AcDbBlockTableRecord
  2
*D13
340
0
  0
BLOCK_RECORD
  5
175
330
1
100
AcDbSymbolTableRecord
100
AcDbBlockTableRecord
  2
*D14
340
0
  0
BLOCK_RECORD
  5
184
330
1
100
AcDbSymbolTableRecord
100
AcDbBlockTableRecord
  2
*D15
340
0
  0
BLOCK_RECORD
  5
192
330
1
100
AcDbSymbolTableRecord
100
AcDbBlockTableRecord
  2
*D16
340
0
  0
BLOCK_RECORD
  5
1BF
330
1
100
AcDbSymbolTableRecord
100
AcDbBlockTableRecord
  2
*D17
340
0
  0
BLOCK_RECORD
  5
1CF
330
1
100
AcDbSymbolTableRecord
100
AcDbBlockTableRecord
  2
*D18
340
0
  0
BLOCK_RECORD
  5
1DD
330
1
100
AcDbSymbolTableRecord
100
AcDbBlockTableRecord
  2
*D19
340
0
  0
BLOCK_RECORD
  5
1EB
330
1
100
AcDbSymbolTableRecord
100
AcDbBlockTableRecord
  2
*D20
340
0
  0
BLOCK_RECORD
  5
1FA
330
1
100
AcDbSymbolTableRecord
100
AcDbBlockTableRecord
  2
*D21
340
0
  0
BLOCK_RECORD
  5
20B
330
1
100
AcDbSymbolTableRecord
100
AcDbBlockTableRecord
  2
*D22
340
0
  0
BLOCK_RECORD
  5
219
330
1
100
AcDbSymbolTableRecord
100
AcDbBlockTableRecord
  2
*D23
340
0
  0
BLOCK_RECORD
  5
256
330
1
100
AcDbSymbolTableRecord
100
AcDbBlockTableRecord
  2
*D24
340
0
  0
BLOCK_RECORD
  5
265
330
1
100
AcDbSymbolTableRecord
100
AcDbBlockTableRecord
  2
*D25
340
0
  0
BLOCK_RECORD
  5
275
330
1
100
AcDbSymbolTableRecord
100
AcDbBlockTableRecord
  2
*D26
340
0
  0
BLOCK_RECORD
  5
283
330
1
100
AcDbSymbolTableRecord
100
AcDbBlockTableRecord
  2
*D27
340
0
  0
BLOCK_RECORD
  5
291
330
1
100
AcDbSymbolTableRecord
100
AcDbBlockTableRecord
  2
*D28
340
0
  0
BLOCK_RECORD
  5
2A3
330
1
100
AcDbSymbolTableRecord
100
AcDbBlockTableRecord
  2
*D29
340
0
  0
BLOCK_RECORD
  5
2B2
330
1
100
AcDbSymbolTableRecord
100
AcDbBlockTableRecord
  2
*D30
340
0
  0
BLOCK_RECORD
  5
2C4
330
1
100
AcDbSymbolTableRecord
100
AcDbBlockTableRecord
  2
*D31
340
0
  0
BLOCK_RECORD
  5
2D2
330
1
100
AcDbSymbolTableRecord
100
AcDbBlockTableRecord
  2
*D32
340
0
  0
BLOCK_RECORD
  5
2E0
330
1
100
AcDbSymbolTableRecord
100
AcDbBlockTableRecord
  2
*D33
340
0
  0
BLOCK_RECORD
  5
30D
330
1
100
AcDbSymbolTableRecord
100
AcDbBlockTableRecord
  2
*D34
340
0
  0
BLOCK_RECORD
  5
31C
330
1
100
AcDbSymbolTableRecord
100
AcDbBlockTableRecord
  2
*D35
340
0
  0
BLOCK_RECORD
  5
32C
330
1
100
AcDbSymbolTableRecord
100
AcDbBlockTableRecord
  2
*D36
340
0
  0
BLOCK_RECORD
  5
33C
330
1
100
AcDbSymbolTableRecord
100
AcDbBlockTableRecord
  2
*D37
340
0
  0
BLOCK_RECORD
  5
34D
330
1
100
AcDbSymbolTableRecord
100
AcDbBlockTableRecord
  2
*D38
340
0
  0
BLOCK_RECORD
  5
35C
330
1
100
AcDbSymbolTableRecord
100
AcDbBlockTableRecord
  2
*D39
340
0
  0
BLOCK_RECORD
  5
36B
330
1
100
AcDbSymbolTableRecord
100
AcDbBlockTableRecord
  2
*D40
340
0
  0
BLOCK_RECORD
  5
379
330
1
100
AcDbSymbolTableRecord
100
AcDbBlockTableRecord
  2
*D41
340
0
  0
BLOCK_RECORD
  5
387
330
1
100
AcDbSymbolTableRecord
100
AcDbBlockTableRecord
  2
*D42
340
0
  0
BLOCK_RECORD
  5
395
330
1
100
AcDbSymbolTableRecord
100
AcDbBlockTableRecord
  2
*D43
340
0
  0
BLOCK_RECORD
  5
3A4
330
1
100
AcDbSymbolTableRecord
100
AcDbBlockTableRecord
  2
*D44
340
0
  0
BLOCK_RECORD
  5
3B4
330
1
100
AcDbSymbolTableRecord
100
AcDbBlockTableRecord
  2
*D45
340
0
  0
BLOCK_RECORD
  5
3D0
330
1
100
AcDbSymbolTableRecord
100
AcDbBlockTableRecord
  2
*D46
340
0
  0
BLOCK_RECORD
  5
3F0
330
1
100
AcDbSymbolTableRecord
100
AcDbBlockTableRecord
  2
*D47
340
0
  0
BLOCK_RECORD
  5
401
330
1
100
AcDbSymbolTableRecord
100
AcDbBlockTableRecord
  2
*D48
340
0
  0
BLOCK_RECORD
  5
435
330
1
100
AcDbSymbolTableRecord
100
AcDbBlockTableRecord
  2
*D49
340
0
  0
BLOCK_RECORD
  5
444
330
1
100
AcDbSymbolTableRecord
100
AcDbBlockTableRecord
  2
*D50
340
0
  0
BLOCK_RECORD
  5
460
330
1
100
AcDbSymbolTableRecord
100
AcDbBlockTableRecord
  2
*D51
340
0
  0
BLOCK_RECORD
  5
46E
330
1
100
AcDbSymbolTableRecord
100
AcDbBlockTableRecord
  2
*D52
340
0
  0
BLOCK_RECORD
  5
4FD
330
1
100
AcDbSymbolTableRecord
100
AcDbBlockTableRecord
  2
*D53
340
0
  0
BLOCK_RECORD
  5
511
330
1
100
AcDbSymbolTableRecord
100
AcDbBlockTableRecord
  2
*D54
340
0
  0
BLOCK_RECORD
  5
54F
330
1
100
AcDbSymbolTableRecord
100
AcDbBlockTableRecord
  2
*D55
340
0
  0
BLOCK_RECORD
  5
593
330
1
100
AcDbSymbolTableRecord
100
AcDbBlockTableRecord
  2
*D56
340
0
  0
BLOCK_RECORD
  5
5A4
330
1
100
AcDbSymbolTableRecord
100
AcDbBlockTableRecord
  2
*D57
340
0
  0
BLOCK_RECORD
  5
5C7
330
1
100
AcDbSymbolTableRecord
100
AcDbBlockTableRecord
  2
*D58
340
0
  0
BLOCK_RECORD
  5
5D7
330
1
100
AcDbSymbolTableRecord
100
AcDbBlockTableRecord
  2
*D59
340
0
  0
ENDTAB
  0
ENDSEC
  0
SECTION
  2
BLOCKS
  0
BLOCK
  5
20
330
1F
100
AcDbEntity
  8
0
100
AcDbBlockBegin
  2
*Model_Space
 70
     0
 10
0.0
 20
0.0
 30
0.0
  3
*Model_Space
  1

  0
ENDBLK
  5
21
330
1F
100
AcDbEntity
  8
0
100
AcDbBlockEnd
  0
BLOCK
  5
1C
330
1B
100
AcDbEntity
 67
     1
  8
0
100
AcDbBlockBegin
  2
*Paper_Space
 70
     0
 10
0.0
 20
0.0
 30
0.0
  3
*Paper_Space
  1

  0
ENDBLK
  5
1D
330
1B
100
AcDbEntity
 67
     1
  8
0
100
AcDbBlockEnd
  0
BLOCK
  5
24
330
23
100
AcDbEntity
  8
0
100
AcDbBlockBegin
  2
*Paper_Space0
 70
     0
 10
0.0
 20
0.0
 30
0.0
  3
*Paper_Space0
  1

  0
ENDBLK
  5
25
330
23
100
AcDbEntity
  8
0
100
AcDbBlockEnd
  0
BLOCK
  5
42
330
41
100
AcDbEntity
  8
0
100
AcDbBlockBegin
  2
_CLOSEDBLANK
 70
     0
 10
0.0
 20
0.0
 30
0.0
  3
_CLOSEDBLANK
  1

  0
LINE
  5
44
330
41
100
AcDbEntity
  8
0
  6
ByBlock
 62
     0
370
    -2
100
AcDbLine
 10
-1.0
 20
0.166667
 30
0.0
 11
0.0
 21
0.0
 31
0.0
  0
LINE
  5
45
330
41
100
AcDbEntity
  8
0
  6
ByBlock
 62
     0
370
    -2
100
AcDbLine
 10
0.0
 20
0.0
 30
0.0
 11
-1.0
 21
-0.166667
 31
0.0
  0
LINE
  5
46
330
41
100
AcDbEntity
  8
0
  6
ByBlock
 62
     0
370
    -2
100
AcDbLine
 10
-1.0
 20
0.166667
 30
0.0
 11
-1.0
 21
-0.166667
 31
0.0
  0
ENDBLK
  5
43
330
41
100
AcDbEntity
  8
0
100
AcDbBlockEnd
  0
BLOCK
  5
49
330
48
100
AcDbEntity
  8
0
100
AcDbBlockBegin
  2
_NONE
 70
     0
 10
0.0
 20
0.0
 30
0.0
  3
_NONE
  1

  0
ENDBLK
  5
4A
330
48
100
AcDbEntity
  8
0
100
AcDbBlockEnd
  0
BLOCK
  5
4D
330
4C
100
AcDbEntity
  8
0
100
AcDbBlockBegin
  2
_OBLIQUE
 70
     0
 10
0.0
 20
0.0
 30
0.0
  3
_OBLIQUE
  1

  0
LINE
  5
4F
330
4C
100
AcDbEntity
  8
0
  6
ByBlock
 62
     0
370
    -2
100
AcDbLine
 10
-0.5
 20
-0.5
 30
0.0
 11
0.5
 21
0.5
 31
0.0
  0
ENDBLK
  5
4E
330
4C
100
AcDbEntity
  8
0
100
AcDbBlockEnd
  0
BLOCK
  5
53
330
52
100
AcDbEntity
  8
0
100
AcDbBlockBegin
  2
_DOT
 70
     0
 10
0.0
 20
0.0
 30
0.0
  3
_DOT
  1

  0
POLYLINE
  5
55
330
52
100
AcDbEntity
  8
0
  6
ByBlock
 62
     0
100
AcDb2dPolyline
 66
     1
 10
0.0
 20
0.0
 30
0.0
 70
     1
 40
0.5
 41
0.5
  0
VERTEX
  5
57
330
55
100
AcDbEntity
  8
0
  6
ByBlock
 62
     0
100
AcDbVertex
100
AcDb2dVertex
 10
-0.25
 20
0.0
 30
0.0
 42
1.0
  0
VERTEX
  5
58
330
55
100
AcDbEntity
  8
0
  6
ByBlock
 62
     0
100
AcDbVertex
100
AcDb2dVertex
 10
0.25
 20
0.0
 30
0.0
 42
1.0
  0
SEQEND
  5
59
330
55
100
AcDbEntity
  8
0
  6
ByBlock
 62
     0
  0
LINE
  5
56
330
52
100
AcDbEntity
  8
0
  6
ByBlock
 62
     0
370
    -2
100
AcDbLine
 10
-0.5
 20
0.0
 30
0.0
 11
-1.0
 21
0.0
 31
0.0
  0
ENDBLK
  5
54
330
52
100
AcDbEntity
  8
0
100
AcDbBlockEnd
  0
BLOCK
  5
5C
330
5B
100
AcDbEntity
  8
0
100
AcDbBlockBegin
  2
_DOTBLANK
 70
     0
 10
0.0
 20
0.0
 30
0.0
  3
_DOTBLANK
  1

  0
CIRCLE
  5
5E
330
5B
100
AcDbEntity
  8
0
  6
ByBlock
 62
     0
370
    -2
100
AcDbCircle
 10
0.0
 20
0.0
 30
0.0
 40
0.5
  0
LINE
  5
5F
330
5B
100
AcDbEntity
  8
0
  6
ByBlock
 62
     0
370
    -2
100
AcDbLine
 10
-0.5
 20
0.0
 30
0.0
 11
-1.0
 21
0.0
 31
0.0
  0
ENDBLK
  5
5D
330
5B
100
AcDbEntity
  8
0
100
AcDbBlockEnd
  0
BLOCK
  5
9E
330
93
100
AcDbEntity
  8
0
100
AcDbBlockBegin
  2
*D6
 70
     1
 10
0.0
 20
0.0
 30
0.0
  3
*D6
  1

  0
LINE
  5
94
330
93
100
AcDbEntity
  8
0
 62
     0
370
    -2
100
AcDbLine
 10
143.6662864785391
 20
-101.3231687773655
 30
0.0
 11
141.098962210127
 21
-101.3231687773655
 31
0.0
  0
LINE
  5
95
330
93
100
AcDbEntity
  8
0
 62
     0
370
    -2
100
AcDbLine
 10
143.6662864785391
 20
-121.3231687773658
 30
0.0
 11
141.098962210127
 21
-121.3231687773658
 31
0.0
  0
LINE
  5
96
330
93
100
AcDbEntity
  8
0
 62
     0
370
    -2
100
AcDbLine
 10
141.278962210127
 20
-102.1231687892864
 30
0.0
 11
141.278962210127
 21
-110.5665020908308
 31
0.0
  0
LINE
  5
97
330
93
100
AcDbEntity
  8
0
 62
     0
370
    -2
100
AcDbLine
 10
141.278962210127
 20
-120.5231687654449
 30
0.0
 11
141.278962210127
 21
-112.0798354639005
 31
0.0
  0
SOLID
  5
98
330
93
100
AcDbEntity
  8
0
 62
     0
100
AcDbTrace
 10
141.4122955454472
 20
-102.1231687892864
 30
0.0
 11
141.1456288748069
 21
-102.1231687892864
 31
0.0
 12
141.278962210127
 22
-101.3231687773655
 32
0.0
 13
141.278962210127
 23
-101.3231687773655
 33
0.0
  0
SOLID
  5
99
330
93
100
AcDbEntity
  8
0
 62
     0
100
AcDbTrace
 10
141.1456288748069
 20
-120.5231687654449
 30
0.0
 11
141.4122955454472
 21
-120.5231687654449
 31
0.0
 12
141.278962210127
 22
-121.3231687773658
 32
0.0
 13
141.278962210127
 23
-121.3231687773658
 33
0.0
  0
MTEXT
  5
9A
330
93
100
AcDbEntity
  8
0
 62
     0
100
AcDbMText
 10
141.278962210127
 20
-111.3231687773657
 30
0.0
 40
1.333333373069763
 41
0.0
 71
     5
 72
     1
  1
\A1;20.0000
 73
     1
 44
1.0
  0
POINT
  5
9B
330
93
100
AcDbEntity
  8
Defpoints
 62
     0
100
AcDbPoint
 10
143.7287864785391
 20
-101.3231687773655
 30
0.0
  0
POINT
  5
9C
330
93
100
AcDbEntity
  8
Defpoints
 62
     0
100
AcDbPoint
 10
143.7287864785391
 20
-121.3231687773658
 30
0.0
  0
POINT
  5
9D
330
93
100
AcDbEntity
  8
Defpoints
 62
     0
100
AcDbPoint
 10
141.278962210127
 20
-121.3231687773658
 30
0.0
  0
ENDBLK
  5
9F
330
93
100
AcDbEntity
  8
0
100
AcDbBlockEnd
  0
BLOCK
  5
C0
330
B5
100
AcDbEntity
  8
0
100
AcDbBlockBegin
  2
*D7
 70
     1
 10
0.0
 20
0.0
 30
0.0
  3
*D7
  1

  0
LINE
  5
B6
330
B5
100
AcDbEntity
  8
0
 62
     0
370
    -2
100
AcDbLine
 10
148.3740132757252
 20
-136.6376219023655
 30
0.0
 11
142.8805133482045
 21
-136.6376219023655
 31
0.0
  0
LINE
  5
B7
330
B5
100
AcDbEntity
  8
0
 62
     0
370
    -2
100
AcDbLine
 10
148.3740132757252
 20
-155.6376219023655
 30
0.0
 11
142.8805133482045
 21
-155.6376219023655
 31
0.0
  0
LINE
  5
B8
330
B5
100
AcDbEntity
  8
0
 62
     0
370
    -2
100
AcDbLine
 10
143.0605133482045
 20
-137.4376219142865
 30
0.0
 11
143.0605133482045
 21
-145.3809552158307
 31
0.0
  0
LINE
  5
B9
330
B5
100
AcDbEntity
  8
0
 62
     0
370
    -2
100
AcDbLine
 10
143.0605133482045
 20
-154.8376218904446
 30
0.0
 11
143.0605133482045
 21
-146.8942885889004
 31
0.0
  0
SOLID
  5
BA
330
B5
100
AcDbEntity
  8
0
 62
     0
100
AcDbTrace
 10
143.1938466835246
 20
-137.4376219142865
 30
0.0
 11
142.9271800128843
 21
-137.4376219142865
 31
0.0
 12
143.0605133482045
 22
-136.6376219023655
 32
0.0
 13
143.0605133482045
 23
-136.6376219023655
 33
0.0
  0
SOLID
  5
BB
330
B5
100
AcDbEntity
  8
0
 62
     0
100
AcDbTrace
 10
142.9271800128843
 20
-154.8376218904446
 30
0.0
 11
143.1938466835246
 21
-154.8376218904446
 31
0.0
 12
143.0605133482045
 22
-155.6376219023655
 32
0.0
 13
143.0605133482045
 23
-155.6376219023655
 33
0.0
  0
MTEXT
  5
BC
330
B5
100
AcDbEntity
  8
0
 62
     0
100
AcDbMText
 10
143.0605133482045
 20
-146.1376219023655
 30
0.0
 40
1.333333373069763
 41
0.0
 71
     5
 72
     1
  1
\A1;19.0000
 73
     1
 44
1.0
  0
POINT
  5
BD
330
B5
100
AcDbEntity
  8
Defpoints
 62
     0
100
AcDbPoint
 10
148.4365132757252
 20
-136.6376219023655
 30
0.0
  0
POINT
  5
BE
330
B5
100
AcDbEntity
  8
Defpoints
 62
     0
100
AcDbPoint
 10
148.4365132757252
 20
-155.6376219023655
 30
0.0
  0
POINT
  5
BF
330
B5
100
AcDbEntity
  8
Defpoints
 62
     0
100
AcDbPoint
 10
143.0605133482045
 20
-155.6376219023655
 30
0.0
  0
ENDBLK
  5
C1
330
B5
100
AcDbEntity
  8
0
100
AcDbBlockEnd
  0
BLOCK
  5
D1
330
C6
100
AcDbEntity
  8
0
100
AcDbBlockBegin
  2
*D8
 70
     1
 10
0.0
 20
0.0
 30
0.0
  3
*D8
  1

  0
LINE
  5
C7
330
C6
100
AcDbEntity
  8
0
 62
     0
370
    -2
100
AcDbLine
 10
143.0412864785391
 20
-102.6256687773656
 30
0.0
 11
143.0412864785391
 21
-99.50816877736563
 31
0.0
  0
LINE
  5
C8
330
C6
100
AcDbEntity
  8
0
 62
     0
370
    -2
100
AcDbLine
 10
181.1152864785392
 20
-102.6256687773656
 30
0.0
 11
181.1152864785392
 21
-99.50816877736563
 31
0.0
  0
LINE
  5
C9
330
C6
100
AcDbEntity
  8
0
 62
     0
370
    -2
100
AcDbLine
 10
143.8412864904601
 20
-99.68816877736563
 30
0.0
 11
158.0517784247142
 21
-99.68816877736563
 31
0.0
  0
LINE
  5
CA
330
C6
100
AcDbEntity
  8
0
 62
     0
370
    -2
100
AcDbLine
 10
180.3152864666183
 20
-99.68816877736563
 30
0.0
 11
166.1047945323642
 21
-99.68816877736563
 31
0.0
  0
SOLID
  5
CB
330
C6
100
AcDbEntity
  8
0
 62
     0
100
AcDbTrace
 10
143.8412864904601
 20
-99.55483544204547
 30
0.0
 11
143.8412864904601
 21
-99.82150211268579
 31
0.0
 12
143.0412864785391
 22
-99.68816877736563
 32
0.0
 13
143.0412864785391
 23
-99.68816877736563
 33
0.0
  0
SOLID
  5
CC
330
C6
100
AcDbEntity
  8
0
 62
     0
100
AcDbTrace
 10
180.3152864666183
 20
-99.82150211268579
 30
0.0
 11
180.3152864666183
 21
-99.55483544204547
 31
0.0
 12
181.1152864785392
 22
-99.68816877736563
 32
0.0
 13
181.1152864785392
 23
-99.68816877736563
 33
0.0
  0
MTEXT
  5
CD
330
C6
100
AcDbEntity
  8
0
 62
     0
100
AcDbMText
 10
162.0782864785392
 20
-99.68816877736563
 30
0.0
 40
1.333333373069763
 41
0.0
 71
     5
 72
     1
  1
\A1;38.0740
 73
     1
 44
1.0
  0
POINT
  5
CE
330
C6
100
AcDbEntity
  8
Defpoints
 62
     0
100
AcDbPoint
 10
143.0412864785391
 20
-102.6881687773656
 30
0.0
  0
POINT
  5
CF
330
C6
100
AcDbEntity
  8
Defpoints
 62
     0
100
AcDbPoint
 10
181.1152864785392
 20
-102.6881687773656
 30
0.0
  0
POINT
  5
D0
330
C6
100
AcDbEntity
  8
Defpoints
 62
     0
100
AcDbPoint
 10
181.1152864785392
 20
-99.68816877736563
 30
0.0
  0
ENDBLK
  5
D2
330
C6
100
AcDbEntity
  8
0
100
AcDbBlockEnd
  0
BLOCK
  5
E3
330
D8
100
AcDbEntity
  8
0
100
AcDbBlockBegin
  2
*D9
 70
     1
 10
0.0
 20
0.0
 30
0.0
  3
*D9
  1

  0
LINE
  5
D9
330
D8
100
AcDbEntity
  8
0
 62
     0
370
    -2
100
AcDbLine
 10
145.0107137717646
 20
-156.5751219023655
 30
0.0
 11
145.0107137717646
 21
-133.0826219023655
 31
0.0
  0
LINE
  5
DA
330
D8
100
AcDbEntity
  8
0
 62
     0
370
    -2
100
AcDbLine
 10
176.8017137717646
 20
-156.5751219023655
 30
0.0
 11
176.8017137717646
 21
-133.0826219023655
 31
0.0
  0
LINE
  5
DB
330
D8
100
AcDbEntity
  8
0
 62
     0
370
    -2
100
AcDbLine
 10
145.8107137836855
 20
-133.2626219023655
 30
0.0
 11
156.8797057179396
 21
-133.2626219023655
 31
0.0
  0
LINE
  5
DC
330
D8
100
AcDbEntity
  8
0
 62
     0
370
    -2
100
AcDbLine
 10
176.0017137598436
 20
-133.2626219023655
 30
0.0
 11
164.9327218255896
 21
-133.2626219023655
 31
0.0
  0
SOLID
  5
DD
330
D8
100
AcDbEntity
  8
0
 62
     0
100
AcDbTrace
 10
145.8107137836855
 20
-133.1292885670453
 30
0.0
 11
145.8107137836855
 21
-133.3959552376856
 31
0.0
 12
145.0107137717646
 22
-133.2626219023655
 32
0.0
 13
145.0107137717646
 23
-133.2626219023655
 33
0.0
  0
SOLID
  5
DE
330
D8
100
AcDbEntity
  8
0
 62
     0
100
AcDbTrace
 10
176.0017137598436
 20
-133.3959552376856
 30
0.0
 11
176.0017137598436
 21
-133.1292885670453
 31
0.0
 12
176.8017137717646
 22
-133.2626219023655
 32
0.0
 13
176.8017137717646
 23
-133.2626219023655
 33
0.0
  0
MTEXT
  5
DF
330
D8
100
AcDbEntity
  8
0
 62
     0
100
AcDbMText
 10
160.9062137717646
 20
-133.2626219023655
 30
0.0
 40
1.333333373069763
 41
0.0
 71
     5
 72
     1
  1
\A1;31.7910
 73
     1
 44
1.0
  0
POINT
  5
E0
330
D8
100
AcDbEntity
  8
Defpoints
 62
     0
100
AcDbPoint
 10
145.0107137717646
 20
-156.6376219023655
 30
0.0
  0
POINT
  5
E1
330
D8
100
AcDbEntity
  8
Defpoints
 62
     0
100
AcDbPoint
 10
176.8017137717646
 20
-156.6376219023655
 30
0.0
  0
POINT
  5
E2
330
D8
100
AcDbEntity
  8
Defpoints
 62
     0
100
AcDbPoint
 10
176.8017137717646
 20
-133.2626219023655
 30
0.0
  0
ENDBLK
  5
E4
330
D8
100
AcDbEntity
  8
0
100
AcDbBlockEnd
  0
BLOCK
  5
10F
330
104
100
AcDbEntity
  8
0
100
AcDbBlockBegin
  2
*D10
 70
     1
 10
0.0
 20
0.0
 30
0.0
  3
*D10
  1

  0
LINE
  5
105
330
104
100
AcDbEntity
  8
0
 62
     0
370
    -2
100
AcDbLine
 10
281.2114235359935
 20
-153.3273469260316
 30
0.0
 11
281.2114235359935
 21
-152.8650550452982
 31
0.0
  0
LINE
  5
106
330
104
100
AcDbEntity
  8
0
 62
     0
370
    -2
100
AcDbLine
 10
281.5114235359936
 20
-153.3273469260316
 30
0.0
 11
281.5114235359936
 21
-152.8650550452982
 31
0.0
  0
LINE
  5
107
330
104
100
AcDbEntity
  8
0
 62
     0
370
    -2
100
AcDbLine
 10
280.2114235359935
 20
-153.0450550452983
 30
0.0
 11
279.2114235359935
 21
-153.0450550452983
 31
0.0
  0
LINE
  5
108
330
104
100
AcDbEntity
  8
0
 62
     0
370
    -2
100
AcDbLine
 10
282.5114235359936
 20
-153.0450550452983
 30
0.0
 11
283.5114235359936
 21
-153.0450550452983
 31
0.0
  0
SOLID
  5
109
330
104
100
AcDbEntity
  8
0
 62
     0
100
AcDbTrace
 10
280.2114235359935
 20
-153.2117217119649
 30
0.0
 11
280.2114235359935
 21
-152.8783883786316
 31
0.0
 12
281.2114235359935
 22
-153.0450550452983
 32
0.0
 13
281.2114235359935
 23
-153.0450550452983
 33
0.0
  0
SOLID
  5
10A
330
104
100
AcDbEntity
  8
0
 62
     0
100
AcDbTrace
 10
282.5114235359936
 20
-152.8783883786316
 30
0.0
 11
282.5114235359936
 21
-153.2117217119649
 31
0.0
 12
281.5114235359936
 22
-153.0450550452983
 32
0.0
 13
281.5114235359936
 23
-153.0450550452983
 33
0.0
  0
MTEXT
  5
10B
330
104
100
AcDbEntity
  8
0
 62
     0
100
AcDbMText
 10
281.3614235359935
 20
-153.0450550452983
 30
0.0
 40
0.5
 41
0.0
 71
     5
 72
     1
  1
\A1;0.3000
 73
     1
 44
1.0
  0
POINT
  5
10C
330
104
100
AcDbEntity
  8
Defpoints
 62
     0
100
AcDbPoint
 10
281.2114235359935
 20
-153.3898469260316
 30
0.0
  0
POINT
  5
10D
330
104
100
AcDbEntity
  8
Defpoints
 62
     0
100
AcDbPoint
 10
281.5114235359936
 20
-153.3898469260316
 30
0.0
  0
POINT
  5
10E
330
104
100
AcDbEntity
  8
Defpoints
 62
     0
100
AcDbPoint
 10
281.5114235359936
 20
-153.0450550452983
 30
0.0
  0
ENDBLK
  5
110
330
104
100
AcDbEntity
  8
0
100
AcDbBlockEnd
  0
BLOCK
  5
134
330
129
100
AcDbEntity
  8
0
100
AcDbBlockBegin
  2
*D11
 70
     1
 10
0.0
 20
0.0
 30
0.0
  3
*D11
  1

  0
LINE
  5
12A
330
129
100
AcDbEntity
  8
0
 62
     0
370
    -2
100
AcDbLine
 10
257.5758569321301
 20
-128.7323037613369
 30
0.0
 11
259.9735004987839
 21
-128.7323037613369
 31
0.0
  0
LINE
  5
12B
330
129
100
AcDbEntity
  8
0
 62
     0
370
    -2
100
AcDbLine
 10
257.5758569321301
 20
-131.7323037613369
 30
0.0
 11
259.9735004987839
 21
-131.7323037613369
 31
0.0
  0
LINE
  5
12C
330
129
100
AcDbEntity
  8
0
 62
     0
370
    -2
100
AcDbLine
 10
259.7935004987839
 20
-129.7323037613369
 30
0.0
 11
259.7935004987839
 21
-129.8923037613369
 31
0.0
  0
LINE
  5
12D
330
129
100
AcDbEntity
  8
0
 62
     0
370
    -2
100
AcDbLine
 10
259.7935004987839
 20
-130.7323037613369
 30
0.0
 11
259.7935004987839
 21
-130.5723037613369
 31
0.0
  0
SOLID
  5
12E
330
129
100
AcDbEntity
  8
0
 62
     0
100
AcDbTrace
 10
259.9601671654506
 20
-129.7323037613369
 30
0.0
 11
259.6268338321173
 21
-129.7323037613369
 31
0.0
 12
259.7935004987839
 22
-128.7323037613369
 32
0.0
 13
259.7935004987839
 23
-128.7323037613369
 33
0.0
  0
SOLID
  5
12F
330
129
100
AcDbEntity
  8
0
 62
     0
100
AcDbTrace
 10
259.6268338321173
 20
-130.7323037613369
 30
0.0
 11
259.9601671654506
 21
-130.7323037613369
 31
0.0
 12
259.7935004987839
 22
-131.7323037613369
 32
0.0
 13
259.7935004987839
 23
-131.7323037613369
 33
0.0
  0
MTEXT
  5
130
330
129
100
AcDbEntity
  8
0
 62
     0
100
AcDbMText
 10
259.7935004987839
 20
-130.2323037613369
 30
0.0
 40
0.5
 41
0.0
 71
     5
 72
     1
  1
\A1;3.0000
 73
     1
 44
1.0
  0
POINT
  5
131
330
129
100
AcDbEntity
  8
Defpoints
 62
     0
100
AcDbPoint
 10
257.5133569321301
 20
-128.7323037613369
 30
0.0
  0
POINT
  5
132
330
129
100
AcDbEntity
  8
Defpoints
 62
     0
100
AcDbPoint
 10
257.5133569321301
 20
-131.7323037613369
 30
0.0
  0
POINT
  5
133
330
129
100
AcDbEntity
  8
Defpoints
 62
     0
100
AcDbPoint
 10
259.7935004987839
 20
-131.7323037613369
 30
0.0
  0
ENDBLK
  5
135
330
129
100
AcDbEntity
  8
0
100
AcDbBlockEnd
  0
BLOCK
  5
150
330
145
100
AcDbEntity
  8
0
100
AcDbBlockBegin
  2
*D12
 70
     1
 10
0.0
 20
0.0
 30
0.0
  3
*D12
  1

  0
LINE
  5
146
330
145
100
AcDbEntity
  8
0
 62
     0
370
    -2
100
AcDbLine
 10
275.4123074254815
 20
-125.2378496602208
 30
0.0
 11
281.9325983343448
 21
-125.2378496602208
 31
0.0
  0
LINE
  5
147
330
145
100
AcDbEntity
  8
0
 62
     0
370
    -2
100
AcDbLine
 10
275.4123074254815
 20
-135.2579720548967
 30
0.0
 11
281.9325983343448
 21
-135.2579720548967
 31
0.0
  0
LINE
  5
148
330
145
100
AcDbEntity
  8
0
 62
     0
370
    -2
100
AcDbLine
 10
281.7525983343448
 20
-126.2378496602208
 30
0.0
 11
281.7525983343448
 21
-129.8869598885458
 31
0.0
  0
LINE
  5
149
330
145
100
AcDbEntity
  8
0
 62
     0
370
    -2
100
AcDbLine
 10
281.7525983343448
 20
-134.2579720548967
 30
0.0
 11
281.7525983343448
 21
-130.5669598885458
 31
0.0
  0
SOLID
  5
14A
330
145
100
AcDbEntity
  8
0
 62
     0
100
AcDbTrace
 10
281.9192650010115
 20
-126.2378496602208
 30
0.0
 11
281.5859316676782
 21
-126.2378496602208
 31
0.0
 12
281.7525983343448
 22
-125.2378496602208
 32
0.0
 13
281.7525983343448
 23
-125.2378496602208
 33
0.0
  0
SOLID
  5
14B
330
145
100
AcDbEntity
  8
0
 62
     0
100
AcDbTrace
 10
281.5859316676782
 20
-134.2579720548967
 30
0.0
 11
281.9192650010115
 21
-134.2579720548967
 31
0.0
 12
281.7525983343448
 22
-135.2579720548967
 32
0.0
 13
281.7525983343448
 23
-135.2579720548967
 33
0.0
  0
MTEXT
  5
14C
330
145
100
AcDbEntity
  8
0
 62
     0
100
AcDbMText
 10
281.7525983343448
 20
-130.2269598885458
 30
0.0
 40
0.5
 41
0.0
 71
     5
 72
     1
  1
\A1;10
 73
     1
 44
1.0
  0
POINT
  5
14D
330
145
100
AcDbEntity
  8
Defpoints
 62
     0
100
AcDbPoint
 10
275.3498074254815
 20
-125.2378496602208
 30
0.0
  0
POINT
  5
14E
330
145
100
AcDbEntity
  8
Defpoints
 62
     0
100
AcDbPoint
 10
275.3498074254815
 20
-135.2579720548967
 30
0.0
  0
POINT
  5
14F
330
145
100
AcDbEntity
  8
Defpoints
 62
     0
100
AcDbPoint
 10
281.7525983343448
 20
-135.2579720548967
 30
0.0
  0
ENDBLK
  5
151
330
145
100
AcDbEntity
  8
0
100
AcDbBlockEnd
  0
BLOCK
  5
168
330
15D
100
AcDbEntity
  8
0
100
AcDbBlockBegin
  2
*D13
 70
     1
 10
0.0
 20
0.0
 30
0.0
  3
*D13
  1

  0
LINE
  5
15E
330
15D
100
AcDbEntity
  8
0
 62
     0
370
    -2
100
AcDbLine
 10
257.1896136144087
 20
-125.2431935330119
 30
0.0
 11
263.9492817487838
 21
-125.243193533012
 31
0.0
  0
LINE
  5
15F
330
15D
100
AcDbEntity
  8
0
 62
     0
370
    -2
100
AcDbLine
 10
257.1896136144087
 20
-135.2633159276878
 30
0.0
 11
263.9492817487838
 21
-135.2633159276879
 31
0.0
  0
LINE
  5
160
330
15D
100
AcDbEntity
  8
0
 62
     0
370
    -2
100
AcDbLine
 10
263.7692817487838
 20
-126.243193533012
 30
0.0
 11
263.7692817487838
 21
-129.9132547303499
 31
0.0
  0
LINE
  5
161
330
15D
100
AcDbEntity
  8
0
 62
     0
370
    -2
100
AcDbLine
 10
263.7692817487838
 20
-134.2633159276879
 30
0.0
 11
263.7692817487838
 21
-130.5932547303499
 31
0.0
  0
SOLID
  5
162
330
15D
100
AcDbEntity
  8
0
 62
     0
100
AcDbTrace
 10
263.9359484154505
 20
-126.243193533012
 30
0.0
 11
263.6026150821171
 21
-126.243193533012
 31
0.0
 12
263.7692817487838
 22
-125.243193533012
 32
0.0
 13
263.7692817487838
 23
-125.243193533012
 33
0.0
  0
SOLID
  5
163
330
15D
100
AcDbEntity
  8
0
 62
     0
100
AcDbTrace
 10
263.6026150821171
 20
-134.2633159276879
 30
0.0
 11
263.9359484154505
 21
-134.2633159276879
 31
0.0
 12
263.7692817487838
 22
-135.2633159276879
 32
0.0
 13
263.7692817487838
 23
-135.2633159276879
 33
0.0
  0
MTEXT
  5
164
330
15D
100
AcDbEntity
  8
0
 62
     0
100
AcDbMText
 10
263.7692817487838
 20
-130.2532547303499
 30
0.0
 40
0.5
 41
0.0
 71
     5
 72
     1
  1
\A1;10
 73
     1
 44
1.0
  0
POINT
  5
165
330
15D
100
AcDbEntity
  8
Defpoints
 62
     0
100
AcDbPoint
 10
257.1271136144087
 20
-125.2431935330119
 30
0.0
  0
POINT
  5
166
330
15D
100
AcDbEntity
  8
Defpoints
 62
     0
100
AcDbPoint
 10
257.1271136144087
 20
-135.2633159276878
 30
0.0
  0
POINT
  5
167
330
15D
100
AcDbEntity
  8
Defpoints
 62
     0
100
AcDbPoint
 10
263.7692817487838
 20
-135.2633159276878
 30
0.0
  0
ENDBLK
  5
169
330
15D
100
AcDbEntity
  8
0
100
AcDbBlockEnd
  0
BLOCK
  5
180
330
175
100
AcDbEntity
  8
0
100
AcDbBlockBegin
  2
*D14
 70
     1
 10
0.0
 20
0.0
 30
0.0
  3
*D14
  1

  0
LINE
  5
176
330
175
100
AcDbEntity
  8
0
 62
     0
370
    -2
100
AcDbLine
 10
275.2985507432029
 20
-125.6019598885458
 30
0.0
 11
267.3834348166122
 21
-125.6019598885458
 31
0.0
  0
LINE
  5
177
330
175
100
AcDbEntity
  8
0
 62
     0
370
    -2
100
AcDbLine
 10
275.2985507432029
 20
-134.8519598885457
 30
0.0
 11
267.3834348166122
 21
-134.8519598885457
 31
0.0
  0
LINE
  5
178
330
175
100
AcDbEntity
  8
0
 62
     0
370
    -2
100
AcDbLine
 10
267.5634348166122
 20
-126.6019598885458
 30
0.0
 11
267.5634348166122
 21
-129.8869598885458
 31
0.0
  0
LINE
  5
179
330
175
100
AcDbEntity
  8
0
 62
     0
370
    -2
100
AcDbLine
 10
267.5634348166122
 20
-133.8519598885457
 30
0.0
 11
267.5634348166122
 21
-130.5669598885458
 31
0.0
  0
SOLID
  5
17A
330
175
100
AcDbEntity
  8
0
 62
     0
100
AcDbTrace
 10
267.7301014832789
 20
-126.6019598885458
 30
0.0
 11
267.3967681499456
 21
-126.6019598885458
 31
0.0
 12
267.5634348166122
 22
-125.6019598885458
 32
0.0
 13
267.5634348166122
 23
-125.6019598885458
 33
0.0
  0
SOLID
  5
17B
330
175
100
AcDbEntity
  8
0
 62
     0
100
AcDbTrace
 10
267.3967681499456
 20
-133.8519598885457
 30
0.0
 11
267.7301014832789
 21
-133.8519598885457
 31
0.0
 12
267.5634348166122
 22
-134.8519598885457
 32
0.0
 13
267.5634348166122
 23
-134.8519598885457
 33
0.0
  0
MTEXT
  5
17C
330
175
100
AcDbEntity
  8
0
 62
     0
100
AcDbMText
 10
267.5634348166122
 20
-130.2269598885458
 30
0.0
 40
0.5
 41
0.0
 71
     5
 72
     1
  1
\A1;9.2500
 73
     1
 44
1.0
  0
POINT
  5
17D
330
175
100
AcDbEntity
  8
Defpoints
 62
     0
100
AcDbPoint
 10
275.3610507432029
 20
-125.6019598885458
 30
0.0
  0
POINT
  5
17E
330
175
100
AcDbEntity
  8
Defpoints
 62
     0
100
AcDbPoint
 10
275.3610507432029
 20
-134.8519598885457
 30
0.0
  0
POINT
  5
17F
330
175
100
AcDbEntity
  8
Defpoints
 62
     0
100
AcDbPoint
 10
267.5634348166122
 20
-134.8519598885457
 30
0.0
  0
ENDBLK
  5
181
330
175
100
AcDbEntity
  8
0
100
AcDbBlockEnd
  0
BLOCK
  5
18F
330
184
100
AcDbEntity
  8
0
100
AcDbBlockBegin
  2
*D15
 70
     1
 10
0.0
 20
0.0
 30
0.0
  3
*D15
  1

  0
LINE
  5
185
330
184
100
AcDbEntity
  8
0
 62
     0
370
    -2
100
AcDbLine
 10
257.3258569321301
 20
-125.6073037613369
 30
0.0
 11
249.6071256125135
 21
-125.607303761337
 31
0.0
  0
LINE
  5
186
330
184
100
AcDbEntity
  8
0
 62
     0
370
    -2
100
AcDbLine
 10
257.3258569321301
 20
-134.8573037613369
 30
0.0
 11
249.6071256125135
 21
-134.8573037613369
 31
0.0
  0
LINE
  5
187
330
184
100
AcDbEntity
  8
0
 62
     0
370
    -2
100
AcDbLine
 10
249.7871256125135
 20
-126.607303761337
 30
0.0
 11
249.7871256125135
 21
-129.8923037613369
 31
0.0
  0
LINE
  5
188
330
184
100
AcDbEntity
  8
0
 62
     0
370
    -2
100
AcDbLine
 10
249.7871256125135
 20
-133.8573037613369
 30
0.0
 11
249.7871256125135
 21
-130.5723037613369
 31
0.0
  0
SOLID
  5
189
330
184
100
AcDbEntity
  8
0
 62
     0
100
AcDbTrace
 10
249.9537922791802
 20
-126.607303761337
 30
0.0
 11
249.6204589458469
 21
-126.607303761337
 31
0.0
 12
249.7871256125135
 22
-125.607303761337
 32
0.0
 13
249.7871256125135
 23
-125.607303761337
 33
0.0
  0
SOLID
  5
18A
330
184
100
AcDbEntity
  8
0
 62
     0
100
AcDbTrace
 10
249.6204589458469
 20
-133.8573037613369
 30
0.0
 11
249.9537922791802
 21
-133.8573037613369
 31
0.0
 12
249.7871256125135
 22
-134.8573037613369
 32
0.0
 13
249.7871256125135
 23
-134.8573037613369
 33
0.0
  0
MTEXT
  5
18B
330
184
100
AcDbEntity
  8
0
 62
     0
100
AcDbMText
 10
249.7871256125135
 20
-130.2323037613369
 30
0.0
 40
0.5
 41
0.0
 71
     5
 72
     1
  1
\A1;9.2500
 73
     1
 44
1.0
  0
POINT
  5
18C
330
184
100
AcDbEntity
  8
Defpoints
 62
     0
100
AcDbPoint
 10
257.3883569321301
 20
-125.6073037613369
 30
0.0
  0
POINT
  5
18D
330
184
100
AcDbEntity
  8
Defpoints
 62
     0
100
AcDbPoint
 10
257.3883569321301
 20
-134.8573037613369
 30
0.0
  0
POINT
  5
18E
330
184
100
AcDbEntity
  8
Defpoints
 62
     0
100
AcDbPoint
 10
249.7871256125135
 20
-134.8573037613369
 30
0.0
  0
ENDBLK
  5
190
330
184
100
AcDbEntity
  8
0
100
AcDbBlockEnd
  0
BLOCK
  5
19D
330
192
100
AcDbEntity
  8
0
100
AcDbBlockBegin
  2
*D16
 70
     1
 10
0.0
 20
0.0
 30
0.0
  3
*D16
  1

  0
LINE
  5
193
330
192
100
AcDbEntity
  8
0
 62
     0
370
    -2
100
AcDbLine
 10
275.5485507432029
 20
-126.3519598885458
 30
0.0
 11
275.6660507432029
 21
-126.3519598885458
 31
0.0
  0
LINE
  5
194
330
192
100
AcDbEntity
  8
0
 62
     0
370
    -2
100
AcDbLine
 10
275.5485507432029
 20
-134.1019598885458
 30
0.0
 11
275.6660507432029
 21
-134.1019598885458
 31
0.0
  0
LINE
  5
195
330
192
100
AcDbEntity
  8
0
 62
     0
370
    -2
100
AcDbLine
 10
275.4860507432029
 20
-127.3519598885458
 30
0.0
 11
275.4860507432029
 21
-129.1001536028042
 31
0.0
  0
LINE
  5
196
330
192
100
AcDbEntity
  8
0
 62
     0
370
    -2
100
AcDbLine
 10
275.4860507432029
 20
-133.1019598885458
 30
0.0
 11
275.4860507432029
 21
-129.7801536028042
 31
0.0
  0
SOLID
  5
197
330
192
100
AcDbEntity
  8
0
 62
     0
100
AcDbTrace
 10
275.6527174098696
 20
-127.3519598885458
 30
0.0
 11
275.3193840765362
 21
-127.3519598885458
 31
0.0
 12
275.4860507432029
 22
-126.3519598885458
 32
0.0
 13
275.4860507432029
 23
-126.3519598885458
 33
0.0
  0
SOLID
  5
198
330
192
100
AcDbEntity
  8
0
 62
     0
100
AcDbTrace
 10
275.3193840765362
 20
-133.1019598885458
 30
0.0
 11
275.6527174098696
 21
-133.1019598885458
 31
0.0
 12
275.4860507432029
 22
-134.1019598885458
 32
0.0
 13
275.4860507432029
 23
-134.1019598885458
 33
0.0
  0
MTEXT
  5
199
330
192
100
AcDbEntity
  8
0
 62
     0
100
AcDbMText
 10
275.4860507432029
 20
-129.4401536028042
 30
0.0
 40
0.5
 41
0.0
 71
     5
 72
     1
  1
\A1;7.7500
 73
     1
 44
1.0
  0
POINT
  5
19A
330
192
100
AcDbEntity
  8
Defpoints
 62
     0
100
AcDbPoint
 10
275.4860507432029
 20
-126.3519598885458
 30
0.0
  0
POINT
  5
19B
330
192
100
AcDbEntity
  8
Defpoints
 62
     0
100
AcDbPoint
 10
275.4860507432029
 20
-134.1019598885458
 30
0.0
  0
POINT
  5
19C
330
192
100
AcDbEntity
  8
Defpoints
 62
     0
100
AcDbPoint
 10
275.4860507432029
 20
-134.1019598885458
 30
0.0
  0
ENDBLK
  5
19E
330
192
100
AcDbEntity
  8
0
100
AcDbBlockEnd
  0
BLOCK
  5
1CA
330
1BF
100
AcDbEntity
  8
0
100
AcDbBlockBegin
  2
*D17
 70
     1
 10
0.0
 20
0.0
 30
0.0
  3
*D17
  1

  0
LINE
  5
1C0
330
1BF
100
AcDbEntity
  8
0
 62
     0
370
    -2
100
AcDbLine
 10
267.6792865879984
 20
-149.213814726269
 30
0.0
 11
266.8670114327463
 21
-149.213814726269
 31
0.0
  0
LINE
  5
1C1
330
1BF
100
AcDbEntity
  8
0
 62
     0
370
    -2
100
AcDbLine
 10
267.6792865879984
 20
-151.713814726269
 30
0.0
 11
266.8670114327463
 21
-151.713814726269
 31
0.0
  0
LINE
  5
1C2
330
1BF
100
AcDbEntity
  8
0
 62
     0
370
    -2
100
AcDbLine
 10
267.0470114327463
 20
-148.213814726269
 30
0.0
 11
267.0470114327463
 21
-147.213814726269
 31
0.0
  0
LINE
  5
1C3
330
1BF
100
AcDbEntity
  8
0
 62
     0
370
    -2
100
AcDbLine
 10
267.0470114327463
 20
-152.713814726269
 30
0.0
 11
267.0470114327463
 21
-153.713814726269
 31
0.0
  0
SOLID
  5
1C4
330
1BF
100
AcDbEntity
  8
0
 62
     0
100
AcDbTrace
 10
266.8803447660796
 20
-148.213814726269
 30
0.0
 11
267.213678099413
 21
-148.213814726269
 31
0.0
 12
267.0470114327463
 22
-149.213814726269
 32
0.0
 13
267.0470114327463
 23
-149.213814726269
 33
0.0
  0
SOLID
  5
1C5
330
1BF
100
AcDbEntity
  8
0
 62
     0
100
AcDbTrace
 10
267.213678099413
 20
-152.713814726269
 30
0.0
 11
266.8803447660796
 21
-152.713814726269
 31
0.0
 12
267.0470114327463
 22
-151.713814726269
 32
0.0
 13
267.0470114327463
 23
-151.713814726269
 33
0.0
  0
MTEXT
  5
1C6
330
1BF
100
AcDbEntity
  8
0
 62
     0
100
AcDbMText
 10
267.0470114327463
 20
-150.463814726269
 30
0.0
 40
0.5
 41
0.0
 71
     5
 72
     1
  1
\A1;2.5000
 73
     1
 44
1.0
  0
POINT
  5
1C7
330
1BF
100
AcDbEntity
  8
Defpoints
 62
     0
100
AcDbPoint
 10
267.7417865879984
 20
-149.213814726269
 30
0.0
  0
POINT
  5
1C8
330
1BF
100
AcDbEntity
  8
Defpoints
 62
     0
100
AcDbPoint
 10
267.7417865879984
 20
-151.713814726269
 30
0.0
  0
POINT
  5
1C9
330
1BF
100
AcDbEntity
  8
Defpoints
 62
     0
100
AcDbPoint
 10
267.0470114327463
 20
-151.713814726269
 30
0.0
  0
ENDBLK
  5
1CB
330
1BF
100
AcDbEntity
  8
0
100
AcDbBlockEnd
  0
BLOCK
  5
1DA
330
1CF
100
AcDbEntity
  8
0
100
AcDbBlockBegin
  2
*D18
 70
     1
 10
0.0
 20
0.0
 30
0.0
  3
*D18
  1

  0
LINE
  5
1D0
330
1CF
100
AcDbEntity
  8
0
 62
     0
370
    -2
100
AcDbLine
 10
278.8114235359935
 20
-153.4523469260316
 30
0.0
 11
278.8114235359935
 21
-154.2527378486767
 31
0.0
  0
LINE
  5
1D1
330
1CF
100
AcDbEntity
  8
0
 62
     0
370
    -2
100
AcDbLine
 10
281.2114235359935
 20
-153.4523469260316
 30
0.0
 11
281.2114235359935
 21
-154.2527378486767
 31
0.0
  0
LINE
  5
1D2
330
1CF
100
AcDbEntity
  8
0
 62
     0
370
    -2
100
AcDbLine
 10
277.8114235359935
 20
-154.0727378486767
 30
0.0
 11
276.8114235359935
 21
-154.0727378486767
 31
0.0
  0
LINE
  5
1D3
330
1CF
100
AcDbEntity
  8
0
 62
     0
370
    -2
100
AcDbLine
 10
282.2114235359935
 20
-154.0727378486767
 30
0.0
 11
283.2114235359935
 21
-154.0727378486767
 31
0.0
  0
SOLID
  5
1D4
330
1CF
100
AcDbEntity
  8
0
 62
     0
100
AcDbTrace
 10
277.8114235359935
 20
-154.2394045153433
 30
0.0
 11
277.8114235359935
 21
-153.90607118201
 31
0.0
 12
278.8114235359935
 22
-154.0727378486767
 32
0.0
 13
278.8114235359935
 23
-154.0727378486767
 33
0.0
  0
SOLID
  5
1D5
330
1CF
100
AcDbEntity
  8
0
 62
     0
100
AcDbTrace
 10
282.2114235359935
 20
-153.90607118201
 30
0.0
 11
282.2114235359935
 21
-154.2394045153433
 31
0.0
 12
281.2114235359935
 22
-154.0727378486767
 32
0.0
 13
281.2114235359935
 23
-154.0727378486767
 33
0.0
  0
MTEXT
  5
1D6
330
1CF
100
AcDbEntity
  8
0
 62
     0
100
AcDbMText
 10
280.0114235359936
 20
-154.0727378486767
 30
0.0
 40
0.5
 41
0.0
 71
     5
 72
     1
  1
\A1;2.4000
 73
     1
 44
1.0
  0
POINT
  5
1D7
330
1CF
100
AcDbEntity
  8
Defpoints
 62
     0
100
AcDbPoint
 10
278.8114235359935
 20
-153.3898469260316
 30
0.0
  0
POINT
  5
1D8
330
1CF
100
AcDbEntity
  8
Defpoints
 62
     0
100
AcDbPoint
 10
281.2114235359935
 20
-153.3898469260316
 30
0.0
  0
POINT
  5
1D9
330
1CF
100
AcDbEntity
  8
Defpoints
 62
     0
100
AcDbPoint
 10
281.2114235359935
 20
-154.0727378486767
 30
0.0
  0
ENDBLK
  5
1DB
330
1CF
100
AcDbEntity
  8
0
100
AcDbBlockEnd
  0
BLOCK
  5
1E8
330
1DD
100
AcDbEntity
  8
0
100
AcDbBlockBegin
  2
*D19
 70
     1
 10
0.0
 20
0.0
 30
0.0
  3
*D19
  1

  0
LINE
  5
1DE
330
1DD
100
AcDbEntity
  8
0
 62
     0
370
    -2
100
AcDbLine
 10
250.190224921526
 20
-140.6473683513056
 30
0.0
 11
249.0007374619249
 21
-140.6473683513056
 31
0.0
  0
LINE
  5
1DF
330
1DD
100
AcDbEntity
  8
0
 62
     0
370
    -2
100
AcDbLine
 10
250.190224921526
 20
-143.1473683513056
 30
0.0
 11
249.0007374619249
 21
-143.1473683513056
 31
0.0
  0
LINE
  5
1E0
330
1DD
100
AcDbEntity
  8
0
 62
     0
370
    -2
100
AcDbLine
 10
249.1807374619249
 20
-139.6473683513056
 30
0.0
 11
249.1807374619249
 21
-138.6473683513056
 31
0.0
  0
LINE
  5
1E1
330
1DD
100
AcDbEntity
  8
0
 62
     0
370
    -2
100
AcDbLine
 10
249.1807374619249
 20
-144.1473683513056
 30
0.0
 11
249.1807374619249
 21
-145.1473683513056
 31
0.0
  0
SOLID
  5
1E2
330
1DD
100
AcDbEntity
  8
0
 62
     0
100
AcDbTrace
 10
249.0140707952583
 20
-139.6473683513056
 30
0.0
 11
249.3474041285916
 21
-139.6473683513056
 31
0.0
 12
249.1807374619249
 22
-140.6473683513056
 32
0.0
 13
249.1807374619249
 23
-140.6473683513056
 33
0.0
  0
SOLID
  5
1E3
330
1DD
100
AcDbEntity
  8
0
 62
     0
100
AcDbTrace
 10
249.3474041285916
 20
-144.1473683513056
 30
0.0
 11
249.0140707952583
 21
-144.1473683513056
 31
0.0
 12
249.1807374619249
 22
-143.1473683513056
 32
0.0
 13
249.1807374619249
 23
-143.1473683513056
 33
0.0
  0
MTEXT
  5
1E4
330
1DD
100
AcDbEntity
  8
0
 62
     0
100
AcDbMText
 10
249.1807374619249
 20
-141.8973683513056
 30
0.0
 40
0.5
 41
0.0
 71
     5
 72
     1
  1
\A1;2.5000
 73
     1
 44
1.0
  0
POINT
  5
1E5
330
1DD
100
AcDbEntity
  8
Defpoints
 62
     0
100
AcDbPoint
 10
250.252724921526
 20
-140.6473683513056
 30
0.0
  0
POINT
  5
1E6
330
1DD
100
AcDbEntity
  8
Defpoints
 62
     0
100
AcDbPoint
 10
250.252724921526
 20
-143.1473683513056
 30
0.0
  0
POINT
  5
1E7
330
1DD
100
AcDbEntity
  8
Defpoints
 62
     0
100
AcDbPoint
 10
249.1807374619249
 20
-143.1473683513056
 30
0.0
  0
ENDBLK
  5
1E9
330
1DD
100
AcDbEntity
  8
0
100
AcDbBlockEnd
  0
BLOCK
  5
1F6
330
1EB
100
AcDbEntity
  8
0
100
AcDbBlockBegin
  2
*D20
 70
     1
 10
0.0
 20
0.0
 30
0.0
  3
*D20
  1

  0
LINE
  5
1EC
330
1EB
100
AcDbEntity
  8
0
 62
     0
370
    -2
100
AcDbLine
 10
252.4402249215259
 20
-140.7698683513056
 30
0.0
 11
254.0577249215259
 21
-140.7698683513056
 31
0.0
  0
LINE
  5
1ED
330
1EB
100
AcDbEntity
  8
0
 62
     0
370
    -2
100
AcDbLine
 10
252.4402249215259
 20
-142.8948683513056
 30
0.0
 11
254.0577249215259
 21
-142.8948683513056
 31
0.0
  0
LINE
  5
1EE
330
1EB
100
AcDbEntity
  8
0
 62
     0
370
    -2
100
AcDbLine
 10
253.8777249215259
 20
-139.7698683513056
 30
0.0
 11
253.8777249215259
 21
-138.7698683513056
 31
0.0
  0
LINE
  5
1EF
330
1EB
100
AcDbEntity
  8
0
 62
     0
370
    -2
100
AcDbLine
 10
253.8777249215259
 20
-143.8948683513056
 30
0.0
 11
253.8777249215259
 21
-144.8948683513056
 31
0.0
  0
SOLID
  5
1F0
330
1EB
100
AcDbEntity
  8
0
 62
     0
100
AcDbTrace
 10
253.7110582548592
 20
-139.7698683513056
 30
0.0
 11
254.0443915881926
 21
-139.7698683513056
 31
0.0
 12
253.8777249215259
 22
-140.7698683513056
 32
0.0
 13
253.8777249215259
 23
-140.7698683513056
 33
0.0
  0
SOLID
  5
1F1
330
1EB
100
AcDbEntity
  8
0
 62
     0
100
AcDbTrace
 10
254.0443915881926
 20
-143.8948683513056
 30
0.0
 11
253.7110582548592
 21
-143.8948683513056
 31
0.0
 12
253.8777249215259
 22
-142.8948683513056
 32
0.0
 13
253.8777249215259
 23
-142.8948683513056
 33
0.0
  0
MTEXT
  5
1F2
330
1EB
100
AcDbEntity
  8
0
 62
     0
100
AcDbMText
 10
253.8777249215259
 20
-141.8323683513056
 30
0.0
 40
0.5
 41
0.0
 71
     5
 72
     1
  1
\A1;2.1250
 73
     1
 44
1.0
  0
POINT
  5
1F3
330
1EB
100
AcDbEntity
  8
Defpoints
 62
     0
100
AcDbPoint
 10
252.3777249215259
 20
-140.7698683513056
 30
0.0
  0
POINT
  5
1F4
330
1EB
100
AcDbEntity
  8
Defpoints
 62
     0
100
AcDbPoint
 10
252.3777249215259
 20
-142.8948683513056
 30
0.0
  0
POINT
  5
1F5
330
1EB
100
AcDbEntity
  8
Defpoints
 62
     0
100
AcDbPoint
 10
253.8777249215259
 20
-142.8948683513056
 30
0.0
  0
ENDBLK
  5
1F7
330
1EB
100
AcDbEntity
  8
0
100
AcDbBlockEnd
  0
BLOCK
  5
206
330
1FA
100
AcDbEntity
  8
0
100
AcDbBlockBegin
  2
*D21
 70
     1
 10
0.0
 20
0.0
 30
0.0
  3
*D21
  1

  0
LINE
  5
1FB
330
1FA
100
AcDbEntity
  8
0
 62
     0
370
    -2
100
AcDbLine
 10
281.1278385858537
 20
-133.9453619361372
 30
0.0
 11
282.1278385858537
 21
-133.9453619361372
 31
0.0
  0
LINE
  5
1FC
330
1FA
100
AcDbEntity
  8
0
 62
     0
370
    -2
100
AcDbLine
 10
282.1278385858537
 20
-133.9453619361372
 30
0.0
 11
282.1278385858537
 21
-130.7769598884784
 31
0.0
  0
LINE
  5
1FD
330
1FA
100
AcDbEntity
  8
0
 62
     0
370
    -2
100
AcDbLine
 10
279.5281213663029
 20
-129.6769598885458
 30
0.0
 11
282.3078385858537
 21
-129.6769598885458
 31
0.0
  0
LINE
  5
1FE
330
1FA
100
AcDbEntity
  8
0
 62
     0
370
    -2
100
AcDbLine
 10
279.5738605218774
 20
-130.7769598884784
 30
0.0
 11
282.3078385858537
 21
-130.7769598884784
 31
0.0
  0
LINE
  5
1FF
330
1FA
100
AcDbEntity
  8
0
 62
     0
370
    -2
100
AcDbLine
 10
282.1278385858537
 20
-128.6769598885458
 30
0.0
 11
282.1278385858537
 21
-127.6769598885458
 31
0.0
  0
LINE
  5
200
330
1FA
100
AcDbEntity
  8
0
 62
     0
370
    -2
100
AcDbLine
 10
282.1278385858537
 20
-131.7769598884784
 30
0.0
 11
282.1278385858537
 21
-132.7769598884784
 31
0.0
  0
SOLID
  5
201
330
1FA
100
AcDbEntity
  8
0
 62
     0
100
AcDbTrace
 10
281.961171919187
 20
-128.6769598885458
 30
0.0
 11
282.2945052525204
 21
-128.6769598885458
 31
0.0
 12
282.1278385858537
 22
-129.6769598885458
 32
0.0
 13
282.1278385858537
 23
-129.6769598885458
 33
0.0
  0
SOLID
  5
202
330
1FA
100
AcDbEntity
  8
0
 62
     0
100
AcDbTrace
 10
282.2945052525204
 20
-131.7769598884784
 30
0.0
 11
281.961171919187
 21
-131.7769598884784
 31
0.0
 12
282.1278385858537
 22
-130.7769598884784
 32
0.0
 13
282.1278385858537
 23
-130.7769598884784
 33
0.0
  0
MTEXT
  5
203
330
1FA
100
AcDbEntity
  8
0
 62
     0
100
AcDbMText
 10
279.8354576334727
 20
-133.9453619361372
 30
0.0
 40
0.5
 41
0.0
 71
     5
 72
     1
  1
\A1;1.1000
 73
     1
 44
1.0
  0
POINT
  5
204
330
1FA
100
AcDbEntity
  8
Defpoints
 62
     0
100
AcDbPoint
 10
279.4656213663029
 20
-129.6769598885458
 30
0.0
  0
POINT
  5
205
330
1FA
100
AcDbEntity
  8
Defpoints
 62
     0
100
AcDbPoint
 10
279.5113605218774
 20
-130.7769598884784
 30
0.0
  0
POINT
  5
208
330
1FA
100
AcDbEntity
  8
Defpoints
 62
     0
100
AcDbPoint
 10
280.5554576334727
 20
-130.7769598884784
 30
0.0
  0
ENDBLK
  5
207
330
1FA
100
AcDbEntity
  8
0
100
AcDbBlockEnd
  0
BLOCK
  5
216
330
20B
100
AcDbEntity
  8
0
100
AcDbBlockBegin
  2
*D22
 70
     1
 10
0.0
 20
0.0
 30
0.0
  3
*D22
  1

  0
LINE
  5
20C
330
20B
100
AcDbEntity
  8
0
 62
     0
370
    -2
100
AcDbLine
 10
267.7142865879983
 20
-152.557564726269
 30
0.0
 11
268.3949310658251
 21
-152.557564726269
 31
0.0
  0
LINE
  5
20D
330
20B
100
AcDbEntity
  8
0
 62
     0
370
    -2
100
AcDbLine
 10
267.7142865879983
 20
-152.870064726269
 30
0.0
 11
268.3949310658251
 21
-152.870064726269
 31
0.0
  0
LINE
  5
20E
330
20B
100
AcDbEntity
  8
0
 62
     0
370
    -2
100
AcDbLine
 10
268.2149310658251
 20
-151.557564726269
 30
0.0
 11
268.2149310658251
 21
-150.557564726269
 31
0.0
  0
LINE
  5
20F
330
20B
100
AcDbEntity
  8
0
 62
     0
370
    -2
100
AcDbLine
 10
268.2149310658251
 20
-153.870064726269
 30
0.0
 11
268.2149310658251
 21
-154.870064726269
 31
0.0
  0
SOLID
  5
210
330
20B
100
AcDbEntity
  8
0
 62
     0
100
AcDbTrace
 10
268.0482643991584
 20
-151.557564726269
 30
0.0
 11
268.3815977324918
 21
-151.557564726269
 31
0.0
 12
268.2149310658251
 22
-152.557564726269
 32
0.0
 13
268.2149310658251
 23
-152.557564726269
 33
0.0
  0
SOLID
  5
211
330
20B
100
AcDbEntity
  8
0
 62
     0
100
AcDbTrace
 10
268.3815977324918
 20
-153.870064726269
 30
0.0
 11
268.0482643991584
 21
-153.870064726269
 31
0.0
 12
268.2149310658251
 22
-152.870064726269
 32
0.0
 13
268.2149310658251
 23
-152.870064726269
 33
0.0
  0
MTEXT
  5
212
330
20B
100
AcDbEntity
  8
0
 62
     0
100
AcDbMText
 10
268.2149310658251
 20
-152.713814726269
 30
0.0
 40
0.5
 41
0.0
 71
     5
 72
     1
  1
\A1;0.3125
 73
     1
 44
1.0
  0
POINT
  5
213
330
20B
100
AcDbEntity
  8
Defpoints
 62
     0
100
AcDbPoint
 10
267.6517865879983
 20
-152.557564726269
 30
0.0
  0
POINT
  5
214
330
20B
100
AcDbEntity
  8
Defpoints
 62
     0
100
AcDbPoint
 10
267.6517865879983
 20
-152.870064726269
 30
0.0
  0
POINT
  5
215
330
20B
100
AcDbEntity
  8
Defpoints
 62
     0
100
AcDbPoint
 10
268.2149310658251
 20
-152.870064726269
 30
0.0
  0
ENDBLK
  5
217
330
20B
100
AcDbEntity
  8
0
100
AcDbBlockEnd
  0
BLOCK
  5
226
330
219
100
AcDbEntity
  8
0
100
AcDbBlockBegin
  2
*D23
 70
     1
 10
0.0
 20
0.0
 30
0.0
  3
*D23
  1

  0
LINE
  5
21A
330
219
100
AcDbEntity
  8
0
 62
     0
370
    -2
100
AcDbLine
 10
251.4536332306575
 20
-153.2491463521709
 30
0.0
 11
250.4536332306575
 21
-153.2491463521709
 31
0.0
  0
LINE
  5
21B
330
219
100
AcDbEntity
  8
0
 62
     0
370
    -2
100
AcDbLine
 10
250.4536332306575
 20
-153.2491463521709
 30
0.0
 11
250.4536332306575
 21
-155.3049424598453
 31
0.0
  0
LINE
  5
21C
330
219
100
AcDbEntity
  8
0
 62
     0
370
    -2
100
AcDbLine
 10
251.5426541026163
 20
-155.3049424598453
 30
0.0
 11
250.2736332306575
 21
-155.3049424598453
 31
0.0
  0
LINE
  5
21D
330
219
100
AcDbEntity
  8
0
 62
     0
370
    -2
100
AcDbLine
 10
251.5426541026163
 20
-155.6489424598453
 30
0.0
 11
250.2736332306575
 21
-155.6489424598453
 31
0.0
  0
LINE
  5
21E
330
219
100
AcDbEntity
  8
0
 62
     0
370
    -2
100
AcDbLine
 10
250.4536332306575
 20
-154.3049424598453
 30
0.0
 11
250.4536332306575
 21
-153.3049424598453
 31
0.0
  0
LINE
  5
21F
330
219
100
AcDbEntity
  8
0
 62
     0
370
    -2
100
AcDbLine
 10
250.4536332306575
 20
-156.6489424598453
 30
0.0
 11
250.4536332306575
 21
-157.6489424598453
 31
0.0
  0
SOLID
  5
220
330
219
100
AcDbEntity
  8
0
 62
     0
100
AcDbTrace
 10
250.2869665639908
 20
-154.3049424598453
 30
0.0
 11
250.6202998973241
 21
-154.3049424598453
 31
0.0
 12
250.4536332306575
 22
-155.3049424598453
 32
0.0
 13
250.4536332306575
 23
-155.3049424598453
 33
0.0
  0
SOLID
  5
221
330
219
100
AcDbEntity
  8
0
 62
     0
100
AcDbTrace
 10
250.6202998973241
 20
-156.6489424598453
 30
0.0
 11
250.2869665639908
 21
-156.6489424598453
 31
0.0
 12
250.4536332306575
 22
-155.6489424598453
 32
0.0
 13
250.4536332306575
 23
-155.6489424598453
 33
0.0
  0
MTEXT
  5
222
330
219
100
AcDbEntity
  8
0
 62
     0
100
AcDbMText
 10
252.7817284687527
 20
-153.2491463521709
 30
0.0
 40
0.5
 41
0.0
 71
     5
 72
     1
  1
\A1;0.3440
 73
     1
 44
1.0
  0
POINT
  5
223
330
219
100
AcDbEntity
  8
Defpoints
 62
     0
100
AcDbPoint
 10
251.6051541026163
 20
-155.3049424598453
 30
0.0
  0
POINT
  5
224
330
219
100
AcDbEntity
  8
Defpoints
 62
     0
100
AcDbPoint
 10
251.6051541026163
 20
-155.6489424598453
 30
0.0
  0
POINT
  5
225
330
219
100
AcDbEntity
  8
Defpoints
 62
     0
100
AcDbPoint
 10
252.0617284687527
 20
-155.6489424598453
 30
0.0
  0
ENDBLK
  5
227
330
219
100
AcDbEntity
  8
0
100
AcDbBlockEnd
  0
BLOCK
  5
262
330
256
100
AcDbEntity
  8
0
100
AcDbBlockBegin
  2
*D24
 70
     1
 10
0.0
 20
0.0
 30
0.0
  3
*D24
  1

  0
LINE
  5
257
330
256
100
AcDbEntity
  8
0
 62
     0
370
    -2
100
AcDbLine
 10
267.8667865879985
 20
-149.026314726269
 30
0.0
 11
267.8667865879985
 21
-147.408814726269
 31
0.0
  0
LINE
  5
258
330
256
100
AcDbEntity
  8
0
 62
     0
370
    -2
100
AcDbLine
 10
267.9367865879984
 20
-149.026314726269
 30
0.0
 11
267.9367865879984
 21
-147.408814726269
 31
0.0
  0
LINE
  5
259
330
256
100
AcDbEntity
  8
0
 62
     0
370
    -2
100
AcDbLine
 10
267.9367865879984
 20
-147.588814726269
 30
0.0
 11
269.9367865879984
 21
-147.588814726269
 31
0.0
  0
LINE
  5
25A
330
256
100
AcDbEntity
  8
0
 62
     0
370
    -2
100
AcDbLine
 10
266.8667865879985
 20
-147.588814726269
 30
0.0
 11
265.8667865879985
 21
-147.588814726269
 31
0.0
  0
LINE
  5
25B
330
256
100
AcDbEntity
  8
0
 62
     0
370
    -2
100
AcDbLine
 10
268.9367865879984
 20
-147.588814726269
 30
0.0
 11
269.9367865879984
 21
-147.588814726269
 31
0.0
  0
SOLID
  5
25C
330
256
100
AcDbEntity
  8
0
 62
     0
100
AcDbTrace
 10
266.8667865879985
 20
-147.7554813929357
 30
0.0
 11
266.8667865879985
 21
-147.4221480596024
 31
0.0
 12
267.8667865879985
 22
-147.588814726269
 32
0.0
 13
267.8667865879985
 23
-147.588814726269
 33
0.0
  0
SOLID
  5
25D
330
256
100
AcDbEntity
  8
0
 62
     0
100
AcDbTrace
 10
268.9367865879984
 20
-147.4221480596024
 30
0.0
 11
268.9367865879984
 21
-147.7554813929357
 31
0.0
 12
267.9367865879984
 22
-147.588814726269
 32
0.0
 13
267.9367865879984
 23
-147.588814726269
 33
0.0
  0
MTEXT
  5
25E
330
256
100
AcDbEntity
  8
0
 62
     0
100
AcDbMText
 10
271.2648818260936
 20
-147.588814726269
 30
0.0
 40
0.5
 41
0.0
 71
     5
 72
     1
  1
\A1;0.0700
 73
     1
 44
1.0
  0
POINT
  5
25F
330
256
100
AcDbEntity
  8
Defpoints
 62
     0
100
AcDbPoint
 10
267.8667865879985
 20
-149.088814726269
 30
0.0
  0
POINT
  5
260
330
256
100
AcDbEntity
  8
Defpoints
 62
     0
100
AcDbPoint
 10
267.9367865879984
 20
-149.088814726269
 30
0.0
  0
POINT
  5
261
330
256
100
AcDbEntity
  8
Defpoints
 62
     0
100
AcDbPoint
 10
267.9367865879984
 20
-147.588814726269
 30
0.0
  0
ENDBLK
  5
263
330
256
100
AcDbEntity
  8
0
100
AcDbBlockEnd
  0
BLOCK
  5
272
330
265
100
AcDbEntity
  8
0
100
AcDbBlockBegin
  2
*D25
 70
     1
 10
0.0
 20
0.0
 30
0.0
  3
*D25
  1

  0
LINE
  5
266
330
265
100
AcDbEntity
  8
0
 62
     0
370
    -2
100
AcDbLine
 10
283.2007466724444
 20
-155.3898469260316
 30
0.0
 11
284.2007466724444
 21
-155.3898469260316
 31
0.0
  0
LINE
  5
267
330
265
100
AcDbEntity
  8
0
 62
     0
370
    -2
100
AcDbLine
 10
284.2007466724444
 20
-155.3898469260316
 30
0.0
 11
284.2007466724444
 21
-153.3898469260316
 31
0.0
  0
LINE
  5
268
330
265
100
AcDbEntity
  8
0
 62
     0
370
    -2
100
AcDbLine
 10
281.2739235359935
 20
-153.2648469260316
 30
0.0
 11
284.3807466724444
 21
-153.2648469260316
 31
0.0
  0
LINE
  5
269
330
265
100
AcDbEntity
  8
0
 62
     0
370
    -2
100
AcDbLine
 10
281.2739235359935
 20
-153.3898469260316
 30
0.0
 11
284.3807466724444
 21
-153.3898469260316
 31
0.0
  0
LINE
  5
26A
330
265
100
AcDbEntity
  8
0
 62
     0
370
    -2
100
AcDbLine
 10
284.2007466724444
 20
-152.2648469260316
 30
0.0
 11
284.2007466724444
 21
-151.2648469260316
 31
0.0
  0
LINE
  5
26B
330
265
100
AcDbEntity
  8
0
 62
     0
370
    -2
100
AcDbLine
 10
284.2007466724444
 20
-154.3898469260316
 30
0.0
 11
284.2007466724444
 21
-155.3898469260316
 31
0.0
  0
SOLID
  5
26C
330
265
100
AcDbEntity
  8
0
 62
     0
100
AcDbTrace
 10
284.0340800057778
 20
-152.2648469260316
 30
0.0
 11
284.3674133391111
 21
-152.2648469260316
 31
0.0
 12
284.2007466724444
 22
-153.2648469260316
 32
0.0
 13
284.2007466724444
 23
-153.2648469260316
 33
0.0
  0
SOLID
  5
26D
330
265
100
AcDbEntity
  8
0
 62
     0
100
AcDbTrace
 10
284.3674133391111
 20
-154.3898469260316
 30
0.0
 11
284.0340800057778
 21
-154.3898469260316
 31
0.0
 12
284.2007466724444
 22
-153.3898469260316
 32
0.0
 13
284.2007466724444
 23
-153.3898469260316
 33
0.0
  0
MTEXT
  5
26E
330
265
100
AcDbEntity
  8
0
 62
     0
100
AcDbMText
 10
281.8726514343492
 20
-155.3898469260316
 30
0.0
 40
0.5
 41
0.0
 71
     5
 72
     1
  1
\A1;0.1250
 73
     1
 44
1.0
  0
POINT
  5
26F
330
265
100
AcDbEntity
  8
Defpoints
 62
     0
100
AcDbPoint
 10
281.2114235359935
 20
-153.2648469260316
 30
0.0
  0
POINT
  5
270
330
265
100
AcDbEntity
  8
Defpoints
 62
     0
100
AcDbPoint
 10
281.2114235359935
 20
-153.3898469260316
 30
0.0
  0
POINT
  5
271
330
265
100
AcDbEntity
  8
Defpoints
 62
     0
100
AcDbPoint
 10
282.5883657200635
 20
-153.3898469260316
 30
0.0
  0
ENDBLK
  5
273
330
265
100
AcDbEntity
  8
0
100
AcDbBlockEnd
  0
BLOCK
  5
280
330
275
100
AcDbEntity
  8
0
100
AcDbBlockBegin
  2
*D26
 70
     1
 10
0.0
 20
0.0
 30
0.0
  3
*D26
  1

  0
LINE
  5
276
330
275
100
AcDbEntity
  8
0
 62
     0
370
    -2
100
AcDbLine
 10
281.5739235359936
 20
-151.5148469260316
 30
0.0
 11
283.6391025966016
 21
-151.5148469260316
 31
0.0
  0
LINE
  5
277
330
275
100
AcDbEntity
  8
0
 62
     0
370
    -2
100
AcDbLine
 10
281.5739235359936
 20
-153.2648469260316
 30
0.0
 11
283.6391025966016
 21
-153.2648469260316
 31
0.0
  0
LINE
  5
278
330
275
100
AcDbEntity
  8
0
 62
     0
370
    -2
100
AcDbLine
 10
283.4591025966016
 20
-150.5148469260316
 30
0.0
 11
283.4591025966016
 21
-149.5148469260316
 31
0.0
  0
LINE
  5
279
330
275
100
AcDbEntity
  8
0
 62
     0
370
    -2
100
AcDbLine
 10
283.4591025966016
 20
-154.2648469260316
 30
0.0
 11
283.4591025966016
 21
-155.2648469260316
 31
0.0
  0
SOLID
  5
27A
330
275
100
AcDbEntity
  8
0
 62
     0
100
AcDbTrace
 10
283.2924359299349
 20
-150.5148469260316
 30
0.0
 11
283.6257692632683
 21
-150.5148469260316
 31
0.0
 12
283.4591025966016
 22
-151.5148469260316
 32
0.0
 13
283.4591025966016
 23
-151.5148469260316
 33
0.0
  0
SOLID
  5
27B
330
275
100
AcDbEntity
  8
0
 62
     0
100
AcDbTrace
 10
283.6257692632683
 20
-154.2648469260316
 30
0.0
 11
283.2924359299349
 21
-154.2648469260316
 31
0.0
 12
283.4591025966016
 22
-153.2648469260316
 32
0.0
 13
283.4591025966016
 23
-153.2648469260316
 33
0.0
  0
MTEXT
  5
27C
330
275
100
AcDbEntity
  8
0
 62
     0
100
AcDbMText
 10
283.4591025966016
 20
-152.3898469260316
 30
0.0
 40
0.5
 41
0.0
 71
     5
 72
     1
  1
\A1;1.7500
 73
     1
 44
1.0
  0
POINT
  5
27D
330
275
100
AcDbEntity
  8
Defpoints
 62
     0
100
AcDbPoint
 10
281.5114235359936
 20
-151.5148469260316
 30
0.0
  0
POINT
  5
27E
330
275
100
AcDbEntity
  8
Defpoints
 62
     0
100
AcDbPoint
 10
281.5114235359936
 20
-153.2648469260316
 30
0.0
  0
POINT
  5
27F
330
275
100
AcDbEntity
  8
Defpoints
 62
     0
100
AcDbPoint
 10
283.4591025966016
 20
-153.2648469260316
 30
0.0
  0
ENDBLK
  5
281
330
275
100
AcDbEntity
  8
0
100
AcDbBlockEnd
  0
BLOCK
  5
28E
330
283
100
AcDbEntity
  8
0
100
AcDbBlockBegin
  2
*D27
 70
     1
 10
0.0
 20
0.0
 30
0.0
  3
*D27
  1

  0
LINE
  5
284
330
283
100
AcDbEntity
  8
0
 62
     0
370
    -2
100
AcDbLine
 10
267.9642865879985
 20
-148.963814726269
 30
0.0
 11
272.5538805994127
 21
-148.963814726269
 31
0.0
  0
LINE
  5
285
330
283
100
AcDbEntity
  8
0
 62
     0
370
    -2
100
AcDbLine
 10
267.9992865879984
 20
-156.4636513893785
 30
0.0
 11
272.5538805994127
 21
-156.4636513893785
 31
0.0
  0
LINE
  5
286
330
283
100
AcDbEntity
  8
0
 62
     0
370
    -2
100
AcDbLine
 10
272.3738805994127
 20
-149.963814726269
 30
0.0
 11
272.3738805994127
 21
-152.373814726269
 31
0.0
  0
LINE
  5
287
330
283
100
AcDbEntity
  8
0
 62
     0
370
    -2
100
AcDbLine
 10
272.3738805994127
 20
-155.4636513893785
 30
0.0
 11
272.3738805994127
 21
-153.053814726269
 31
0.0
  0
SOLID
  5
288
330
283
100
AcDbEntity
  8
0
 62
     0
100
AcDbTrace
 10
272.5405472660794
 20
-149.963814726269
 30
0.0
 11
272.207213932746
 21
-149.963814726269
 31
0.0
 12
272.3738805994127
 22
-148.963814726269
 32
0.0
 13
272.3738805994127
 23
-148.963814726269
 33
0.0
  0
SOLID
  5
289
330
283
100
AcDbEntity
  8
0
 62
     0
100
AcDbTrace
 10
272.207213932746
 20
-155.4636513893785
 30
0.0
 11
272.5405472660794
 21
-155.4636513893785
 31
0.0
 12
272.3738805994127
 22
-156.4636513893785
 32
0.0
 13
272.3738805994127
 23
-156.4636513893785
 33
0.0
  0
MTEXT
  5
28A
330
283
100
AcDbEntity
  8
0
 62
     0
100
AcDbMText
 10
272.3738805994127
 20
-152.713814726269
 30
0.0
 40
0.5
 41
0.0
 71
     5
 72
     1
  1
\A1;7.4998
 73
     1
 44
1.0
  0
POINT
  5
28B
330
283
100
AcDbEntity
  8
Defpoints
 62
     0
100
AcDbPoint
 10
267.9017865879985
 20
-148.963814726269
 30
0.0
  0
POINT
  5
28C
330
283
100
AcDbEntity
  8
Defpoints
 62
     0
100
AcDbPoint
 10
267.9367865879984
 20
-156.4636513893785
 30
0.0
  0
POINT
  5
28D
330
283
100
AcDbEntity
  8
Defpoints
 62
     0
100
AcDbPoint
 10
272.3738805994127
 20
-156.4636513893785
 30
0.0
  0
ENDBLK
  5
28F
330
283
100
AcDbEntity
  8
0
100
AcDbBlockEnd
  0
BLOCK
  5
29C
330
291
100
AcDbEntity
  8
0
100
AcDbBlockBegin
  2
*D28
 70
     1
 10
0.0
 20
0.0
 30
0.0
  3
*D28
  1

  0
LINE
  5
292
330
291
100
AcDbEntity
  8
0
 62
     0
370
    -2
100
AcDbLine
 10
278.2614235359936
 20
-153.3273469260316
 30
0.0
 11
278.2614235359936
 21
-152.6507523354473
 31
0.0
  0
LINE
  5
293
330
291
100
AcDbEntity
  8
0
 62
     0
370
    -2
100
AcDbLine
 10
278.8114235359935
 20
-153.3273469260316
 30
0.0
 11
278.8114235359935
 21
-152.6507523354473
 31
0.0
  0
LINE
  5
294
330
291
100
AcDbEntity
  8
0
 62
     0
370
    -2
100
AcDbLine
 10
278.2614235359936
 20
-152.8307523354473
 30
0.0
 11
276.2614235359936
 21
-152.8307523354473
 31
0.0
  0
LINE
  5
295
330
291
100
AcDbEntity
  8
0
 62
     0
370
    -2
100
AcDbLine
 10
277.2614235359936
 20
-152.8307523354473
 30
0.0
 11
276.2614235359936
 21
-152.8307523354473
 31
0.0
  0
LINE
  5
296
330
291
100
AcDbEntity
  8
0
 62
     0
370
    -2
100
AcDbLine
 10
279.8114235359935
 20
-152.8307523354473
 30
0.0
 11
280.8114235359935
 21
-152.8307523354473
 31
0.0
  0
SOLID
  5
297
330
291
100
AcDbEntity
  8
0
 62
     0
100
AcDbTrace
 10
277.2614235359936
 20
-152.997419002114
 30
0.0
 11
277.2614235359936
 21
-152.6640856687807
 31
0.0
 12
278.2614235359936
 22
-152.8307523354473
 32
0.0
 13
278.2614235359936
 23
-152.8307523354473
 33
0.0
  0
SOLID
  5
298
330
291
100
AcDbEntity
  8
0
 62
     0
100
AcDbTrace
 10
279.8114235359935
 20
-152.6640856687807
 30
0.0
 11
279.8114235359935
 21
-152.997419002114
 31
0.0
 12
278.8114235359935
 22
-152.8307523354473
 32
0.0
 13
278.8114235359935
 23
-152.8307523354473
 33
0.0
  0
MTEXT
  5
299
330
291
100
AcDbEntity
  8
0
 62
     0
100
AcDbMText
 10
274.9333282978984
 20
-152.8307523354473
 30
0.0
 40
0.5
 41
0.0
 71
     5
 72
     1
  1
\A1;0.5500
 73
     1
 44
1.0
  0
POINT
  5
29A
330
291
100
AcDbEntity
  8
Defpoints
 62
     0
100
AcDbPoint
 10
278.2614235359936
 20
-153.3898469260316
 30
0.0
  0
POINT
  5
29B
330
291
100
AcDbEntity
  8
Defpoints
 62
     0
100
AcDbPoint
 10
278.8114235359935
 20
-153.3898469260316
 30
0.0
  0
POINT
  5
29E
330
291
100
AcDbEntity
  8
Defpoints
 62
     0
100
AcDbPoint
 10
278.8114235359935
 20
-152.8307523354473
 30
0.0
  0
ENDBLK
  5
29D
330
291
100
AcDbEntity
  8
0
100
AcDbBlockEnd
  0
BLOCK
  5
2AE
330
2A3
100
AcDbEntity
  8
0
100
AcDbBlockBegin
  2
*D29
 70
     1
 10
0.0
 20
0.0
 30
0.0
  3
*D29
  1

  0
LINE
  5
2A4
330
2A3
100
AcDbEntity
  8
0
 62
     0
370
    -2
100
AcDbLine
 10
254.0107529685579
 20
-147.1104445893737
 30
0.0
 11
247.8102905614336
 21
-147.1104445893737
 31
0.0
  0
LINE
  5
2A5
330
2A3
100
AcDbEntity
  8
0
 62
     0
370
    -2
100
AcDbLine
 10
254.0107529685579
 20
-156.3604445893736
 30
0.0
 11
247.8102905614336
 21
-156.3604445893736
 31
0.0
  0
LINE
  5
2A6
330
2A3
100
AcDbEntity
  8
0
 62
     0
370
    -2
100
AcDbLine
 10
247.9902905614336
 20
-148.1104445893737
 30
0.0
 11
247.9902905614336
 21
-151.3954445893736
 31
0.0
  0
LINE
  5
2A7
330
2A3
100
AcDbEntity
  8
0
 62
     0
370
    -2
100
AcDbLine
 10
247.9902905614336
 20
-155.3604445893736
 30
0.0
 11
247.9902905614336
 21
-152.0754445893736
 31
0.0
  0
SOLID
  5
2A8
330
2A3
100
AcDbEntity
  8
0
 62
     0
100
AcDbTrace
 10
248.1569572281003
 20
-148.1104445893737
 30
0.0
 11
247.8236238947669
 21
-148.1104445893737
 31
0.0
 12
247.9902905614336
 22
-147.1104445893737
 32
0.0
 13
247.9902905614336
 23
-147.1104445893737
 33
0.0
  0
SOLID
  5
2A9
330
2A3
100
AcDbEntity
  8
0
 62
     0
100
AcDbTrace
 10
247.8236238947669
 20
-155.3604445893736
 30
0.0
 11
248.1569572281003
 21
-155.3604445893736
 31
0.0
 12
247.9902905614336
 22
-156.3604445893736
 32
0.0
 13
247.9902905614336
 23
-156.3604445893736
 33
0.0
  0
MTEXT
  5
2AA
330
2A3
100
AcDbEntity
  8
0
 62
     0
100
AcDbMText
 10
247.9902905614336
 20
-151.7354445893736
 30
0.0
 40
0.5
 41
0.0
 71
     5
 72
     1
  1
\A1;9.2500
 73
     1
 44
1.0
  0
POINT
  5
2AB
330
2A3
100
AcDbEntity
  8
Defpoints
 62
     0
100
AcDbPoint
 10
254.0732529685579
 20
-147.1104445893737
 30
0.0
  0
POINT
  5
2AC
330
2A3
100
AcDbEntity
  8
Defpoints
 62
     0
100
AcDbPoint
 10
254.0732529685579
 20
-156.3604445893736
 30
0.0
  0
POINT
  5
2AD
330
2A3
100
AcDbEntity
  8
Defpoints
 62
     0
100
AcDbPoint
 10
247.9902905614336
 20
-156.3604445893736
 30
0.0
  0
ENDBLK
  5
2AF
330
2A3
100
AcDbEntity
  8
0
100
AcDbBlockEnd
  0
BLOCK
  5
2BF
330
2B2
100
AcDbEntity
  8
0
100
AcDbBlockBegin
  2
*D30
 70
     1
 10
0.0
 20
0.0
 30
0.0
  3
*D30
  1

  0
LINE
  5
2B3
330
2B2
100
AcDbEntity
  8
0
 62
     0
370
    -2
100
AcDbLine
 10
261.7485844014914
 20
-145.1473683513056
 30
0.0
 11
262.7485844014914
 21
-145.1473683513056
 31
0.0
  0
LINE
  5
2B4
330
2B2
100
AcDbEntity
  8
0
 62
     0
370
    -2
100
AcDbLine
 10
262.7485844014914
 20
-145.1473683513056
 30
0.0
 11
262.7485844014914
 21
-143.1473683513056
 31
0.0
  0
LINE
  5
2B5
330
2B2
100
AcDbEntity
  8
0
 62
     0
370
    -2
100
AcDbLine
 10
261.3946873697258
 20
-143.0848683513056
 30
0.0
 11
262.9285844014914
 21
-143.0848683513056
 31
0.0
  0
LINE
  5
2B6
330
2B2
100
AcDbEntity
  8
0
 62
     0
370
    -2
100
AcDbLine
 10
261.3946873697258
 20
-143.1473683513056
 30
0.0
 11
262.9285844014914
 21
-143.1473683513056
 31
0.0
  0
LINE
  5
2B7
330
2B2
100
AcDbEntity
  8
0
 62
     0
370
    -2
100
AcDbLine
 10
262.7485844014914
 20
-142.0848683513056
 30
0.0
 11
262.7485844014914
 21
-141.0848683513056
 31
0.0
  0
LINE
  5
2B8
330
2B2
100
AcDbEntity
  8
0
 62
     0
370
    -2
100
AcDbLine
 10
262.7485844014914
 20
-144.1473683513056
 30
0.0
 11
262.7485844014914
 21
-145.1473683513056
 31
0.0
  0
SOLID
  5
2B9
330
2B2
100
AcDbEntity
  8
0
 62
     0
100
AcDbTrace
 10
262.5819177348247
 20
-142.0848683513056
 30
0.0
 11
262.9152510681581
 21
-142.0848683513056
 31
0.0
 12
262.7485844014914
 22
-143.0848683513056
 32
0.0
 13
262.7485844014914
 23
-143.0848683513056
 33
0.0
  0
SOLID
  5
2BA
330
2B2
100
AcDbEntity
  8
0
 62
     0
100
AcDbTrace
 10
262.9152510681581
 20
-144.1473683513056
 30
0.0
 11
262.5819177348247
 21
-144.1473683513056
 31
0.0
 12
262.7485844014914
 22
-143.1473683513056
 32
0.0
 13
262.7485844014914
 23
-143.1473683513056
 33
0.0
  0
MTEXT
  5
2BB
330
2B2
100
AcDbEntity
  8
0
 62
     0
100
AcDbMText
 10
260.4204891633962
 20
-145.1473683513056
 30
0.0
 40
0.5
 41
0.0
 71
     5
 72
     1
  1
\A1;0.0625
 73
     1
 44
1.0
  0
POINT
  5
2BC
330
2B2
100
AcDbEntity
  8
Defpoints
 62
     0
100
AcDbPoint
 10
261.3321873697258
 20
-143.0848683513056
 30
0.0
  0
POINT
  5
2BD
330
2B2
100
AcDbEntity
  8
Defpoints
 62
     0
100
AcDbPoint
 10
261.3321873697258
 20
-143.1473683513056
 30
0.0
  0
POINT
  5
2BE
330
2B2
100
AcDbEntity
  8
Defpoints
 62
     0
100
AcDbPoint
 10
261.1362034491104
 20
-143.1473683513056
 30
0.0
  0
ENDBLK
  5
2C0
330
2B2
100
AcDbEntity
  8
0
100
AcDbBlockEnd
  0
BLOCK
  5
2CF
330
2C4
100
AcDbEntity
  8
0
100
AcDbBlockBegin
  2
*D31
 70
     1
 10
0.0
 20
0.0
 30
0.0
  3
*D31
  1

  0
LINE
  5
2C5
330
2C4
100
AcDbEntity
  8
0
 62
     0
370
    -2
100
AcDbLine
 10
272.150934816612
 20
-126.2269598885458
 30
0.0
 11
268.9834348166123
 21
-126.2269598885458
 31
0.0
  0
LINE
  5
2C6
330
2C4
100
AcDbEntity
  8
0
 62
     0
370
    -2
100
AcDbLine
 10
272.150934816612
 20
-130.2269598885458
 30
0.0
 11
268.9834348166123
 21
-130.2269598885458
 31
0.0
  0
LINE
  5
2C7
330
2C4
100
AcDbEntity
  8
0
 62
     0
370
    -2
100
AcDbLine
 10
269.1634348166123
 20
-127.2269598885458
 30
0.0
 11
269.1634348166123
 21
-128.0901960900042
 31
0.0
  0
LINE
  5
2C8
330
2C4
100
AcDbEntity
  8
0
 62
     0
370
    -2
100
AcDbLine
 10
269.1634348166123
 20
-129.2269598885458
 30
0.0
 11
269.1634348166123
 21
-128.7701960900042
 31
0.0
  0
SOLID
  5
2C9
330
2C4
100
AcDbEntity
  8
0
 62
     0
100
AcDbTrace
 10
269.330101483279
 20
-127.2269598885458
 30
0.0
 11
268.9967681499456
 21
-127.2269598885458
 31
0.0
 12
269.1634348166123
 22
-126.2269598885458
 32
0.0
 13
269.1634348166123
 23
-126.2269598885458
 33
0.0
  0
SOLID
  5
2CA
330
2C4
100
AcDbEntity
  8
0
 62
     0
100
AcDbTrace
 10
268.9967681499456
 20
-129.2269598885458
 30
0.0
 11
269.330101483279
 21
-129.2269598885458
 31
0.0
 12
269.1634348166123
 22
-130.2269598885458
 32
0.0
 13
269.1634348166123
 23
-130.2269598885458
 33
0.0
  0
MTEXT
  5
2CB
330
2C4
100
AcDbEntity
  8
0
 62
     0
100
AcDbMText
 10
269.1634348166123
 20
-128.4301960900042
 30
0.0
 40
0.5
 41
0.0
 71
     5
 72
     1
  1
\A1;4.0000
 73
     1
 44
1.0
  0
POINT
  5
2CC
330
2C4
100
AcDbEntity
  8
Defpoints
 62
     0
100
AcDbPoint
 10
272.213434816612
 20
-126.2269598885458
 30
0.0
  0
POINT
  5
2CD
330
2C4
100
AcDbEntity
  8
Defpoints
 62
     0
100
AcDbPoint
 10
272.213434816612
 20
-130.2269598885458
 30
0.0
  0
POINT
  5
2CE
330
2C4
100
AcDbEntity
  8
Defpoints
 62
     0
100
AcDbPoint
 10
269.1634348166123
 20
-130.2269598885458
 30
0.0
  0
ENDBLK
  5
2D0
330
2C4
100
AcDbEntity
  8
0
100
AcDbBlockEnd
  0
BLOCK
  5
2DD
330
2D2
100
AcDbEntity
  8
0
100
AcDbBlockBegin
  2
*D32
 70
     1
 10
0.0
 20
0.0
 30
0.0
  3
*D32
  1

  0
LINE
  5
2D3
330
2D2
100
AcDbEntity
  8
0
 62
     0
370
    -2
100
AcDbLine
 10
253.8258569321332
 20
-126.2323037613346
 30
0.0
 11
251.0862922791799
 21
-126.2323037613346
 31
0.0
  0
LINE
  5
2D4
330
2D2
100
AcDbEntity
  8
0
 62
     0
370
    -2
100
AcDbLine
 10
253.8258569321332
 20
-130.2323037613369
 30
0.0
 11
251.0862922791799
 21
-130.2323037613369
 31
0.0
  0
LINE
  5
2D5
330
2D2
100
AcDbEntity
  8
0
 62
     0
370
    -2
100
AcDbLine
 10
251.2662922791799
 20
-127.2323037613346
 30
0.0
 11
251.2662922791799
 21
-127.6673037613369
 31
0.0
  0
LINE
  5
2D6
330
2D2
100
AcDbEntity
  8
0
 62
     0
370
    -2
100
AcDbLine
 10
251.2662922791799
 20
-129.2323037613369
 30
0.0
 11
251.2662922791799
 21
-128.3473037613369
 31
0.0
  0
SOLID
  5
2D7
330
2D2
100
AcDbEntity
  8
0
 62
     0
100
AcDbTrace
 10
251.4329589458466
 20
-127.2323037613346
 30
0.0
 11
251.0996256125133
 21
-127.2323037613346
 31
0.0
 12
251.2662922791799
 22
-126.2323037613346
 32
0.0
 13
251.2662922791799
 23
-126.2323037613346
 33
0.0
  0
SOLID
  5
2D8
330
2D2
100
AcDbEntity
  8
0
 62
     0
100
AcDbTrace
 10
251.0996256125133
 20
-129.2323037613369
 30
0.0
 11
251.4329589458466
 21
-129.2323037613369
 31
0.0
 12
251.2662922791799
 22
-130.2323037613369
 32
0.0
 13
251.2662922791799
 23
-130.2323037613369
 33
0.0
  0
MTEXT
  5
2D9
330
2D2
100
AcDbEntity
  8
0
 62
     0
100
AcDbMText
 10
251.2662922791799
 20
-128.0073037613369
 30
0.0
 40
0.5
 41
0.0
 71
     5
 72
     1
  1
\A1;4.0000
 73
     1
 44
1.0
  0
POINT
  5
2DA
330
2D2
100
AcDbEntity
  8
Defpoints
 62
     0
100
AcDbPoint
 10
253.8883569321332
 20
-126.2323037613346
 30
0.0
  0
POINT
  5
2DB
330
2D2
100
AcDbEntity
  8
Defpoints
 62
     0
100
AcDbPoint
 10
253.8883569321332
 20
-130.2323037613369
 30
0.0
  0
POINT
  5
2DC
330
2D2
100
AcDbEntity
  8
Defpoints
 62
     0
100
AcDbPoint
 10
251.2662922791799
 20
-130.2323037613369
 30
0.0
  0
ENDBLK
  5
2DE
330
2D2
100
AcDbEntity
  8
0
100
AcDbBlockEnd
  0
BLOCK
  5
2EB
330
2E0
100
AcDbEntity
  8
0
100
AcDbBlockBegin
  2
*D33
 70
     1
 10
0.0
 20
0.0
 30
0.0
  3
*D33
  1

  0
LINE
  5
2E1
330
2E0
100
AcDbEntity
  8
0
 62
     0
370
    -2
100
AcDbLine
 10
252.0133569321301
 20
-130.5993822716448
 30
0.0
 11
252.0133569321301
 21
-129.3423965945615
 31
0.0
  0
LINE
  5
2E2
330
2E0
100
AcDbEntity
  8
0
 62
     0
370
    -2
100
AcDbLine
 10
257.5133569321301
 20
-130.5993822716448
 30
0.0
 11
257.5133569321301
 21
-129.3423965945615
 31
0.0
  0
LINE
  5
2E3
330
2E0
100
AcDbEntity
  8
0
 62
     0
370
    -2
100
AcDbLine
 10
253.0133569321301
 20
-129.5223965945615
 30
0.0
 11
253.435261694038
 21
-129.5223965945615
 31
0.0
  0
LINE
  5
2E4
330
2E0
100
AcDbEntity
  8
0
 62
     0
370
    -2
100
AcDbLine
 10
256.5133569321301
 20
-129.5223965945615
 30
0.0
 11
256.0914521702284
 21
-129.5223965945615
 31
0.0
  0
SOLID
  5
2E5
330
2E0
100
AcDbEntity
  8
0
 62
     0
100
AcDbTrace
 10
253.0133569321301
 20
-129.3557299278949
 30
0.0
 11
253.0133569321301
 21
-129.6890632612282
 31
0.0
 12
252.0133569321301
 22
-129.5223965945615
 32
0.0
 13
252.0133569321301
 23
-129.5223965945615
 33
0.0
  0
SOLID
  5
2E6
330
2E0
100
AcDbEntity
  8
0
 62
     0
100
AcDbTrace
 10
256.5133569321301
 20
-129.6890632612282
 30
0.0
 11
256.5133569321301
 21
-129.3557299278949
 31
0.0
 12
257.5133569321301
 22
-129.5223965945615
 32
0.0
 13
257.5133569321301
 23
-129.5223965945615
 33
0.0
  0
MTEXT
  5
2E7
330
2E0
100
AcDbEntity
  8
0
 62
     0
100
AcDbMText
 10
254.7633569321332
 20
-129.5223965945615
 30
0.0
 40
0.5
 41
0.0
 71
     5
 72
     1
  1
\A1;5.5000
 73
     1
 44
1.0
  0
POINT
  5
2E8
330
2E0
100
AcDbEntity
  8
Defpoints
 62
     0
100
AcDbPoint
 10
252.0133569321301
 20
-130.6618822716448
 30
0.0
  0
POINT
  5
2E9
330
2E0
100
AcDbEntity
  8
Defpoints
 62
     0
100
AcDbPoint
 10
257.5133569321301
 20
-130.6618822716448
 30
0.0
  0
POINT
  5
2EA
330
2E0
100
AcDbEntity
  8
Defpoints
 62
     0
100
AcDbPoint
 10
257.5133569321301
 20
-129.5223965945615
 30
0.0
  0
ENDBLK
  5
2EC
330
2E0
100
AcDbEntity
  8
0
100
AcDbBlockEnd
  0
BLOCK
  5
318
330
30D
100
AcDbEntity
  8
0
100
AcDbBlockBegin
  2
*D34
 70
     1
 10
0.0
 20
0.0
 30
0.0
  3
*D34
  1

  0
LINE
  5
30E
330
30D
100
AcDbEntity
  8
0
 62
     0
370
    -2
100
AcDbLine
 10
256.9633569321301
 20
-126.1698037613369
 30
0.0
 11
256.9633569321301
 21
-123.9778132612284
 31
0.0
  0
LINE
  5
30F
330
30D
100
AcDbEntity
  8
0
 62
     0
370
    -2
100
AcDbLine
 10
258.0633569321301
 20
-126.2062632768369
 30
0.0
 11
258.0633569321301
 21
-123.9778132612284
 31
0.0
  0
LINE
  5
310
330
30D
100
AcDbEntity
  8
0
 62
     0
370
    -2
100
AcDbLine
 10
258.0633569321301
 20
-124.1578132612284
 30
0.0
 11
260.0633569321301
 21
-124.1578132612284
 31
0.0
  0
LINE
  5
311
330
30D
100
AcDbEntity
  8
0
 62
     0
370
    -2
100
AcDbLine
 10
255.9633569321301
 20
-124.1578132612284
 30
0.0
 11
254.9633569321301
 21
-124.1578132612284
 31
0.0
  0
LINE
  5
312
330
30D
100
AcDbEntity
  8
0
 62
     0
370
    -2
100
AcDbLine
 10
259.0633569321301
 20
-124.1578132612284
 30
0.0
 11
260.0633569321301
 21
-124.1578132612284
 31
0.0
  0
SOLID
  5
313
330
30D
100
AcDbEntity
  8
0
 62
     0
100
AcDbTrace
 10
255.9633569321301
 20
-124.3244799278951
 30
0.0
 11
255.9633569321301
 21
-123.9911465945618
 31
0.0
 12
256.9633569321301
 22
-124.1578132612284
 32
0.0
 13
256.9633569321301
 23
-124.1578132612284
 33
0.0
  0
SOLID
  5
314
330
30D
100
AcDbEntity
  8
0
 62
     0
100
AcDbTrace
 10
259.0633569321301
 20
-123.9911465945618
 30
0.0
 11
259.0633569321301
 21
-124.3244799278951
 31
0.0
 12
258.0633569321301
 22
-124.1578132612284
 32
0.0
 13
258.0633569321301
 23
-124.1578132612284
 33
0.0
  0
MTEXT
  5
315
330
30D
100
AcDbEntity
  8
0
 62
     0
100
AcDbMText
 10
261.355737884511
 20
-124.1578132612284
 30
0.0
 40
0.5
 41
0.0
 71
     5
 72
     1
  1
\A1;1.1000
 73
     1
 44
1.0
  0
POINT
  5
316
330
30D
100
AcDbEntity
  8
Defpoints
 62
     0
100
AcDbPoint
 10
256.9633569321301
 20
-126.2323037613369
 30
0.0
  0
POINT
  5
317
330
30D
100
AcDbEntity
  8
Defpoints
 62
     0
100
AcDbPoint
 10
258.0633569321301
 20
-126.2687632768369
 30
0.0
  0
POINT
  5
31A
330
30D
100
AcDbEntity
  8
Defpoints
 62
     0
100
AcDbPoint
 10
258.0633569321301
 20
-124.1578132612284
 30
0.0
  0
ENDBLK
  5
319
330
30D
100
AcDbEntity
  8
0
100
AcDbBlockEnd
  0
BLOCK
  5
329
330
31C
100
AcDbEntity
  8
0
100
AcDbBlockBegin
  2
*D35
 70
     1
 10
0.0
 20
0.0
 30
0.0
  3
*D35
  1

  0
LINE
  5
31D
330
31C
100
AcDbEntity
  8
0
 62
     0
370
    -2
100
AcDbLine
 10
257.6270182909662
 20
-128.3323037613369
 30
0.0
 11
258.6270182909662
 21
-128.3323037613369
 31
0.0
  0
LINE
  5
31E
330
31C
100
AcDbEntity
  8
0
 62
     0
370
    -2
100
AcDbLine
 10
258.6270182909662
 20
-128.3323037613369
 30
0.0
 11
258.6270182909662
 21
-126.3323037613369
 31
0.0
  0
LINE
  5
31F
330
31C
100
AcDbEntity
  8
0
 62
     0
370
    -2
100
AcDbLine
 10
257.0258569321301
 20
-126.2323037613369
 30
0.0
 11
258.8070182909663
 21
-126.2323037613369
 31
0.0
  0
LINE
  5
320
330
31C
100
AcDbEntity
  8
0
 62
     0
370
    -2
100
AcDbLine
 10
257.0258569321301
 20
-126.3323037613369
 30
0.0
 11
258.8070182909663
 21
-126.3323037613369
 31
0.0
  0
LINE
  5
321
330
31C
100
AcDbEntity
  8
0
 62
     0
370
    -2
100
AcDbLine
 10
258.6270182909662
 20
-125.2323037613369
 30
0.0
 11
258.6270182909662
 21
-124.2323037613369
 31
0.0
  0
LINE
  5
322
330
31C
100
AcDbEntity
  8
0
 62
     0
370
    -2
100
AcDbLine
 10
258.6270182909662
 20
-127.3323037613369
 30
0.0
 11
258.6270182909662
 21
-128.3323037613369
 31
0.0
  0
SOLID
  5
323
330
31C
100
AcDbEntity
  8
0
 62
     0
100
AcDbTrace
 10
258.4603516242996
 20
-125.2323037613369
 30
0.0
 11
258.7936849576329
 21
-125.2323037613369
 31
0.0
 12
258.6270182909662
 22
-126.2323037613369
 32
0.0
 13
258.6270182909662
 23
-126.2323037613369
 33
0.0
  0
SOLID
  5
324
330
31C
100
AcDbEntity
  8
0
 62
     0
100
AcDbTrace
 10
258.7936849576329
 20
-127.3323037613369
 30
0.0
 11
258.4603516242996
 21
-127.3323037613369
 31
0.0
 12
258.6270182909662
 22
-126.3323037613369
 32
0.0
 13
258.6270182909662
 23
-126.3323037613369
 33
0.0
  0
MTEXT
  5
325
330
31C
100
AcDbEntity
  8
0
 62
     0
100
AcDbMText
 10
256.298923052871
 20
-128.3323037613369
 30
0.0
 40
0.5
 41
0.0
 71
     5
 72
     1
  1
\A1;0.1000
 73
     1
 44
1.0
  0
POINT
  5
326
330
31C
100
AcDbEntity
  8
Defpoints
 62
     0
100
AcDbPoint
 10
256.9633569321301
 20
-126.2323037613369
 30
0.0
  0
POINT
  5
327
330
31C
100
AcDbEntity
  8
Defpoints
 62
     0
100
AcDbPoint
 10
256.9633569321301
 20
-126.3323037613369
 30
0.0
  0
POINT
  5
328
330
31C
100
AcDbEntity
  8
Defpoints
 62
     0
100
AcDbPoint
 10
257.0103516242996
 20
-126.3323037613369
 30
0.0
  0
ENDBLK
  5
32A
330
31C
100
AcDbEntity
  8
0
100
AcDbBlockEnd
  0
BLOCK
  5
339
330
32C
100
AcDbEntity
  8
0
100
AcDbBlockBegin
  2
*D36
 70
     1
 10
0.0
 20
0.0
 30
0.0
  3
*D36
  1

  0
LINE
  5
32D
330
32C
100
AcDbEntity
  8
0
 62
     0
370
    -2
100
AcDbLine
 10
272.2895937717274
 20
-131.7964577590174
 30
0.0
 11
271.2895937717274
 21
-131.7964577590174
 31
0.0
  0
LINE
  5
32E
330
32C
100
AcDbEntity
  8
0
 62
     0
370
    -2
100
AcDbLine
 10
271.2895937717274
 20
-131.7964577590174
 30
0.0
 11
271.2895937717274
 21
-133.7964577590174
 31
0.0
  0
LINE
  5
32F
330
32C
100
AcDbEntity
  8
0
 62
     0
370
    -2
100
AcDbLine
 10
272.5804518772612
 20
-133.7964577590174
 30
0.0
 11
271.1095937717274
 21
-133.7964577590174
 31
0.0
  0
LINE
  5
330
330
32C
100
AcDbEntity
  8
0
 62
     0
370
    -2
100
AcDbLine
 10
272.5804518772612
 20
-134.1404577590174
 30
0.0
 11
271.1095937717274
 21
-134.1404577590174
 31
0.0
  0
LINE
  5
331
330
32C
100
AcDbEntity
  8
0
 62
     0
370
    -2
100
AcDbLine
 10
271.2895937717274
 20
-132.7964577590174
 30
0.0
 11
271.2895937717274
 21
-131.7964577590174
 31
0.0
  0
LINE
  5
332
330
32C
100
AcDbEntity
  8
0
 62
     0
370
    -2
100
AcDbLine
 10
271.2895937717274
 20
-135.1404577590174
 30
0.0
 11
271.2895937717274
 21
-136.1404577590174
 31
0.0
  0
SOLID
  5
333
330
32C
100
AcDbEntity
  8
0
 62
     0
100
AcDbTrace
 10
271.1229271050607
 20
-132.7964577590174
 30
0.0
 11
271.4562604383941
 21
-132.7964577590174
 31
0.0
 12
271.2895937717274
 22
-133.7964577590174
 32
0.0
 13
271.2895937717274
 23
-133.7964577590174
 33
0.0
  0
SOLID
  5
334
330
32C
100
AcDbEntity
  8
0
 62
     0
100
AcDbTrace
 10
271.4562604383941
 20
-135.1404577590174
 30
0.0
 11
271.1229271050607
 21
-135.1404577590174
 31
0.0
 12
271.2895937717274
 22
-134.1404577590174
 32
0.0
 13
271.2895937717274
 23
-134.1404577590174
 33
0.0
  0
MTEXT
  5
335
330
32C
100
AcDbEntity
  8
0
 62
     0
100
AcDbMText
 10
273.6176890098226
 20
-131.7964577590174
 30
0.0
 40
0.5
 41
0.0
 71
     5
 72
     1
  1
\A1;0.3440
 73
     1
 44
1.0
  0
POINT
  5
336
330
32C
100
AcDbEntity
  8
Defpoints
 62
     0
100
AcDbPoint
 10
272.6429518772612
 20
-133.7964577590174
 30
0.0
  0
POINT
  5
337
330
32C
100
AcDbEntity
  8
Defpoints
 62
     0
100
AcDbPoint
 10
272.6429518772612
 20
-134.1404577590174
 30
0.0
  0
POINT
  5
338
330
32C
100
AcDbEntity
  8
Defpoints
 62
     0
100
AcDbPoint
 10
272.906260438394
 20
-134.1404577590174
 30
0.0
  0
ENDBLK
  5
33A
330
32C
100
AcDbEntity
  8
0
100
AcDbBlockEnd
  0
BLOCK
  5
349
330
33C
100
AcDbEntity
  8
0
100
AcDbBlockBegin
  2
*D37
 70
     1
 10
0.0
 20
0.0
 30
0.0
  3
*D37
  1

  0
LINE
  5
33D
330
33C
100
AcDbEntity
  8
0
 62
     0
370
    -2
100
AcDbLine
 10
254.0295616108995
 20
-131.8018016318086
 30
0.0
 11
253.0295616108995
 21
-131.8018016318086
 31
0.0
  0
LINE
  5
33E
330
33C
100
AcDbEntity
  8
0
 62
     0
370
    -2
100
AcDbLine
 10
253.0295616108995
 20
-131.8018016318086
 30
0.0
 11
253.0295616108995
 21
-133.8018016318086
 31
0.0
  0
LINE
  5
33F
330
33C
100
AcDbEntity
  8
0
 62
     0
370
    -2
100
AcDbLine
 10
254.7327580661886
 20
-133.8018016318086
 30
0.0
 11
252.8495616108995
 21
-133.8018016318086
 31
0.0
  0
LINE
  5
340
330
33C
100
AcDbEntity
  8
0
 62
     0
370
    -2
100
AcDbLine
 10
254.7327580661886
 20
-134.1458016318086
 30
0.0
 11
252.8495616108995
 21
-134.1458016318086
 31
0.0
  0
LINE
  5
341
330
33C
100
AcDbEntity
  8
0
 62
     0
370
    -2
100
AcDbLine
 10
253.0295616108995
 20
-132.8018016318086
 30
0.0
 11
253.0295616108995
 21
-131.8018016318086
 31
0.0
  0
LINE
  5
342
330
33C
100
AcDbEntity
  8
0
 62
     0
370
    -2
100
AcDbLine
 10
253.0295616108995
 20
-135.1458016318086
 30
0.0
 11
253.0295616108995
 21
-136.1458016318086
 31
0.0
  0
SOLID
  5
343
330
33C
100
AcDbEntity
  8
0
 62
     0
100
AcDbTrace
 10
252.8628949442328
 20
-132.8018016318086
 30
0.0
 11
253.1962282775661
 21
-132.8018016318086
 31
0.0
 12
253.0295616108995
 22
-133.8018016318086
 32
0.0
 13
253.0295616108995
 23
-133.8018016318086
 33
0.0
  0
SOLID
  5
344
330
33C
100
AcDbEntity
  8
0
 62
     0
100
AcDbTrace
 10
253.1962282775661
 20
-135.1458016318086
 30
0.0
 11
252.8628949442328
 21
-135.1458016318086
 31
0.0
 12
253.0295616108995
 22
-134.1458016318086
 32
0.0
 13
253.0295616108995
 23
-134.1458016318086
 33
0.0
  0
MTEXT
  5
345
330
33C
100
AcDbEntity
  8
0
 62
     0
100
AcDbMText
 10
255.3576568489947
 20
-131.8018016318086
 30
0.0
 40
0.5
 41
0.0
 71
     5
 72
     1
  1
\A1;0.3440
 73
     1
 44
1.0
  0
POINT
  5
346
330
33C
100
AcDbEntity
  8
Defpoints
 62
     0
100
AcDbPoint
 10
254.7952580661886
 20
-133.8018016318086
 30
0.0
  0
POINT
  5
347
330
33C
100
AcDbEntity
  8
Defpoints
 62
     0
100
AcDbPoint
 10
254.7952580661886
 20
-134.1458016318086
 30
0.0
  0
POINT
  5
348
330
33C
100
AcDbEntity
  8
Defpoints
 62
     0
100
AcDbPoint
 10
254.6419425632804
 20
-134.1458016318086
 30
0.0
  0
ENDBLK
  5
34A
330
33C
100
AcDbEntity
  8
0
100
AcDbBlockEnd
  0
BLOCK
  5
359
330
34D
100
AcDbEntity
  8
0
100
AcDbBlockBegin
  2
*D38
 70
     1
 10
0.0
 20
0.0
 30
0.0
  3
*D38
  1

  0
LINE
  5
34E
330
34D
100
AcDbEntity
  8
0
 62
     0
370
    -2
100
AcDbLine
 10
261.5759573491258
 20
-143.0223683513056
 30
0.0
 11
261.5759573491258
 21
-141.4048683513056
 31
0.0
  0
LINE
  5
34F
330
34D
100
AcDbEntity
  8
0
 62
     0
370
    -2
100
AcDbLine
 10
262.5821873697258
 20
-143.0223683513056
 30
0.0
 11
262.5821873697258
 21
-141.4048683513056
 31
0.0
  0
LINE
  5
350
330
34D
100
AcDbEntity
  8
0
 62
     0
370
    -2
100
AcDbLine
 10
262.5821873697258
 20
-141.5848683513056
 30
0.0
 11
264.5821873697258
 21
-141.5848683513056
 31
0.0
  0
LINE
  5
351
330
34D
100
AcDbEntity
  8
0
 62
     0
370
    -2
100
AcDbLine
 10
260.5759573491258
 20
-141.5848683513056
 30
0.0
 11
259.5759573491258
 21
-141.5848683513056
 31
0.0
  0
LINE
  5
352
330
34D
100
AcDbEntity
  8
0
 62
     0
370
    -2
100
AcDbLine
 10
263.5821873697258
 20
-141.5848683513056
 30
0.0
 11
264.5821873697258
 21
-141.5848683513056
 31
0.0
  0
SOLID
  5
353
330
34D
100
AcDbEntity
  8
0
 62
     0
100
AcDbTrace
 10
260.5759573491258
 20
-141.7515350179722
 30
0.0
 11
260.5759573491258
 21
-141.4182016846389
 31
0.0
 12
261.5759573491258
 22
-141.5848683513056
 32
0.0
 13
261.5759573491258
 23
-141.5848683513056
 33
0.0
  0
SOLID
  5
354
330
34D
100
AcDbEntity
  8
0
 62
     0
100
AcDbTrace
 10
263.5821873697258
 20
-141.4182016846389
 30
0.0
 11
263.5821873697258
 21
-141.7515350179722
 31
0.0
 12
262.5821873697258
 22
-141.5848683513056
 32
0.0
 13
262.5821873697258
 23
-141.5848683513056
 33
0.0
  0
MTEXT
  5
355
330
34D
100
AcDbEntity
  8
0
 62
     0
100
AcDbMText
 10
264.7317111792496
 20
-141.5848683513056
 30
0.0
 40
0.5
 41
0.0
 71
     5
 72
     1
  1
\A1;1
 73
     1
 44
1.0
  0
POINT
  5
356
330
34D
100
AcDbEntity
  8
Defpoints
 62
     0
100
AcDbPoint
 10
261.5759573491258
 20
-143.0848683513056
 30
0.0
  0
POINT
  5
357
330
34D
100
AcDbEntity
  8
Defpoints
 62
     0
100
AcDbPoint
 10
262.5821873697258
 20
-143.0848683513056
 30
0.0
  0
POINT
  5
358
330
34D
100
AcDbEntity
  8
Defpoints
 62
     0
100
AcDbPoint
 10
262.5821873697258
 20
-141.5848683513056
 30
0.0
  0
ENDBLK
  5
35A
330
34D
100
AcDbEntity
  8
0
100
AcDbBlockEnd
  0
BLOCK
  5
368
330
35C
100
AcDbEntity
  8
0
100
AcDbBlockBegin
  2
*D39
 70
     1
 10
0.0
 20
0.0
 30
0.0
  3
*D39
  1

  0
LINE
  5
35D
330
35C
100
AcDbEntity
  8
0
 62
     0
370
    -2
100
AcDbLine
 10
279.5359873714029
 20
-130.3394598885458
 30
0.0
 11
279.5359873714029
 21
-130.7565339276009
 31
0.0
  0
LINE
  5
35E
330
35C
100
AcDbEntity
  8
0
 62
     0
370
    -2
100
AcDbLine
 10
279.6363605218774
 20
-130.3394598884784
 30
0.0
 11
279.6363605218774
 21
-130.7565339276009
 31
0.0
  0
LINE
  5
35F
330
35C
100
AcDbEntity
  8
0
 62
     0
370
    -2
100
AcDbLine
 10
279.5359873714029
 20
-130.5765339276009
 30
0.0
 11
277.5359873714029
 21
-130.5765339276009
 31
0.0
  0
LINE
  5
360
330
35C
100
AcDbEntity
  8
0
 62
     0
370
    -2
100
AcDbLine
 10
278.5359873714029
 20
-130.5765339276009
 30
0.0
 11
277.5359873714029
 21
-130.5765339276009
 31
0.0
  0
LINE
  5
361
330
35C
100
AcDbEntity
  8
0
 62
     0
370
    -2
100
AcDbLine
 10
280.6363605218774
 20
-130.5765339276009
 30
0.0
 11
281.6363605218774
 21
-130.5765339276009
 31
0.0
  0
SOLID
  5
362
330
35C
100
AcDbEntity
  8
0
 62
     0
100
AcDbTrace
 10
278.5359873714029
 20
-130.7432005942676
 30
0.0
 11
278.5359873714029
 21
-130.4098672609342
 31
0.0
 12
279.5359873714029
 22
-130.5765339276009
 32
0.0
 13
279.5359873714029
 23
-130.5765339276009
 33
0.0
  0
SOLID
  5
363
330
35C
100
AcDbEntity
  8
0
 62
     0
100
AcDbTrace
 10
280.6363605218774
 20
-130.4098672609342
 30
0.0
 11
280.6363605218774
 21
-130.7432005942676
 31
0.0
 12
279.6363605218774
 22
-130.5765339276009
 32
0.0
 13
279.6363605218774
 23
-130.5765339276009
 33
0.0
  0
MTEXT
  5
364
330
35C
100
AcDbEntity
  8
0
 62
     0
100
AcDbMText
 10
276.195987371403
 20
-130.5765339276009
 30
0.0
 40
0.5
 41
0.0
 71
     5
 72
     1
  1
\A1;0.1004
 73
     1
 44
1.0
  0
POINT
  5
365
330
35C
100
AcDbEntity
  8
Defpoints
 62
     0
100
AcDbPoint
 10
279.5359873714029
 20
-130.2769598885458
 30
0.0
  0
POINT
  5
366
330
35C
100
AcDbEntity
  8
Defpoints
 62
     0
100
AcDbPoint
 10
279.6363605218774
 20
-130.2769598884784
 30
0.0
  0
POINT
  5
367
330
35C
100
AcDbEntity
  8
Defpoints
 62
     0
100
AcDbPoint
 10
279.6363605218774
 20
-130.5765339276009
 30
0.0
  0
ENDBLK
  5
369
330
35C
100
AcDbEntity
  8
0
100
AcDbBlockEnd
  0
BLOCK
  5
376
330
36B
100
AcDbEntity
  8
0
100
AcDbBlockBegin
  2
*D40
 70
     1
 10
0.0
 20
0.0
 30
0.0
  3
*D40
  1

  0
LINE
  5
36C
330
36B
100
AcDbEntity
  8
0
 62
     0
370
    -2
100
AcDbLine
 10
250.252724921526
 20
-140.5848683513056
 30
0.0
 11
250.252724921526
 21
-138.9673683513055
 31
0.0
  0
LINE
  5
36D
330
36B
100
AcDbEntity
  8
0
 62
     0
370
    -2
100
AcDbLine
 10
280.6923119532257
 20
-140.6473683513056
 30
0.0
 11
280.6923119532257
 21
-138.9673683513055
 31
0.0
  0
LINE
  5
36E
330
36B
100
AcDbEntity
  8
0
 62
     0
370
    -2
100
AcDbLine
 10
251.252724921526
 20
-139.1473683513055
 30
0.0
 11
264.8536419263003
 21
-139.1473683513055
 31
0.0
  0
LINE
  5
36F
330
36B
100
AcDbEntity
  8
0
 62
     0
370
    -2
100
AcDbLine
 10
279.6923119532257
 20
-139.1473683513055
 30
0.0
 11
267.9860228786812
 21
-139.1473683513055
 31
0.0
  0
SOLID
  5
370
330
36B
100
AcDbEntity
  8
0
 62
     0
100
AcDbTrace
 10
251.252724921526
 20
-138.9807016846389
 30
0.0
 11
251.252724921526
 21
-139.3140350179722
 31
0.0
 12
250.252724921526
 22
-139.1473683513055
 32
0.0
 13
250.252724921526
 23
-139.1473683513055
 33
0.0
  0
SOLID
  5
371
330
36B
100
AcDbEntity
  8
0
 62
     0
100
AcDbTrace
 10
279.6923119532257
 20
-139.3140350179722
 30
0.0
 11
279.6923119532257
 21
-138.9807016846389
 31
0.0
 12
280.6923119532257
 22
-139.1473683513055
 32
0.0
 13
280.6923119532257
 23
-139.1473683513055
 33
0.0
  0
MTEXT
  5
372
330
36B
100
AcDbEntity
  8
0
 62
     0
100
AcDbMText
 10
266.4198324024908
 20
-139.1473683513055
 30
0.0
 40
0.5
 41
0.0
 71
     5
 72
     1
  1
\A1;30.4396
 73
     1
 44
1.0
  0
POINT
  5
373
330
36B
100
AcDbEntity
  8
Defpoints
 62
     0
100
AcDbPoint
 10
250.252724921526
 20
-140.6473683513056
 30
0.0
  0
POINT
  5
374
330
36B
100
AcDbEntity
  8
Defpoints
 62
     0
100
AcDbPoint
 10
280.6923119532257
 20
-140.7098683513056
 30
0.0
  0
POINT
  5
375
330
36B
100
AcDbEntity
  8
Defpoints
 62
     0
100
AcDbPoint
 10
280.6923119532257
 20
-139.1473683513055
 30
0.0
  0
ENDBLK
  5
377
330
36B
100
AcDbEntity
  8
0
100
AcDbBlockEnd
  0
BLOCK
  5
384
330
379
100
AcDbEntity
  8
0
100
AcDbBlockBegin
  2
*D41
 70
     1
 10
0.0
 20
0.0
 30
0.0
  3
*D41
  1

  0
LINE
  5
37A
330
379
100
AcDbEntity
  8
0
 62
     0
370
    -2
100
AcDbLine
 10
280.7548119532257
 20
-140.7098683513056
 30
0.0
 11
282.3723119532257
 21
-140.7098683513056
 31
0.0
  0
LINE
  5
37B
330
379
100
AcDbEntity
  8
0
 62
     0
370
    -2
100
AcDbLine
 10
280.7548119532257
 20
-143.0848683513056
 30
0.0
 11
282.3723119532257
 21
-143.0848683513056
 31
0.0
  0
LINE
  5
37C
330
379
100
AcDbEntity
  8
0
 62
     0
370
    -2
100
AcDbLine
 10
282.1923119532257
 20
-139.7098683513056
 30
0.0
 11
282.1923119532257
 21
-138.7098683513056
 31
0.0
  0
LINE
  5
37D
330
379
100
AcDbEntity
  8
0
 62
     0
370
    -2
100
AcDbLine
 10
282.1923119532257
 20
-144.0848683513056
 30
0.0
 11
282.1923119532257
 21
-145.0848683513056
 31
0.0
  0
SOLID
  5
37E
330
379
100
AcDbEntity
  8
0
 62
     0
100
AcDbTrace
 10
282.025645286559
 20
-139.7098683513056
 30
0.0
 11
282.3589786198924
 21
-139.7098683513056
 31
0.0
 12
282.1923119532257
 22
-140.7098683513056
 32
0.0
 13
282.1923119532257
 23
-140.7098683513056
 33
0.0
  0
SOLID
  5
37F
330
379
100
AcDbEntity
  8
0
 62
     0
100
AcDbTrace
 10
282.3589786198924
 20
-144.0848683513056
 30
0.0
 11
282.025645286559
 21
-144.0848683513056
 31
0.0
 12
282.1923119532257
 22
-143.0848683513056
 32
0.0
 13
282.1923119532257
 23
-143.0848683513056
 33
0.0
  0
MTEXT
  5
380
330
379
100
AcDbEntity
  8
0
 62
     0
100
AcDbMText
 10
282.1923119532257
 20
-141.8973683513056
 30
0.0
 40
0.5
 41
0.0
 71
     5
 72
     1
  1
\A1;2.3750
 73
     1
 44
1.0
  0
POINT
  5
381
330
379
100
AcDbEntity
  8
Defpoints
 62
     0
100
AcDbPoint
 10
280.6923119532257
 20
-140.7098683513056
 30
0.0
  0
POINT
  5
382
330
379
100
AcDbEntity
  8
Defpoints
 62
     0
100
AcDbPoint
 10
280.6923119532257
 20
-143.0848683513056
 30
0.0
  0
POINT
  5
383
330
379
100
AcDbEntity
  8
Defpoints
 62
     0
100
AcDbPoint
 10
282.1923119532257
 20
-143.0848683513056
 30
0.0
  0
ENDBLK
  5
385
330
379
100
AcDbEntity
  8
0
100
AcDbBlockEnd
  0
BLOCK
  5
392
330
387
100
AcDbEntity
  8
0
100
AcDbBlockBegin
  2
*D42
 70
     1
 10
0.0
 20
0.0
 30
0.0
  3
*D42
  1

  0
LINE
  5
388
330
387
100
AcDbEntity
  8
0
 62
     0
370
    -2
100
AcDbLine
 10
278.2614235359936
 20
-152.3893469260316
 30
0.0
 11
278.2614235359936
 21
-149.1891889086554
 31
0.0
  0
LINE
  5
389
330
387
100
AcDbEntity
  8
0
 62
     0
370
    -2
100
AcDbLine
 10
281.5114235359936
 20
-152.3273469260316
 30
0.0
 11
281.5114235359936
 21
-149.1891889086554
 31
0.0
  0
LINE
  5
38A
330
387
100
AcDbEntity
  8
0
 62
     0
370
    -2
100
AcDbLine
 10
277.2614235359936
 20
-149.3691889086554
 30
0.0
 11
276.2614235359936
 21
-149.3691889086554
 31
0.0
  0
LINE
  5
38B
330
387
100
AcDbEntity
  8
0
 62
     0
370
    -2
100
AcDbLine
 10
282.5114235359936
 20
-149.3691889086554
 30
0.0
 11
283.5114235359936
 21
-149.3691889086554
 31
0.0
  0
SOLID
  5
38C
330
387
100
AcDbEntity
  8
0
 62
     0
100
AcDbTrace
 10
277.2614235359936
 20
-149.5358555753221
 30
0.0
 11
277.2614235359936
 21
-149.2025222419888
 31
0.0
 12
278.2614235359936
 22
-149.3691889086554
 32
0.0
 13
278.2614235359936
 23
-149.3691889086554
 33
0.0
  0
SOLID
  5
38D
330
387
100
AcDbEntity
  8
0
 62
     0
100
AcDbTrace
 10
282.5114235359936
 20
-149.2025222419888
 30
0.0
 11
282.5114235359936
 21
-149.5358555753221
 31
0.0
 12
281.5114235359936
 22
-149.3691889086554
 32
0.0
 13
281.5114235359936
 23
-149.3691889086554
 33
0.0
  0
MTEXT
  5
38E
330
387
100
AcDbEntity
  8
0
 62
     0
100
AcDbMText
 10
279.8864235359936
 20
-149.3691889086554
 30
0.0
 40
0.5
 41
0.0
 71
     5
 72
     1
  1
\A1;3.2500
 73
     1
 44
1.0
  0
POINT
  5
38F
330
387
100
AcDbEntity
  8
Defpoints
 62
     0
100
AcDbPoint
 10
278.2614235359936
 20
-152.4518469260316
 30
0.0
  0
POINT
  5
390
330
387
100
AcDbEntity
  8
Defpoints
 62
     0
100
AcDbPoint
 10
281.5114235359936
 20
-152.3898469260316
 30
0.0
  0
POINT
  5
391
330
387
100
AcDbEntity
  8
Defpoints
 62
     0
100
AcDbPoint
 10
281.5114235359936
 20
-149.3691889086554
 30
0.0
  0
ENDBLK
  5
393
330
387
100
AcDbEntity
  8
0
100
AcDbBlockEnd
  0
BLOCK
  5
3A0
330
395
100
AcDbEntity
  8
0
100
AcDbBlockBegin
  2
*D43
 70
     1
 10
0.0
 20
0.0
 30
0.0
  3
*D43
  1

  0
LINE
  5
396
330
395
100
AcDbEntity
  8
0
 62
     0
370
    -2
100
AcDbLine
 10
280.0114235359936
 20
-151.3273469260316
 30
0.0
 11
280.0114235359936
 21
-150.2568972419887
 31
0.0
  0
LINE
  5
397
330
395
100
AcDbEntity
  8
0
 62
     0
370
    -2
100
AcDbLine
 10
281.5114235359936
 20
-151.3273469260316
 30
0.0
 11
281.5114235359936
 21
-150.2568972419887
 31
0.0
  0
LINE
  5
398
330
395
100
AcDbEntity
  8
0
 62
     0
370
    -2
100
AcDbLine
 10
280.0114235359936
 20
-150.4368972419887
 30
0.0
 11
278.0114235359936
 21
-150.4368972419887
 31
0.0
  0
LINE
  5
399
330
395
100
AcDbEntity
  8
0
 62
     0
370
    -2
100
AcDbLine
 10
279.0114235359936
 20
-150.4368972419887
 30
0.0
 11
278.0114235359936
 21
-150.4368972419887
 31
0.0
  0
LINE
  5
39A
330
395
100
AcDbEntity
  8
0
 62
     0
370
    -2
100
AcDbLine
 10
282.5114235359936
 20
-150.4368972419887
 30
0.0
 11
283.5114235359936
 21
-150.4368972419887
 31
0.0
  0
SOLID
  5
39B
330
395
100
AcDbEntity
  8
0
 62
     0
100
AcDbTrace
 10
279.0114235359936
 20
-150.6035639086554
 30
0.0
 11
279.0114235359936
 21
-150.270230575322
 31
0.0
 12
280.0114235359936
 22
-150.4368972419887
 32
0.0
 13
280.0114235359936
 23
-150.4368972419887
 33
0.0
  0
SOLID
  5
39C
330
395
100
AcDbEntity
  8
0
 62
     0
100
AcDbTrace
 10
282.5114235359936
 20
-150.270230575322
 30
0.0
 11
282.5114235359936
 21
-150.6035639086554
 31
0.0
 12
281.5114235359936
 22
-150.4368972419887
 32
0.0
 13
281.5114235359936
 23
-150.4368972419887
 33
0.0
  0
MTEXT
  5
39D
330
395
100
AcDbEntity
  8
0
 62
     0
100
AcDbMText
 10
276.7190425836126
 20
-150.4368972419887
 30
0.0
 40
0.5
 41
0.0
 71
     5
 72
     1
  1
\A1;1.5000
 73
     1
 44
1.0
  0
POINT
  5
39E
330
395
100
AcDbEntity
  8
Defpoints
 62
     0
100
AcDbPoint
 10
280.0114235359936
 20
-151.3898469260316
 30
0.0
  0
POINT
  5
39F
330
395
100
AcDbEntity
  8
Defpoints
 62
     0
100
AcDbPoint
 10
281.5114235359936
 20
-151.3898469260316
 30
0.0
  0
POINT
  5
3A2
330
395
100
AcDbEntity
  8
Defpoints
 62
     0
100
AcDbPoint
 10
281.5114235359936
 20
-150.4368972419887
 30
0.0
  0
ENDBLK
  5
3A1
330
395
100
AcDbEntity
  8
0
100
AcDbBlockEnd
  0
BLOCK
  5
3B0
330
3A4
100
AcDbEntity
  8
0
100
AcDbBlockBegin
  2
*D44
 70
     1
 10
0.0
 20
0.0
 30
0.0
  3
*D44
  1

  0
LINE
  5
3A5
330
3A4
100
AcDbEntity
  8
0
 62
     0
370
    -2
100
AcDbLine
 10
278.0132378346973
 20
-155.2648469260316
 30
0.0
 11
279.0132378346973
 21
-155.2648469260316
 31
0.0
  0
LINE
  5
3A6
330
3A4
100
AcDbEntity
  8
0
 62
     0
370
    -2
100
AcDbLine
 10
279.0132378346973
 20
-155.2648469260316
 30
0.0
 11
279.0132378346973
 21
-153.2648469260316
 31
0.0
  0
LINE
  5
3A7
330
3A4
100
AcDbEntity
  8
0
 62
     0
370
    -2
100
AcDbLine
 10
278.1989235359936
 20
-152.4518469260316
 30
0.0
 11
279.1932378346973
 21
-152.4518469260316
 31
0.0
  0
LINE
  5
3A8
330
3A4
100
AcDbEntity
  8
0
 62
     0
370
    -2
100
AcDbLine
 10
278.1989235359936
 20
-153.2648469260316
 30
0.0
 11
279.1932378346973
 21
-153.2648469260316
 31
0.0
  0
LINE
  5
3A9
330
3A4
100
AcDbEntity
  8
0
 62
     0
370
    -2
100
AcDbLine
 10
279.0132378346973
 20
-151.4518469260316
 30
0.0
 11
279.0132378346973
 21
-150.4518469260316
 31
0.0
  0
LINE
  5
3AA
330
3A4
100
AcDbEntity
  8
0
 62
     0
370
    -2
100
AcDbLine
 10
279.0132378346973
 20
-154.2648469260316
 30
0.0
 11
279.0132378346973
 21
-155.2648469260316
 31
0.0
  0
SOLID
  5
3AB
330
3A4
100
AcDbEntity
  8
0
 62
     0
100
AcDbTrace
 10
278.8465711680306
 20
-151.4518469260316
 30
0.0
 11
279.179904501364
 21
-151.4518469260316
 31
0.0
 12
279.0132378346973
 22
-152.4518469260316
 32
0.0
 13
279.0132378346973
 23
-152.4518469260316
 33
0.0
  0
SOLID
  5
3AC
330
3A4
100
AcDbEntity
  8
0
 62
     0
100
AcDbTrace
 10
279.179904501364
 20
-154.2648469260316
 30
0.0
 11
278.8465711680306
 21
-154.2648469260316
 31
0.0
 12
279.0132378346973
 22
-153.2648469260316
 32
0.0
 13
279.0132378346973
 23
-153.2648469260316
 33
0.0
  0
MTEXT
  5
3AD
330
3A4
100
AcDbEntity
  8
0
 62
     0
100
AcDbMText
 10
276.6851425966021
 20
-155.2648469260316
 30
0.0
 40
0.5
 41
0.0
 71
     5
 72
     1
  1
\A1;0.8130
 73
     1
 44
1.0
  0
POINT
  5
3AE
330
3A4
100
AcDbEntity
  8
Defpoints
 62
     0
100
AcDbPoint
 10
278.1364235359936
 20
-152.4518469260316
 30
0.0
  0
POINT
  5
3AF
330
3A4
100
AcDbEntity
  8
Defpoints
 62
     0
100
AcDbPoint
 10
278.1364235359936
 20
-153.2648469260316
 30
0.0
  0
POINT
  5
3B2
330
3A4
100
AcDbEntity
  8
Defpoints
 62
     0
100
AcDbPoint
 10
277.4008568823164
 20
-153.2648469260316
 30
0.0
  0
ENDBLK
  5
3B1
330
3A4
100
AcDbEntity
  8
0
100
AcDbBlockEnd
  0
BLOCK
  5
3BF
330
3B4
100
AcDbEntity
  8
0
100
AcDbBlockBegin
  2
*D45
 70
     1
 10
0.0
 20
0.0
 30
0.0
  3
*D45
  1

  0
LINE
  5
3B5
330
3B4
100
AcDbEntity
  8
0
 62
     0
370
    -2
100
AcDbLine
 10
254.5107529685579
 20
-146.7354445893736
 30
0.0
 11
260.3619572280995
 21
-146.7354445893736
 31
0.0
  0
LINE
  5
3B6
330
3B4
100
AcDbEntity
  8
0
 62
     0
370
    -2
100
AcDbLine
 10
254.5107529685579
 20
-156.7354445893736
 30
0.0
 11
260.3619572280995
 21
-156.7354445893736
 31
0.0
  0
LINE
  5
3B7
330
3B4
100
AcDbEntity
  8
0
 62
     0
370
    -2
100
AcDbLine
 10
260.1819572280995
 20
-147.7354445893736
 30
0.0
 11
260.1819572280995
 21
-151.3954445893736
 31
0.0
  0
LINE
  5
3B8
330
3B4
100
AcDbEntity
  8
0
 62
     0
370
    -2
100
AcDbLine
 10
260.1819572280995
 20
-155.7354445893736
 30
0.0
 11
260.1819572280995
 21
-152.0754445893736
 31
0.0
  0
SOLID
  5
3B9
330
3B4
100
AcDbEntity
  8
0
 62
     0
100
AcDbTrace
 10
260.3486238947661
 20
-147.7354445893736
 30
0.0
 11
260.0152905614328
 21
-147.7354445893736
 31
0.0
 12
260.1819572280995
 22
-146.7354445893736
 32
0.0
 13
260.1819572280995
 23
-146.7354445893736
 33
0.0
  0
SOLID
  5
3BA
330
3B4
100
AcDbEntity
  8
0
 62
     0
100
AcDbTrace
 10
260.0152905614328
 20
-155.7354445893736
 30
0.0
 11
260.3486238947661
 21
-155.7354445893736
 31
0.0
 12
260.1819572280995
 22
-156.7354445893736
 32
0.0
 13
260.1819572280995
 23
-156.7354445893736
 33
0.0
  0
MTEXT
  5
3BB
330
3B4
100
AcDbEntity
  8
0
 62
     0
100
AcDbMText
 10
260.1819572280995
 20
-151.7354445893736
 30
0.0
 40
0.5
 41
0.0
 71
     5
 72
     1
  1
\A1;10.0000
 73
     1
 44
1.0
  0
POINT
  5
3BC
330
3B4
100
AcDbEntity
  8
Defpoints
 62
     0
100
AcDbPoint
 10
254.4482529685579
 20
-146.7354445893736
 30
0.0
  0
POINT
  5
3BD
330
3B4
100
AcDbEntity
  8
Defpoints
 62
     0
100
AcDbPoint
 10
254.4482529685579
 20
-156.7354445893736
 30
0.0
  0
POINT
  5
3BE
330
3B4
100
AcDbEntity
  8
Defpoints
 62
     0
100
AcDbPoint
 10
260.1819572280995
 20
-156.7354445893736
 30
0.0
  0
ENDBLK
  5
3C0
330
3B4
100
AcDbEntity
  8
0
100
AcDbBlockEnd
  0
BLOCK
  5
3DB
330
3D0
100
AcDbEntity
  8
0
100
AcDbBlockBegin
  2
*D46
 70
     1
 10
0.0
 20
0.0
 30
0.0
  3
*D46
  1

  0
LINE
  5
3D1
330
3D0
100
AcDbEntity
  8
0
 62
     0
370
    -2
100
AcDbLine
 10
156.0782864785391
 20
-106.4814274428486
 30
0.0
 11
156.0782864785391
 21
-111.3029274428486
 31
0.0
  0
LINE
  5
3D2
330
3D0
100
AcDbEntity
  8
0
 62
     0
370
    -2
100
AcDbLine
 10
168.0782864785391
 20
-106.4814274428486
 30
0.0
 11
168.0782864785391
 21
-111.3029274428486
 31
0.0
  0
LINE
  5
3D3
330
3D0
100
AcDbEntity
  8
0
 62
     0
370
    -2
100
AcDbLine
 10
156.8782864904601
 20
-111.1229274428486
 30
0.0
 11
158.1470165227905
 21
-111.1229274428486
 31
0.0
  0
LINE
  5
3D4
330
3D0
100
AcDbEntity
  8
0
 62
     0
370
    -2
100
AcDbLine
 10
167.2782864666182
 20
-111.1229274428486
 30
0.0
 11
166.0095564342877
 21
-111.1229274428486
 31
0.0
  0
SOLID
  5
3D5
330
3D0
100
AcDbEntity
  8
0
 62
     0
100
AcDbTrace
 10
156.8782864904601
 20
-110.9895941075284
 30
0.0
 11
156.8782864904601
 21
-111.2562607781688
 31
0.0
 12
156.0782864785391
 22
-111.1229274428486
 32
0.0
 13
156.0782864785391
 23
-111.1229274428486
 33
0.0
  0
SOLID
  5
3D6
330
3D0
100
AcDbEntity
  8
0
 62
     0
100
AcDbTrace
 10
167.2782864666182
 20
-111.2562607781688
 30
0.0
 11
167.2782864666182
 21
-110.9895941075284
 31
0.0
 12
168.0782864785391
 22
-111.1229274428486
 32
0.0
 13
168.0782864785391
 23
-111.1229274428486
 33
0.0
  0
MTEXT
  5
3D7
330
3D0
100
AcDbEntity
  8
0
 62
     0
100
AcDbMText
 10
162.0782864785391
 20
-111.1229274428486
 30
0.0
 40
1.333333373069763
 41
0.0
 71
     5
 72
     1
  1
\A1;12.0000
 73
     1
 44
1.0
  0
POINT
  5
3D8
330
3D0
100
AcDbEntity
  8
Defpoints
 62
     0
100
AcDbPoint
 10
156.0782864785391
 20
-106.4189274428486
 30
0.0
  0
POINT
  5
3D9
330
3D0
100
AcDbEntity
  8
Defpoints
 62
     0
100
AcDbPoint
 10
168.0782864785391
 20
-106.4189274428486
 30
0.0
  0
POINT
  5
3DA
330
3D0
100
AcDbEntity
  8
Defpoints
 62
     0
100
AcDbPoint
 10
168.0782864785391
 20
-111.1229274428486
 30
0.0
  0
ENDBLK
  5
3DC
330
3D0
100
AcDbEntity
  8
0
100
AcDbBlockEnd
  0
BLOCK
  5
3FB
330
3F0
100
AcDbEntity
  8
0
100
AcDbBlockBegin
  2
*D47
 70
     1
 10
0.0
 20
0.0
 30
0.0
  3
*D47
  1

  0
LINE
  5
3F1
330
3F0
100
AcDbEntity
  8
0
 62
     0
370
    -2
100
AcDbLine
 10
188.0622137717466
 20
-101.3546672393011
 30
0.0
 11
191.1797137717466
 21
-101.3546672393011
 31
0.0
  0
LINE
  5
3F2
330
3F0
100
AcDbEntity
  8
0
 62
     0
370
    -2
100
AcDbLine
 10
188.0622137717466
 20
-122.8546672393011
 30
0.0
 11
191.1797137717466
 21
-122.8546672393011
 31
0.0
  0
LINE
  5
3F3
330
3F0
100
AcDbEntity
  8
0
 62
     0
370
    -2
100
AcDbLine
 10
190.9997137717466
 20
-102.154667251222
 30
0.0
 11
190.9997137717466
 21
-111.3480005527662
 31
0.0
  0
LINE
  5
3F4
330
3F0
100
AcDbEntity
  8
0
 62
     0
370
    -2
100
AcDbLine
 10
190.9997137717466
 20
-122.0546672273802
 30
0.0
 11
190.9997137717466
 21
-112.861333925836
 31
0.0
  0
SOLID
  5
3F5
330
3F0
100
AcDbEntity
  8
0
 62
     0
100
AcDbTrace
 10
191.1330471070667
 20
-102.154667251222
 30
0.0
 11
190.8663804364264
 21
-102.154667251222
 31
0.0
 12
190.9997137717466
 22
-101.3546672393011
 32
0.0
 13
190.9997137717466
 23
-101.3546672393011
 33
0.0
  0
SOLID
  5
3F6
330
3F0
100
AcDbEntity
  8
0
 62
     0
100
AcDbTrace
 10
190.8663804364264
 20
-122.0546672273802
 30
0.0
 11
191.1330471070667
 21
-122.0546672273802
 31
0.0
 12
190.9997137717466
 22
-122.8546672393011
 32
0.0
 13
190.9997137717466
 23
-122.8546672393011
 33
0.0
  0
MTEXT
  5
3F7
330
3F0
100
AcDbEntity
  8
0
 62
     0
100
AcDbMText
 10
190.9997137717466
 20
-112.1046672393011
 30
0.0
 40
1.333333373069763
 41
0.0
 71
     5
 72
     1
  1
\A1;21.5000
 73
     1
 44
1.0
  0
POINT
  5
3F8
330
3F0
100
AcDbEntity
  8
Defpoints
 62
     0
100
AcDbPoint
 10
187.9997137717466
 20
-101.3546672393011
 30
0.0
  0
POINT
  5
3F9
330
3F0
100
AcDbEntity
  8
Defpoints
 62
     0
100
AcDbPoint
 10
187.9997137717466
 20
-122.8546672393011
 30
0.0
  0
POINT
  5
3FA
330
3F0
100
AcDbEntity
  8
Defpoints
 62
     0
100
AcDbPoint
 10
190.9997137717466
 20
-122.8546672393011
 30
0.0
  0
ENDBLK
  5
3FC
330
3F0
100
AcDbEntity
  8
0
100
AcDbBlockEnd
  0
BLOCK
  5
40C
330
401
100
AcDbEntity
  8
0
100
AcDbBlockBegin
  2
*D48
 70
     1
 10
0.0
 20
0.0
 30
0.0
  3
*D48
  1

  0
LINE
  5
402
330
401
100
AcDbEntity
  8
0
 62
     0
370
    -2
100
AcDbLine
 10
193.3747137717466
 20
-128.667167239301
 30
0.0
 11
193.3747137717466
 21
-99.32177340995531
 31
0.0
  0
LINE
  5
403
330
401
100
AcDbEntity
  8
0
 62
     0
370
    -2
100
AcDbLine
 10
236.7844538168415
 20
-139.5171672392968
 30
0.0
 11
236.7844538168415
 21
-99.32177340995531
 31
0.0
  0
LINE
  5
404
330
401
100
AcDbEntity
  8
0
 62
     0
370
    -2
100
AcDbLine
 10
194.1747137836675
 20
-99.50177340995532
 30
0.0
 11
210.3033688830896
 21
-99.50177340995532
 31
0.0
  0
LINE
  5
405
330
401
100
AcDbEntity
  8
0
 62
     0
370
    -2
100
AcDbLine
 10
235.9844538049206
 20
-99.50177340995532
 30
0.0
 11
218.3563849907396
 21
-99.50177340995532
 31
0.0
  0
SOLID
  5
406
330
401
100
AcDbEntity
  8
0
 62
     0
100
AcDbTrace
 10
194.1747137836675
 20
-99.36844007463516
 30
0.0
 11
194.1747137836675
 21
-99.63510674527548
 31
0.0
 12
193.3747137717466
 22
-99.50177340995532
 32
0.0
 13
193.3747137717466
 23
-99.50177340995532
 33
0.0
  0
SOLID
  5
407
330
401
100
AcDbEntity
  8
0
 62
     0
100
AcDbTrace
 10
235.9844538049206
 20
-99.63510674527548
 30
0.0
 11
235.9844538049206
 21
-99.36844007463516
 31
0.0
 12
236.7844538168415
 22
-99.50177340995532
 32
0.0
 13
236.7844538168415
 23
-99.50177340995532
 33
0.0
  0
MTEXT
  5
408
330
401
100
AcDbEntity
  8
0
 62
     0
100
AcDbMText
 10
214.3298769369146
 20
-99.50177340995532
 30
0.0
 40
1.333333373069763
 41
0.0
 71
     5
 72
     1
  1
\A1;43.4097
 73
     1
 44
1.0
  0
POINT
  5
409
330
401
100
AcDbEntity
  8
Defpoints
 62
     0
100
AcDbPoint
 10
193.3747137717466
 20
-128.729667239301
 30
0.0
  0
POINT
  5
40A
330
401
100
AcDbEntity
  8
Defpoints
 62
     0
100
AcDbPoint
 10
236.7844538168415
 20
-139.5796672392968
 30
0.0
  0
POINT
  5
40B
330
401
100
AcDbEntity
  8
Defpoints
 62
     0
100
AcDbPoint
 10
236.7844538168415
 20
-99.50177340995532
 30
0.0
  0
ENDBLK
  5
40D
330
401
100
AcDbEntity
  8
0
100
AcDbBlockEnd
  0
BLOCK
  5
441
330
435
100
AcDbEntity
  8
0
100
AcDbBlockBegin
  2
*D49
 70
     1
 10
0.0
 20
0.0
 30
0.0
  3
*D49
  1

  0
LINE
  5
436
330
435
100
AcDbEntity
  8
0
 62
     0
370
    -2
100
AcDbLine
 10
229.0491056056956
 20
-107.0068286162617
 30
0.0
 11
229.8491056176166
 21
-107.0068286162617
 31
0.0
  0
LINE
  5
437
330
435
100
AcDbEntity
  8
0
 62
     0
370
    -2
100
AcDbLine
 10
229.8491056176166
 20
-107.0068286162617
 30
0.0
 11
229.8491056176166
 21
-103.5421672393011
 31
0.0
  0
LINE
  5
438
330
435
100
AcDbEntity
  8
0
 62
     0
370
    -2
100
AcDbLine
 10
225.0194137717466
 20
-101.5421672393011
 30
0.0
 11
230.0291056176166
 21
-101.5421672393011
 31
0.0
  0
LINE
  5
439
330
435
100
AcDbEntity
  8
0
 62
     0
370
    -2
100
AcDbLine
 10
225.0194137717466
 20
-103.5421672393011
 30
0.0
 11
230.0291056176166
 21
-103.5421672393011
 31
0.0
  0
LINE
  5
43A
330
435
100
AcDbEntity
  8
0
 62
     0
370
    -2
100
AcDbLine
 10
229.8491056176166
 20
-102.342167251222
 30
0.0
 11
229.8491056176166
 21
-102.7421672273802
 31
0.0
  0
SOLID
  5
43B
330
435
100
AcDbEntity
  8
0
 62
     0
100
AcDbTrace
 10
229.9824389529367
 20
-102.342167251222
 30
0.0
 11
229.7157722822964
 21
-102.342167251222
 31
0.0
 12
229.8491056176166
 22
-101.5421672393011
 32
0.0
 13
229.8491056176166
 23
-101.5421672393011
 33
0.0
  0
SOLID
  5
43C
330
435
100
AcDbEntity
  8
0
 62
     0
100
AcDbTrace
 10
229.7157722822964
 20
-102.7421672273802
 30
0.0
 11
229.9824389529367
 21
-102.7421672273802
 31
0.0
 12
229.8491056176166
 22
-103.5421672393011
 32
0.0
 13
229.8491056176166
 23
-103.5421672393011
 33
0.0
  0
MTEXT
  5
43D
330
435
100
AcDbEntity
  8
0
 62
     0
100
AcDbMText
 10
225.6575182057134
 20
-107.0068286162617
 30
0.0
 40
1.333333373069763
 41
0.0
 71
     5
 72
     1
  1
\A1;2.0000
 73
     1
 44
1.0
  0
POINT
  5
43E
330
435
100
AcDbEntity
  8
Defpoints
 62
     0
100
AcDbPoint
 10
224.9569137717466
 20
-101.5421672393011
 30
0.0
  0
POINT
  5
43F
330
435
100
AcDbEntity
  8
Defpoints
 62
     0
100
AcDbPoint
 10
224.9569137717466
 20
-103.5421672393011
 30
0.0
  0
POINT
  5
440
330
435
100
AcDbEntity
  8
Defpoints
 62
     0
100
AcDbPoint
 10
226.3775182057134
 20
-103.5421672393011
 30
0.0
  0
ENDBLK
  5
442
330
435
100
AcDbEntity
  8
0
100
AcDbBlockEnd
  0
BLOCK
  5
44F
330
444
100
AcDbEntity
  8
0
100
AcDbBlockBegin
  2
*D50
 70
     1
 10
0.0
 20
0.0
 30
0.0
  3
*D50
  1

  0
LINE
  5
445
330
444
100
AcDbEntity
  8
0
 62
     0
370
    -2
100
AcDbLine
 10
222.9069137717466
 20
-103.1046672393011
 30
0.0
 11
222.9069137717466
 21
-104.4392402071274
 31
0.0
  0
LINE
  5
446
330
444
100
AcDbEntity
  8
0
 62
     0
370
    -2
100
AcDbLine
 10
224.9569137717466
 20
-103.1046672393011
 30
0.0
 11
224.9569137717466
 21
-104.4392402071274
 31
0.0
  0
LINE
  5
447
330
444
100
AcDbEntity
  8
0
 62
     0
370
    -2
100
AcDbLine
 10
224.9569137717466
 20
-104.2592402071274
 30
0.0
 11
226.5643366942435
 21
-104.2592402071274
 31
0.0
  0
LINE
  5
448
330
444
100
AcDbEntity
  8
0
 62
     0
370
    -2
100
AcDbLine
 10
223.7069137836675
 20
-104.2592402071274
 30
0.0
 11
224.1569137598257
 21
-104.2592402071274
 31
0.0
  0
SOLID
  5
449
330
444
100
AcDbEntity
  8
0
 62
     0
100
AcDbTrace
 10
223.7069137836675
 20
-104.1259068718072
 30
0.0
 11
223.7069137836675
 21
-104.3925735424475
 31
0.0
 12
222.9069137717466
 22
-104.2592402071274
 32
0.0
 13
222.9069137717466
 23
-104.2592402071274
 33
0.0
  0
SOLID
  5
44A
330
444
100
AcDbEntity
  8
0
 62
     0
100
AcDbTrace
 10
224.1569137598257
 20
-104.3925735424475
 30
0.0
 11
224.1569137598257
 21
-104.1259068718072
 31
0.0
 12
224.9569137717466
 22
-104.2592402071274
 32
0.0
 13
224.9569137717466
 23
-104.2592402071274
 33
0.0
  0
MTEXT
  5
44B
330
444
100
AcDbEntity
  8
0
 62
     0
100
AcDbMText
 10
229.9559240942258
 20
-104.2592402071274
 30
0.0
 40
1.333333373069763
 41
0.0
 71
     5
 72
     1
  1
\A1;2.0500
 73
     1
 44
1.0
  0
POINT
  5
44C
330
444
100
AcDbEntity
  8
Defpoints
 62
     0
100
AcDbPoint
 10
222.9069137717466
 20
-103.0421672393011
 30
0.0
  0
POINT
  5
44D
330
444
100
AcDbEntity
  8
Defpoints
 62
     0
100
AcDbPoint
 10
224.9569137717466
 20
-103.0421672393011
 30
0.0
  0
POINT
  5
44E
330
444
100
AcDbEntity
  8
Defpoints
 62
     0
100
AcDbPoint
 10
224.9569137717466
 20
-104.2592402071274
 30
0.0
  0
ENDBLK
  5
450
330
444
100
AcDbEntity
  8
0
100
AcDbBlockEnd
  0
BLOCK
  5
46B
330
460
100
AcDbEntity
  8
0
100
AcDbBlockBegin
  2
*D51
 70
     1
 10
0.0
 20
0.0
 30
0.0
  3
*D51
  1

  0
LINE
  5
461
330
460
100
AcDbEntity
  8
0
 62
     0
370
    -2
100
AcDbLine
 10
209.3562137717466
 20
-107.6027444672839
 30
0.0
 11
209.3562137717466
 21
-112.8238604672839
 31
0.0
  0
LINE
  5
462
330
460
100
AcDbEntity
  8
0
 62
     0
370
    -2
100
AcDbLine
 10
224.1062137717466
 20
-107.6027444672839
 30
0.0
 11
224.1062137717466
 21
-112.8238604672839
 31
0.0
  0
LINE
  5
463
330
460
100
AcDbEntity
  8
0
 62
     0
370
    -2
100
AcDbLine
 10
210.1562137836675
 20
-112.6438604672839
 30
0.0
 11
212.799943815998
 21
-112.6438604672839
 31
0.0
  0
LINE
  5
464
330
460
100
AcDbEntity
  8
0
 62
     0
370
    -2
100
AcDbLine
 10
223.3062137598257
 20
-112.6438604672839
 30
0.0
 11
220.6624837274952
 21
-112.6438604672839
 31
0.0
  0
SOLID
  5
465
330
460
100
AcDbEntity
  8
0
 62
     0
100
AcDbTrace
 10
210.1562137836675
 20
-112.5105271319637
 30
0.0
 11
210.1562137836675
 21
-112.7771938026041
 31
0.0
 12
209.3562137717466
 22
-112.6438604672839
 32
0.0
 13
209.3562137717466
 23
-112.6438604672839
 33
0.0
  0
SOLID
  5
466
330
460
100
AcDbEntity
  8
0
 62
     0
100
AcDbTrace
 10
223.3062137598257
 20
-112.7771938026041
 30
0.0
 11
223.3062137598257
 21
-112.5105271319637
 31
0.0
 12
224.1062137717466
 22
-112.6438604672839
 32
0.0
 13
224.1062137717466
 23
-112.6438604672839
 33
0.0
  0
MTEXT
  5
467
330
460
100
AcDbEntity
  8
0
 62
     0
100
AcDbMText
 10
216.7312137717466
 20
-112.6438604672839
 30
0.0
 40
1.333333373069763
 41
0.0
 71
     5
 72
     1
  1
\A1;14.7500
 73
     1
 44
1.0
  0
POINT
  5
468
330
460
100
AcDbEntity
  8
Defpoints
 62
     0
100
AcDbPoint
 10
209.3562137717466
 20
-107.5402444672839
 30
0.0
  0
POINT
  5
469
330
460
100
AcDbEntity
  8
Defpoints
 62
     0
100
AcDbPoint
 10
224.1062137717466
 20
-107.5402444672839
 30
0.0
  0
POINT
  5
46A
330
460
100
AcDbEntity
  8
Defpoints
 62
     0
100
AcDbPoint
 10
224.1062137717466
 20
-112.6438604672839
 30
0.0
  0
ENDBLK
  5
46C
330
460
100
AcDbEntity
  8
0
100
AcDbBlockEnd
  0
BLOCK
  5
479
330
46E
100
AcDbEntity
  8
0
100
AcDbBlockBegin
  2
*D52
 70
     1
 10
0.0
 20
0.0
 30
0.0
  3
*D52
  1

  0
LINE
  5
46F
330
46E
100
AcDbEntity
  8
0
 62
     0
370
    -2
100
AcDbLine
 10
216.3562137717466
 20
-117.2921672393011
 30
0.0
 11
216.3562137717466
 21
-117.0613358812284
 31
0.0
  0
LINE
  5
470
330
46E
100
AcDbEntity
  8
0
 62
     0
370
    -2
100
AcDbLine
 10
217.1062137717466
 20
-117.2921672393011
 30
0.0
 11
217.1062137717466
 21
-117.0613358812284
 31
0.0
  0
LINE
  5
471
330
46E
100
AcDbEntity
  8
0
 62
     0
370
    -2
100
AcDbLine
 10
217.1062137717466
 20
-117.2413358812284
 30
0.0
 11
218.7062137955885
 21
-117.2413358812284
 31
0.0
  0
LINE
  5
472
330
46E
100
AcDbEntity
  8
0
 62
     0
370
    -2
100
AcDbLine
 10
215.5562137598257
 20
-117.2413358812284
 30
0.0
 11
214.7562137479048
 21
-117.2413358812284
 31
0.0
  0
LINE
  5
473
330
46E
100
AcDbEntity
  8
0
 62
     0
370
    -2
100
AcDbLine
 10
217.9062137836675
 20
-117.2413358812284
 30
0.0
 11
218.7062137955885
 21
-117.2413358812284
 31
0.0
  0
SOLID
  5
474
330
46E
100
AcDbEntity
  8
0
 62
     0
100
AcDbTrace
 10
215.5562137598257
 20
-117.3746692165486
 30
0.0
 11
215.5562137598257
 21
-117.1080025459083
 31
0.0
 12
216.3562137717466
 22
-117.2413358812284
 32
0.0
 13
216.3562137717466
 23
-117.2413358812284
 33
0.0
  0
SOLID
  5
475
330
46E
100
AcDbEntity
  8
0
 62
     0
100
AcDbTrace
 10
217.9062137836675
 20
-117.1080025459083
 30
0.0
 11
217.9062137836675
 21
-117.3746692165486
 31
0.0
 12
217.1062137717466
 22
-117.2413358812284
 32
0.0
 13
217.1062137717466
 23
-117.2413358812284
 33
0.0
  0
MTEXT
  5
476
330
46E
100
AcDbEntity
  8
0
 62
     0
100
AcDbMText
 10
222.0978011955708
 20
-117.2413358812284
 30
0.0
 40
1.333333373069763
 41
0.0
 71
     5
 72
     1
  1
\A1;0.7500
 73
     1
 44
1.0
  0
POINT
  5
477
330
46E
100
AcDbEntity
  8
Defpoints
 62
     0
100
AcDbPoint
 10
216.3562137717466
 20
-117.3546672393011
 30
0.0
  0
POINT
  5
478
330
46E
100
AcDbEntity
  8
Defpoints
 62
     0
100
AcDbPoint
 10
217.1062137717466
 20
-117.3546672393011
 30
0.0
  0
POINT
  5
47B
330
46E
100
AcDbEntity
  8
Defpoints
 62
     0
100
AcDbPoint
 10
217.1062137717466
 20
-117.2413358812284
 30
0.0
  0
ENDBLK
  5
47A
330
46E
100
AcDbEntity
  8
0
100
AcDbBlockEnd
  0
BLOCK
  5
508
330
4FD
100
AcDbEntity
  8
0
100
AcDbBlockBegin
  2
*D53
 70
     1
 10
0.0
 20
0.0
 30
0.0
  3
*D53
  1

  0
LINE
  5
4FE
330
4FD
100
AcDbEntity
  8
0
 62
     0
370
    -2
100
AcDbLine
 10
195.0517893788509
 20
-134.0126235327445
 30
0.0
 11
201.5312765996181
 21
-134.0126235327445
 31
0.0
  0
LINE
  5
4FF
330
4FD
100
AcDbEntity
  8
0
 62
     0
370
    -2
100
AcDbLine
 10
195.0437137717541
 20
-154.0126219023587
 30
0.0
 11
201.5312765996181
 21
-154.0126219023587
 31
0.0
  0
LINE
  5
500
330
4FD
100
AcDbEntity
  8
0
 62
     0
370
    -2
100
AcDbLine
 10
201.3512765996181
 20
-134.8126235446655
 30
0.0
 11
201.3512765996181
 21
-143.2559560310168
 31
0.0
  0
LINE
  5
501
330
4FD
100
AcDbEntity
  8
0
 62
     0
370
    -2
100
AcDbLine
 10
201.3512765996181
 20
-153.2126218904378
 30
0.0
 11
201.3512765996181
 21
-144.7692894040865
 31
0.0
  0
SOLID
  5
502
330
4FD
100
AcDbEntity
  8
0
 62
     0
100
AcDbTrace
 10
201.4846099349382
 20
-134.8126235446655
 30
0.0
 11
201.2179432642979
 21
-134.8126235446655
 31
0.0
 12
201.3512765996181
 22
-134.0126235327445
 32
0.0
 13
201.3512765996181
 23
-134.0126235327445
 33
0.0
  0
SOLID
  5
503
330
4FD
100
AcDbEntity
  8
0
 62
     0
100
AcDbTrace
 10
201.2179432642979
 20
-153.2126218904378
 30
0.0
 11
201.4846099349382
 21
-153.2126218904378
 31
0.0
 12
201.3512765996181
 22
-154.0126219023587
 32
0.0
 13
201.3512765996181
 23
-154.0126219023587
 33
0.0
  0
MTEXT
  5
504
330
4FD
100
AcDbEntity
  8
0
 62
     0
100
AcDbMText
 10
201.3512765996181
 20
-144.0126227175516
 30
0.0
 40
1.333333373069763
 41
0.0
 71
     5
 72
     1
  1
\A1;20.0000
 73
     1
 44
1.0
  0
POINT
  5
505
330
4FD
100
AcDbEntity
  8
Defpoints
 62
     0
100
AcDbPoint
 10
194.9892893788509
 20
-134.0126235327445
 30
0.0
  0
POINT
  5
506
330
4FD
100
AcDbEntity
  8
Defpoints
 62
     0
100
AcDbPoint
 10
194.9812137717541
 20
-154.0126219023587
 30
0.0
  0
POINT
  5
507
330
4FD
100
AcDbEntity
  8
Defpoints
 62
     0
100
AcDbPoint
 10
201.3512765996181
 20
-154.0126219023587
 30
0.0
  0
ENDBLK
  5
509
330
4FD
100
AcDbEntity
  8
0
100
AcDbBlockEnd
  0
BLOCK
  5
51C
330
511
100
AcDbEntity
  8
0
100
AcDbBlockBegin
  2
*D54
 70
     1
 10
0.0
 20
0.0
 30
0.0
  3
*D54
  1

  0
LINE
  5
512
330
511
100
AcDbEntity
  8
0
 62
     0
370
    -2
100
AcDbLine
 10
223.5510638190499
 20
-146.9350377554417
 30
0.0
 11
223.5510638190499
 21
-143.8175377554417
 31
0.0
  0
LINE
  5
513
330
511
100
AcDbEntity
  8
0
 62
     0
370
    -2
100
AcDbLine
 10
239.5090638190498
 20
-146.9350377554417
 30
0.0
 11
239.5090638190498
 21
-143.8175377554417
 31
0.0
  0
LINE
  5
514
330
511
100
AcDbEntity
  8
0
 62
     0
370
    -2
100
AcDbLine
 10
224.3510638309709
 20
-143.9975377554417
 30
0.0
 11
227.5987938633013
 21
-143.9975377554417
 31
0.0
  0
LINE
  5
515
330
511
100
AcDbEntity
  8
0
 62
     0
370
    -2
100
AcDbLine
 10
238.7090638071289
 20
-143.9975377554417
 30
0.0
 11
235.4613337747985
 21
-143.9975377554417
 31
0.0
  0
SOLID
  5
516
330
511
100
AcDbEntity
  8
0
 62
     0
100
AcDbTrace
 10
224.3510638309709
 20
-143.8642044201216
 30
0.0
 11
224.3510638309709
 21
-144.1308710907619
 31
0.0
 12
223.5510638190499
 22
-143.9975377554417
 32
0.0
 13
223.5510638190499
 23
-143.9975377554417
 33
0.0
  0
SOLID
  5
517
330
511
100
AcDbEntity
  8
0
 62
     0
100
AcDbTrace
 10
238.7090638071289
 20
-144.1308710907619
 30
0.0
 11
238.7090638071289
 21
-143.8642044201216
 31
0.0
 12
239.5090638190498
 22
-143.9975377554417
 32
0.0
 13
239.5090638190498
 23
-143.9975377554417
 33
0.0
  0
MTEXT
  5
518
330
511
100
AcDbEntity
  8
0
 62
     0
100
AcDbMText
 10
231.5300638190499
 20
-143.9975377554417
 30
0.0
 40
1.333333373069763
 41
0.0
 71
     5
 72
     1
  1
\A1;15.9580
 73
     1
 44
1.0
  0
POINT
  5
519
330
511
100
AcDbEntity
  8
Defpoints
 62
     0
100
AcDbPoint
 10
223.5510638190499
 20
-146.9975377554417
 30
0.0
  0
POINT
  5
51A
330
511
100
AcDbEntity
  8
Defpoints
 62
     0
100
AcDbPoint
 10
239.5090638190498
 20
-146.9975377554417
 30
0.0
  0
POINT
  5
51B
330
511
100
AcDbEntity
  8
Defpoints
 62
     0
100
AcDbPoint
 10
239.5090638190498
 20
-143.9975377554417
 30
0.0
  0
ENDBLK
  5
51D
330
511
100
AcDbEntity
  8
0
100
AcDbBlockEnd
  0
BLOCK
  5
55A
330
54F
100
AcDbEntity
  8
0
100
AcDbBlockBegin
  2
*D55
 70
     1
 10
0.0
 20
0.0
 30
0.0
  3
*D55
  1

  0
LINE
  5
550
330
54F
100
AcDbEntity
  8
0
 62
     0
370
    -2
100
AcDbLine
 10
223.23856381905
 20
-145.8725377554417
 30
0.0
 11
220.0726532340074
 21
-145.8725377554417
 31
0.0
  0
LINE
  5
551
330
54F
100
AcDbEntity
  8
0
 62
     0
370
    -2
100
AcDbLine
 10
223.23856381905
 20
-155.6615233848595
 30
0.0
 11
220.0726532340074
 21
-155.6615233848595
 31
0.0
  0
LINE
  5
552
330
54F
100
AcDbEntity
  8
0
 62
     0
370
    -2
100
AcDbLine
 10
220.2526532340074
 20
-146.6725377673627
 30
0.0
 11
220.2526532340074
 21
-150.0103638836157
 31
0.0
  0
LINE
  5
553
330
54F
100
AcDbEntity
  8
0
 62
     0
370
    -2
100
AcDbLine
 10
220.2526532340074
 20
-154.8615233729386
 30
0.0
 11
220.2526532340074
 21
-151.5236972566855
 31
0.0
  0
SOLID
  5
554
330
54F
100
AcDbEntity
  8
0
 62
     0
100
AcDbTrace
 10
220.3859865693275
 20
-146.6725377673627
 30
0.0
 11
220.1193198986872
 21
-146.6725377673627
 31
0.0
 12
220.2526532340074
 22
-145.8725377554417
 32
0.0
 13
220.2526532340074
 23
-145.8725377554417
 33
0.0
  0
SOLID
  5
555
330
54F
100
AcDbEntity
  8
0
 62
     0
100
AcDbTrace
 10
220.1193198986872
 20
-154.8615233729386
 30
0.0
 11
220.3859865693275
 21
-154.8615233729386
 31
0.0
 12
220.2526532340074
 22
-155.6615233848595
 32
0.0
 13
220.2526532340074
 23
-155.6615233848595
 33
0.0
  0
MTEXT
  5
556
330
54F
100
AcDbEntity
  8
0
 62
     0
100
AcDbMText
 10
220.2526532340074
 20
-150.7670305701506
 30
0.0
 40
1.333333373069763
 41
0.0
 71
     5
 72
     1
  1
\A1;9.7890
 73
     1
 44
1.0
  0
POINT
  5
557
330
54F
100
AcDbEntity
  8
Defpoints
 62
     0
100
AcDbPoint
 10
223.30106381905
 20
-145.8725377554417
 30
0.0
  0
POINT
  5
558
330
54F
100
AcDbEntity
  8
Defpoints
 62
     0
100
AcDbPoint
 10
223.30106381905
 20
-155.6615233848595
 30
0.0
  0
POINT
  5
559
330
54F
100
AcDbEntity
  8
Defpoints
 62
     0
100
AcDbPoint
 10
220.2526532340074
 20
-155.6615233848595
 30
0.0
  0
ENDBLK
  5
55B
330
54F
100
AcDbEntity
  8
0
100
AcDbBlockEnd
  0
BLOCK
  5
59E
330
593
100
AcDbEntity
  8
0
100
AcDbBlockBegin
  2
*D56
 70
     1
 10
0.0
 20
0.0
 30
0.0
  3
*D56
  1

  0
LINE
  5
594
330
593
100
AcDbEntity
  8
0
 62
     0
370
    -2
100
AcDbLine
 10
189.0102893788509
 20
-134.3251235327445
 30
0.0
 11
189.0102893788509
 21
-131.2076235327445
 31
0.0
  0
LINE
  5
595
330
593
100
AcDbEntity
  8
0
 62
     0
370
    -2
100
AcDbLine
 10
204.9682893788509
 20
-134.3251235327445
 30
0.0
 11
204.9682893788509
 21
-131.2076235327445
 31
0.0
  0
LINE
  5
596
330
593
100
AcDbEntity
  8
0
 62
     0
370
    -2
100
AcDbLine
 10
189.8102893907718
 20
-131.3876235327445
 30
0.0
 11
193.0580194231023
 21
-131.3876235327445
 31
0.0
  0
LINE
  5
597
330
593
100
AcDbEntity
  8
0
 62
     0
370
    -2
100
AcDbLine
 10
204.1682893669299
 20
-131.3876235327445
 30
0.0
 11
200.9205593345995
 21
-131.3876235327445
 31
0.0
  0
SOLID
  5
598
330
593
100
AcDbEntity
  8
0
 62
     0
100
AcDbTrace
 10
189.8102893907718
 20
-131.2542901974244
 30
0.0
 11
189.8102893907718
 21
-131.5209568680647
 31
0.0
 12
189.0102893788509
 22
-131.3876235327445
 32
0.0
 13
189.0102893788509
 23
-131.3876235327445
 33
0.0
  0
SOLID
  5
599
330
593
100
AcDbEntity
  8
0
 62
     0
100
AcDbTrace
 10
204.1682893669299
 20
-131.5209568680647
 30
0.0
 11
204.1682893669299
 21
-131.2542901974244
 31
0.0
 12
204.9682893788509
 22
-131.3876235327445
 32
0.0
 13
204.9682893788509
 23
-131.3876235327445
 33
0.0
  0
MTEXT
  5
59A
330
593
100
AcDbEntity
  8
0
 62
     0
100
AcDbMText
 10
196.9892893788509
 20
-131.3876235327445
 30
0.0
 40
1.333333373069763
 41
0.0
 71
     5
 72
     1
  1
\A1;15.9580
 73
     1
 44
1.0
  0
POINT
  5
59B
330
593
100
AcDbEntity
  8
Defpoints
 62
     0
100
AcDbPoint
 10
189.0102893788509
 20
-134.3876235327445
 30
0.0
  0
POINT
  5
59C
330
593
100
AcDbEntity
  8
Defpoints
 62
     0
100
AcDbPoint
 10
204.9682893788509
 20
-134.3876235327445
 30
0.0
  0
POINT
  5
59D
330
593
100
AcDbEntity
  8
Defpoints
 62
     0
100
AcDbPoint
 10
204.9682893788509
 20
-131.3876235327445
 30
0.0
  0
ENDBLK
  5
59F
330
593
100
AcDbEntity
  8
0
100
AcDbBlockEnd
  0
BLOCK
  5
5AF
330
5A4
100
AcDbEntity
  8
0
100
AcDbBlockBegin
  2
*D57
 70
     1
 10
0.0
 20
0.0
 30
0.0
  3
*D57
  1

  0
LINE
  5
5A5
330
5A4
100
AcDbEntity
  8
0
 62
     0
370
    -2
100
AcDbLine
 10
196.0812137717541
 20
-155.0001219023588
 30
0.0
 11
196.0812137717541
 21
-154.0952189285676
 31
0.0
  0
LINE
  5
5A6
330
5A4
100
AcDbEntity
  8
0
 62
     0
370
    -2
100
AcDbLine
 10
197.881213771754
 20
-155.0001219023588
 30
0.0
 11
197.881213771754
 21
-154.0952189285676
 31
0.0
  0
LINE
  5
5A7
330
5A4
100
AcDbEntity
  8
0
 62
     0
370
    -2
100
AcDbLine
 10
197.881213771754
 20
-154.2752189285676
 30
0.0
 11
200.5092807401109
 21
-154.2752189285676
 31
0.0
  0
LINE
  5
5A8
330
5A4
100
AcDbEntity
  8
0
 62
     0
370
    -2
100
AcDbLine
 10
196.881213783675
 20
-154.2752189285676
 30
0.0
 11
197.0812137598331
 21
-154.2752189285676
 31
0.0
  0
SOLID
  5
5A9
330
5A4
100
AcDbEntity
  8
0
 62
     0
100
AcDbTrace
 10
196.881213783675
 20
-154.1418855932475
 30
0.0
 11
196.881213783675
 21
-154.4085522638878
 31
0.0
 12
196.0812137717541
 22
-154.2752189285676
 32
0.0
 13
196.0812137717541
 23
-154.2752189285676
 33
0.0
  0
SOLID
  5
5AA
330
5A4
100
AcDbEntity
  8
0
 62
     0
100
AcDbTrace
 10
197.0812137598331
 20
-154.4085522638878
 30
0.0
 11
197.0812137598331
 21
-154.1418855932475
 31
0.0
 12
197.881213771754
 22
-154.2752189285676
 32
0.0
 13
197.881213771754
 23
-154.2752189285676
 33
0.0
  0
MTEXT
  5
5AB
330
5A4
100
AcDbEntity
  8
0
 62
     0
100
AcDbMText
 10
203.8056300420167
 20
-154.2752189285676
 30
0.0
 40
1.333333373069763
 41
0.0
 71
     5
 72
     1
  1
\A1;1.8000
 73
     1
 44
1.0
  0
POINT
  5
5AC
330
5A4
100
AcDbEntity
  8
Defpoints
 62
     0
100
AcDbPoint
 10
196.0812137717541
 20
-155.0626219023588
 30
0.0
  0
POINT
  5
5AD
330
5A4
100
AcDbEntity
  8
Defpoints
 62
     0
100
AcDbPoint
 10
197.881213771754
 20
-155.0626219023588
 30
0.0
  0
POINT
  5
5AE
330
5A4
100
AcDbEntity
  8
Defpoints
 62
     0
100
AcDbPoint
 10
197.881213771754
 20
-154.2752189285676
 30
0.0
  0
ENDBLK
  5
5B0
330
5A4
100
AcDbEntity
  8
0
100
AcDbBlockEnd
  0
BLOCK
  5
5D2
330
5C7
100
AcDbEntity
  8
0
100
AcDbBlockBegin
  2
*D58
 70
     1
 10
0.0
 20
0.0
 30
0.0
  3
*D58
  1

  0
LINE
  5
5C8
330
5C7
100
AcDbEntity
  8
0
 62
     0
370
    -2
100
AcDbLine
 10
197.0719906266404
 20
-141.5500711853976
 30
0.0
 11
208.1116040452194
 21
-141.5500711853976
 31
0.0
  0
LINE
  5
5C9
330
5C7
100
AcDbEntity
  8
0
 62
     0
370
    -2
100
AcDbLine
 10
197.0437137717541
 20
-154.0126219023587
 30
0.0
 11
208.1116040452194
 21
-154.0126219023587
 31
0.0
  0
LINE
  5
5CA
330
5C7
100
AcDbEntity
  8
0
 62
     0
370
    -2
100
AcDbLine
 10
207.9316040452194
 20
-142.5500711853976
 30
0.0
 11
207.9316040452194
 21
-147.0246798573433
 31
0.0
  0
LINE
  5
5CB
330
5C7
100
AcDbEntity
  8
0
 62
     0
370
    -2
100
AcDbLine
 10
207.9316040452194
 20
-153.0126219023587
 30
0.0
 11
207.9316040452194
 21
-148.5380132304131
 31
0.0
  0
SOLID
  5
5CC
330
5C7
100
AcDbEntity
  8
0
 62
     0
100
AcDbTrace
 10
208.0982707118861
 20
-142.5500711853976
 30
0.0
 11
207.7649373785528
 21
-142.5500711853976
 31
0.0
 12
207.9316040452194
 22
-141.5500711853976
 32
0.0
 13
207.9316040452194
 23
-141.5500711853976
 33
0.0
  0
SOLID
  5
5CD
330
5C7
100
AcDbEntity
  8
0
 62
     0
100
AcDbTrace
 10
207.7649373785528
 20
-153.0126219023587
 30
0.0
 11
208.0982707118861
 21
-153.0126219023587
 31
0.0
 12
207.9316040452194
 22
-154.0126219023587
 32
0.0
 13
207.9316040452194
 23
-154.0126219023587
 33
0.0
  0
MTEXT
  5
5CE
330
5C7
100
AcDbEntity
  8
0
 62
     0
100
AcDbMText
 10
207.9316040452194
 20
-147.7813465438782
 30
0.0
 40
1.333333373069763
 41
0.0
 71
     5
 72
     1
  1
\A1;12.5
 73
     1
 44
1.0
  0
POINT
  5
5CF
330
5C7
100
AcDbEntity
  8
Defpoints
 62
     0
100
AcDbPoint
 10
197.0094906266404
 20
-141.5500711853976
 30
0.0
  0
POINT
  5
5D0
330
5C7
100
AcDbEntity
  8
Defpoints
 62
     0
100
AcDbPoint
 10
196.9812137717541
 20
-154.0126219023587
 30
0.0
  0
POINT
  5
5D1
330
5C7
100
AcDbEntity
  8
Defpoints
 62
     0
100
AcDbPoint
 10
207.9316040452194
 20
-154.0126219023587
 30
0.0
  0
ENDBLK
  5
5D3
330
5C7
100
AcDbEntity
  8
0
100
AcDbBlockEnd
  0
BLOCK
  5
5E2
330
5D7
100
AcDbEntity
  8
0
100
AcDbBlockBegin
  2
*D59
 70
     1
 10
0.0
 20
0.0
 30
0.0
  3
*D59
  1

  0
LINE
  5
5D8
330
5D7
100
AcDbEntity
  8
0
 62
     0
370
    -2
100
AcDbLine
 10
205.0307893788509
 20
-134.0126235327445
 30
0.0
 11
208.1482893788509
 21
-134.0126235327445
 31
0.0
  0
LINE
  5
5D9
330
5D7
100
AcDbEntity
  8
0
 62
     0
370
    -2
100
AcDbLine
 10
205.0307893788509
 20
-141.5126235327445
 30
0.0
 11
208.1482893788509
 21
-141.5126235327445
 31
0.0
  0
LINE
  5
5DA
330
5D7
100
AcDbEntity
  8
0
 62
     0
370
    -2
100
AcDbLine
 10
207.9682893788509
 20
-134.8126235446655
 30
0.0
 11
207.9682893788509
 21
-137.0059568462096
 31
0.0
  0
LINE
  5
5DB
330
5D7
100
AcDbEntity
  8
0
 62
     0
370
    -2
100
AcDbLine
 10
207.9682893788509
 20
-140.7126235208236
 30
0.0
 11
207.9682893788509
 21
-138.5192902192794
 31
0.0
  0
SOLID
  5
5DC
330
5D7
100
AcDbEntity
  8
0
 62
     0
100
AcDbTrace
 10
208.101622714171
 20
-134.8126235446655
 30
0.0
 11
207.8349560435307
 21
-134.8126235446655
 31
0.0
 12
207.9682893788509
 22
-134.0126235327445
 32
0.0
 13
207.9682893788509
 23
-134.0126235327445
 33
0.0
  0
SOLID
  5
5DD
330
5D7
100
AcDbEntity
  8
0
 62
     0
100
AcDbTrace
 10
207.8349560435307
 20
-140.7126235208236
 30
0.0
 11
208.101622714171
 21
-140.7126235208236
 31
0.0
 12
207.9682893788509
 22
-141.5126235327445
 32
0.0
 13
207.9682893788509
 23
-141.5126235327445
 33
0.0
  0
MTEXT
  5
5DE
330
5D7
100
AcDbEntity
  8
0
 62
     0
100
AcDbMText
 10
207.9682893788509
 20
-137.7626235327445
 30
0.0
 40
1.333333373069763
 41
0.0
 71
     5
 72
     1
  1
\A1;7.5000
 73
     1
 44
1.0
  0
POINT
  5
5DF
330
5D7
100
AcDbEntity
  8
Defpoints
 62
     0
100
AcDbPoint
 10
204.9682893788509
 20
-134.0126235327445
 30
0.0
  0
POINT
  5
5E0
330
5D7
100
AcDbEntity
  8
Defpoints
 62
     0
100
AcDbPoint
 10
204.9682893788509
 20
-141.5126235327445
 30
0.0
  0
POINT
  5
5E1
330
5D7
100
AcDbEntity
  8
Defpoints
 62
     0
100
AcDbPoint
 10
207.9682893788509
 20
-141.5126235327445
 30
0.0
  0
ENDBLK
  5
5E3
330
5D7
100
AcDbEntity
  8
0
100
AcDbBlockEnd
  0
ENDSEC
  0
SECTION
  2
ENTITIES
  0
DIMENSION
  5
6F
330
1F
100
AcDbEntity
  8
0
100
AcDbDimension
  2
*D6
 10
141.278962210127
 20
-121.3231687773658
 30
0.0
 11
141.278962210127
 21
-111.3231687773657
 31
0.0
 70
   160
 71
     5
 42
20.00000000000027
  3
OdaDimStyle0
100
AcDbAlignedDimension
 13
143.7287864785391
 23
-101.3231687773655
 33
0.0
 14
143.7287864785391
 24
-121.3231687773658
 34
0.0
 50
270.0
100
AcDbRotatedDimension
1001
ACAD
1000
DSTYLE
1002
{
1070
    41
1040
0.800000011920929
1070
   140
1040
1.333333373069763
1002
}
  0
LINE
  5
A0
330
1F
100
AcDbEntity
  8
Layer1
 62
     7
370
    25
100
AcDbLine
 10
143.0412864785392
 20
-121.1981687773658
 30
0.0
 11
143.0412864785392
 21
-105.3281687773655
 31
0.0
  0
LINE
  5
A1
330
1F
100
AcDbEntity
  8
Layer1
 62
     7
370
    25
100
AcDbLine
 10
162.0782864785391
 20
-104.1831253933733
 30
0.0
 11
162.0782864785391
 21
-124.1831253933733
 31
0.0
  0
LINE
  5
A2
330
1F
100
AcDbEntity
  8
Layer1
 62
     7
370
    25
100
AcDbLine
 10
168.0782864785391
 20
-102.7531470853694
 30
0.0
 11
168.0782864785391
 21
-122.7531470853694
 31
0.0
  0
LINE
  5
A3
330
1F
100
AcDbEntity
  8
Layer1
 62
     7
370
    25
100
AcDbLine
 10
156.0782864785391
 20
-102.7531470853694
 30
0.0
 11
156.0782864785391
 21
-122.7531470853694
 31
0.0
  0
LINE
  5
A4
330
1F
100
AcDbEntity
  8
Layer1
 62
     7
370
    25
100
AcDbLine
 10
181.1152864785392
 20
-105.3281687773655
 30
0.0
 11
181.1152864785392
 21
-121.1981687773658
 31
0.0
  0
LINE
  5
A5
330
1F
100
AcDbEntity
  8
Layer1
 62
     7
370
    25
100
AcDbLine
 10
115.5
 20
18.25
 30
0.0
 11
115.5
 21
18.25
 31
0.0
  0
LINE
  5
A6
330
1F
100
AcDbEntity
  8
Layer1
 62
     7
370
     9
100
AcDbLine
 10
176.3642137717646
 20
-155.7626219023653
 30
0.0
 11
176.3642137717646
 21
-155.6376219023653
 31
0.0
  0
LINE
  5
A7
330
1F
100
AcDbEntity
  8
Layer1
 62
     7
370
    25
100
AcDbLine
 10
176.8017137717644
 20
-155.6376219023653
 30
0.0
 11
176.8017137717644
 21
-155.7626219023653
 31
0.0
  0
LINE
  5
A8
330
1F
100
AcDbEntity
  8
Layer1
 62
     7
370
    25
100
AcDbLine
 10
176.8017137717644
 20
-155.7626219023653
 30
0.0
 11
176.6142137717644
 21
-155.7626219023653
 31
0.0
  0
LINE
  5
A9
330
1F
100
AcDbEntity
  8
Layer1
 62
     7
370
     9
100
AcDbLine
 10
176.6142137717646
 20
-155.7626219023653
 30
0.0
 11
176.3642137717646
 21
-155.7626219023653
 31
0.0
  0
LINE
  5
AA
330
1F
100
AcDbEntity
  8
Layer1
 62
     7
370
     9
100
AcDbLine
 10
151.7314137717645
 20
-155.7626219023653
 30
0.0
 11
151.7314137717645
 21
-155.6376219023653
 31
0.0
  0
LINE
  5
AB
330
1F
100
AcDbEntity
  8
Layer1
 62
     7
370
    25
100
AcDbLine
 10
165.9062137717644
 20
-137.8781470853694
 30
0.0
 11
165.9062137717646
 21
-156.8781470853694
 31
0.0
  0
LINE
  5
AC
330
1F
100
AcDbEntity
  8
Layer1
 62
     7
370
    25
100
AcDbLine
 10
155.9062137717644
 20
-137.8781470853694
 30
0.0
 11
155.9062137717646
 21
-156.8781470853694
 31
0.0
  0
ELLIPSE
  5
AD
330
1F
100
AcDbEntity
  8
Layer1
 62
     7
370
    25
100
AcDbEllipse
 10
160.9062137717644
 20
-137.8781470853694
 30
0.0
 11
5.0
 21
0.0
 31
0.0
210
0.0
220
0.0
230
-1.0
 40
0.2481050366007821
 41
0.0
 42
6.283185307179586
  0
LINE
  5
AE
330
1F
100
AcDbEntity
  8
Layer1
 62
     7
370
    25
100
AcDbLine
 10
143.7287864785392
 20
-121.1981687773658
 30
0.0
 11
143.7287864785392
 21
-121.3231687773658
 31
0.0
  0
LINE
  5
AF
330
1F
100
AcDbEntity
  8
Layer1
 62
     7
370
    25
100
AcDbLine
 10
150.2685864785392
 20
-121.3231687773658
 30
0.0
 11
143.7287864785392
 21
-121.3231687773658
 31
0.0
  0
LINE
  5
B0
330
1F
100
AcDbEntity
  8
Layer1
 62
     7
370
    25
100
AcDbLine
 10
143.0412864785392
 20
-121.1981687773658
 30
0.0
 11
143.7287864785392
 21
-121.1981687773658
 31
0.0
  0
LINE
  5
B1
330
1F
100
AcDbEntity
  8
Layer1
 62
     7
370
    25
100
AcDbLine
 10
150.2685864785392
 20
-121.1981687773658
 30
0.0
 11
150.2685864785392
 21
-121.3231687773658
 31
0.0
  0
LINE
  5
B2
330
1F
100
AcDbEntity
  8
Layer1
 62
     7
370
    25
100
AcDbLine
 10
145.0107137717645
 20
-136.6376219023655
 30
0.0
 11
145.0107137717645
 21
-155.6376219023653
 31
0.0
  0
LINE
  5
B3
330
1F
100
AcDbEntity
  8
Layer1
 62
     7
370
    25
100
AcDbLine
 10
145.0107137717645
 20
-155.7626219023653
 30
0.0
 11
145.1982137717645
 21
-155.7626219023653
 31
0.0
  0
DIMENSION
  5
B4
330
1F
100
AcDbEntity
  8
0
100
AcDbDimension
  2
*D7
 10
143.0605133482045
 20
-155.6376219023655
 30
0.0
 11
143.0605133482045
 21
-146.1376219023655
 31
0.0
 70
   160
 71
     5
 42
19.0
  3
OdaDimStyle0
100
AcDbAlignedDimension
 13
148.4365132757252
 23
-136.6376219023655
 33
0.0
 14
148.4365132757252
 24
-155.6376219023655
 34
0.0
 50
270.0
100
AcDbRotatedDimension
1001
ACAD
1000
DSTYLE
1002
{
1070
    41
1040
0.800000011920929
1070
   140
1040
1.333333373069763
1002
}
  0
LINE
  5
C2
330
1F
100
AcDbEntity
  8
Layer1
 62
     7
370
     9
100
AcDbLine
 10
145.4482137717645
 20
-155.7626219023653
 30
0.0
 11
145.4482137717645
 21
-155.6376219023653
 31
0.0
  0
LINE
  5
C3
330
1F
100
AcDbEntity
  8
Layer1
 62
     7
370
     9
100
AcDbLine
 10
145.1982137717645
 20
-155.7626219023653
 30
0.0
 11
145.4482137717645
 21
-155.7626219023653
 31
0.0
  0
LINE
  5
C4
330
1F
100
AcDbEntity
  8
Layer1
 62
     7
370
     9
100
AcDbLine
 10
145.0107137717645
 20
-155.6376219023653
 30
0.0
 11
145.0107137717645
 21
-155.7626219023653
 31
0.0
  0
DIMENSION
  5
C5
330
1F
100
AcDbEntity
  8
0
100
AcDbDimension
  2
*D8
 10
181.1152864785392
 20
-99.68816877736563
 30
0.0
 11
162.0782864785392
 21
-99.68816877736563
 31
0.0
 70
   160
 71
     5
 42
38.07400000000004
  3
OdaDimStyle0
100
AcDbAlignedDimension
 13
143.0412864785391
 23
-102.6881687773656
 33
0.0
 14
181.1152864785392
 24
-102.6881687773656
 34
0.0
100
AcDbRotatedDimension
1001
ACAD
1000
DSTYLE
1002
{
1070
    41
1040
0.800000011920929
1070
   140
1040
1.333333373069763
1002
}
  0
MTEXT
  5
D3
330
1F
100
AcDbEntity
  8
Layer1
 62
     7
370
    25
100
AcDbMText
 10
149.417825234608
 20
-125.9911162498488
 30
0.0
 40
1.333333373069763
 41
31.325
 71
     1
 72
     1
  1
{\C7;\l\fPlotter|b1|i0|c00|p34;\H1.00x;Downdraft Reactor Outside\P}
 73
     1
 44
1.0
  0
LINE
  5
D4
330
1F
100
AcDbEntity
  8
Layer1
 62
     7
370
    25
100
AcDbLine
 10
145.0107137717645
 20
-136.6376219023655
 30
0.0
 11
176.8017137717644
 21
-136.6376219023655
 31
0.0
  0
MTEXT
  5
D5
330
1F
100
AcDbEntity
  8
Layer1
 62
     7
370
    25
100
AcDbMText
 10
141.7400255235098
 20
-161.0425051747048
 30
0.0
 40
1.333333373069763
 41
41.825
 71
     1
 72
     1
  1
{\C7;\l\fPlotter|b1|i0|c00|p34;  Downdraft Reactor Inside/Insulation\P}
 73
     1
 44
1.0
  0
LINE
  5
D6
330
1F
100
AcDbEntity
  8
Layer1
 62
     7
370
     9
100
AcDbLine
 10
145.4482137717645
 20
-155.6376219023653
 30
0.0
 11
151.2314137717645
 21
-155.6376219023653
 31
0.0
  0
DIMENSION
  5
D7
330
1F
100
AcDbEntity
  8
0
100
AcDbDimension
  2
*D9
 10
176.8017137717646
 20
-133.2626219023655
 30
0.0
 11
160.9062137717646
 21
-133.2626219023655
 31
0.0
 70
   160
 71
     5
 42
31.79099999999994
  3
OdaDimStyle0
100
AcDbAlignedDimension
 13
145.0107137717646
 23
-156.6376219023655
 33
0.0
 14
176.8017137717646
 24
-156.6376219023655
 34
0.0
100
AcDbRotatedDimension
1001
ACAD
1000
DSTYLE
1002
{
1070
    41
1040
0.800000011920929
1070
   140
1040
1.333333373069763
1002
}
  0
LINE
  5
E5
330
1F
100
AcDbEntity
  8
Layer1
 62
     7
370
     9
100
AcDbLine
 10
151.4814137717645
 20
-155.7626219023653
 30
0.0
 11
151.7314137717645
 21
-155.7626219023653
 31
0.0
  0
LINE
  5
E6
330
1F
100
AcDbEntity
  8
Layer1
 62
     7
370
    25
100
AcDbLine
 10
160.9062137717644
 20
-139.1186722683734
 30
0.0
 11
160.9062137717646
 21
-158.1186722683734
 31
0.0
  0
LINE
  5
E7
330
1F
100
AcDbEntity
  8
Layer1
 62
     7
370
     9
100
AcDbLine
 10
170.5810137717646
 20
-155.6376219023653
 30
0.0
 11
176.3642137717646
 21
-155.6376219023653
 31
0.0
  0
MTEXT
  5
E8
330
1F
100
AcDbEntity
  8
Layer1
 62
     7
370
    25
100
AcDbMText
 10
150.2723412294953
 20
-152.0211243096695
 30
0.0
 40
1.0
 41
26.075
 71
     1
 72
     1
  1
{\C7;\l\fPlotter|b0|i0|c00|p34;\H1.00x;   10" Diameter On Center\P\l\fPlotter|b0|i0|c00|p34;\H0.89x;(with 3/8" sheet overlap at joint)\P\l\fPlotter|b1|i0|c00|p34;\H1.12x;\P}
 73
     1
 44
1.0
  0
LINE
  5
E9
330
1F
100
AcDbEntity
  8
Layer1
 62
     7
370
     9
100
AcDbLine
 10
151.4814137717645
 20
-155.7626219023653
 30
0.0
 11
151.2314137717645
 21
-155.7626219023653
 31
0.0
  0
LINE
  5
EA
330
1F
100
AcDbEntity
  8
Layer1
 62
     7
370
     9
100
AcDbLine
 10
151.2314137717645
 20
-155.7626219023653
 30
0.0
 11
151.2314137717645
 21
-155.6376219023653
 31
0.0
  0
LINE
  5
EB
330
1F
100
AcDbEntity
  8
Layer1
 62
     7
370
     9
100
AcDbLine
 10
164.2978137717646
 20
-155.6376219023653
 30
0.0
 11
170.0810137717646
 21
-155.6376219023653
 31
0.0
  0
LINE
  5
EC
330
1F
100
AcDbEntity
  8
Layer1
 62
     7
370
     9
100
AcDbLine
 10
164.2978137717646
 20
-155.7626219023653
 30
0.0
 11
164.2978137717646
 21
-155.6376219023653
 31
0.0
  0
LINE
  5
ED
330
1F
100
AcDbEntity
  8
Layer1
 62
     7
370
     9
100
AcDbLine
 10
164.0478137717646
 20
-155.7626219023653
 30
0.0
 11
164.2978137717646
 21
-155.7626219023653
 31
0.0
  0
LINE
  5
EE
330
1F
100
AcDbEntity
  8
Layer1
 62
     7
370
     9
100
AcDbLine
 10
170.3310137717646
 20
-155.7626219023653
 30
0.0
 11
170.0810137717646
 21
-155.7626219023653
 31
0.0
  0
LINE
  5
EF
330
1F
100
AcDbEntity
  8
Layer1
 62
     7
370
     9
100
AcDbLine
 10
170.0810137717646
 20
-155.7626219023653
 30
0.0
 11
170.0810137717646
 21
-155.6376219023653
 31
0.0
  0
LINE
  5
F0
330
1F
100
AcDbEntity
  8
Layer1
 62
     7
370
     9
100
AcDbLine
 10
164.0478137717646
 20
-155.7626219023653
 30
0.0
 11
163.7978137717646
 21
-155.7626219023653
 31
0.0
  0
LINE
  5
F1
330
1F
100
AcDbEntity
  8
Layer1
 62
     7
370
     9
100
AcDbLine
 10
163.7978137717646
 20
-155.7626219023653
 30
0.0
 11
163.7978137717646
 21
-155.6376219023653
 31
0.0
  0
LINE
  5
F2
330
1F
100
AcDbEntity
  8
Layer1
 62
     7
370
     9
100
AcDbLine
 10
170.5810137717646
 20
-155.7626219023653
 30
0.0
 11
170.5810137717646
 21
-155.6376219023653
 31
0.0
  0
SPLINE
  5
F3
330
1F
100
AcDbEntity
  8
Layer1
 62
     7
370
    25
100
AcDbSpline
210
0.0
220
0.0
230
1.0
 70
     8
 71
     3
 72
    15
 73
    11
 74
     9
 42
0.0000000001
 43
0.0000000001
 44
0.0
 12
0.0003717943995638554
 22
-0.9999999308844599
 32
0.0
 13
-0.995855197170202
 23
-0.09095287938871593
 33
0.0
 40
0.0
 40
0.0
 40
0.0
 40
0.0
 40
0.2353792235738925
 40
0.4734001900358
 40
0.8468060693366054
 40
1.246149215779438
 40
1.487071764387707
 40
1.695727486892732
 40
1.791569622071167
 40
2.070800864616751
 40
2.070800864616751
 40
2.070800864616751
 40
2.070800864616751
 10
168.0894163938131
 20
-138.2016508149817
 30
0.0
 10
168.0894455647055
 20
-138.2801105507502
 30
0.0
 10
168.0895044348296
 20
-138.4378886414418
 30
0.0
 10
168.0950557575311
 20
-138.7202653100445
 30
0.0
 10
168.0455378815741
 20
-139.0565163670158
 30
0.0
 10
167.9069500952703
 20
-139.3714054196948
 30
0.0
 10
167.7241230813806
 20
-139.5902365018597
 30
0.0
 10
167.581456258757
 20
-139.7044753374814
 30
0.0
 10
167.4111792878901
 20
-139.8012518991447
 30
0.0
 10
167.2821125437462
 20
-139.8130397502771
 30
0.0
 10
167.1894212490457
 20
-139.8215053787854
 30
0.0
 11
168.0894163938131
 21
-138.2016508149817
 31
0.0
 11
168.0902567733243
 21
-138.4370285383382
 31
0.0
 11
168.0890214248857
 21
-138.6750462989984
 31
0.0
 11
168.0309791739862
 21
-139.0439135485706
 31
0.0
 11
167.8657023865835
 21
-139.4074496982954
 31
0.0
 11
167.7112081565105
 21
-139.5923150744534
 31
0.0
 11
167.5476388955645
 21
-139.7218616197862
 31
0.0
 11
167.4633914670767
 21
-139.7675571958166
 31
0.0
 11
167.1894212490457
 21
-139.8215053787854
 31
0.0
  0
ARC
  5
F4
330
1F
100
AcDbEntity
  8
Layer1
 62
     7
370
    25
100
AcDbCircle
 10
-167.1894163938131
 20
-138.8766508149817
 30
0.0
 40
1.124999999999994
210
0.0
220
0.0
230
-1.0
100
AcDbArc
 50
36.86989764584315
 51
143.1301023541569
  0
SPLINE
  5
F5
330
1F
100
AcDbEntity
  8
Layer1
 62
     7
370
    25
100
AcDbSpline
210
0.0
220
0.0
230
1.0
 70
     8
 71
     3
 72
    15
 73
    11
 74
     9
 42
0.0000000001
 43
0.0000000001
 44
0.0
 12
-0.0003717943995638554
 22
-0.9999999308844599
 32
0.0
 13
0.995855197170202
 23
-0.09095287938871593
 33
0.0
 40
0.0
 40
0.0
 40
0.0
 40
0.0
 40
0.2353792235738924
 40
0.4734001900358287
 40
0.846806069336612
 40
1.246149215779377
 40
1.487071764387693
 40
1.695727486892757
 40
1.791569622071152
 40
2.070800864616718
 40
2.070800864616718
 40
2.070800864616718
 40
2.070800864616718
 10
166.2894163938131
 20
-138.2016508149817
 30
0.0
 10
166.2893872229207
 20
-138.2801105507502
 30
0.0
 10
166.2893283527966
 20
-138.4378886414418
 30
0.0
 10
166.2837770300953
 20
-138.7202653100445
 30
0.0
 10
166.3332949060519
 20
-139.0565163670158
 30
0.0
 10
166.4718826923561
 20
-139.3714054196948
 30
0.0
 10
166.6547097062455
 20
-139.5902365018596
 30
0.0
 10
166.7973765288692
 20
-139.7044753374815
 30
0.0
 10
166.9676534997362
 20
-139.8012518991446
 30
0.0
 10
167.09672024388
 20
-139.8130397502771
 30
0.0
 10
167.1894115385805
 20
-139.8215053787854
 30
0.0
 11
166.2894163938131
 21
-138.2016508149817
 31
0.0
 11
166.288576014302
 21
-138.4370285383383
 31
0.0
 11
166.2898113627406
 21
-138.6750462989985
 31
0.0
 11
166.3478536136399
 21
-139.0439135485707
 31
0.0
 11
166.5131304010427
 21
-139.4074496982953
 31
0.0
 11
166.6676246311157
 21
-139.5923150744534
 31
0.0
 11
166.8311938920617
 21
-139.7218616197863
 31
0.0
 11
166.9154413205495
 21
-139.7675571958166
 31
0.0
 11
167.1894115385805
 21
-139.8215053787854
 31
0.0
  0
LINE
  5
F6
330
1F
100
AcDbEntity
  8
Layer1
 62
     7
370
     9
100
AcDbLine
 10
170.3310137717646
 20
-155.7626219023653
 30
0.0
 11
170.5810137717646
 21
-155.7626219023653
 31
0.0
  0
LINE
  5
F7
330
1F
100
AcDbEntity
  8
Layer1
 62
     7
370
     9
100
AcDbLine
 10
158.0146137717645
 20
-155.6376219023653
 30
0.0
 11
163.7978137717646
 21
-155.6376219023653
 31
0.0
  0
LINE
  5
F8
330
1F
100
AcDbEntity
  8
Layer1
 62
     7
370
     9
100
AcDbLine
 10
158.0146137717645
 20
-155.7626219023653
 30
0.0
 11
158.0146137717645
 21
-155.6376219023653
 31
0.0
  0
LINE
  5
F9
330
1F
100
AcDbEntity
  8
Layer1
 62
     7
370
     9
100
AcDbLine
 10
157.7646137717645
 20
-155.7626219023653
 30
0.0
 11
158.0146137717645
 21
-155.7626219023653
 31
0.0
  0
LINE
  5
FA
330
1F
100
AcDbEntity
  8
Layer1
 62
     7
370
     9
100
AcDbLine
 10
151.7314137717645
 20
-155.6376219023653
 30
0.0
 11
157.5146137717645
 21
-155.6376219023653
 31
0.0
  0
LINE
  5
FB
330
1F
100
AcDbEntity
  8
Layer1
 62
     7
370
     9
100
AcDbLine
 10
157.7646137717645
 20
-155.7626219023653
 30
0.0
 11
157.5146137717645
 21
-155.7626219023653
 31
0.0
  0
LINE
  5
FC
330
1F
100
AcDbEntity
  8
Layer1
 62
     7
370
     9
100
AcDbLine
 10
157.5146137717645
 20
-155.7626219023653
 30
0.0
 11
157.5146137717645
 21
-155.6376219023653
 31
0.0
  0
ELLIPSE
  5
FD
330
1F
100
AcDbEntity
  8
Layer1
 62
     7
370
    25
100
AcDbEllipse
 10
160.9062137717646
 20
-156.8781470853694
 30
0.0
 11
5.0
 21
0.0
 31
0.0
210
0.0
220
0.0
230
-1.0
 40
0.2481050366007821
 41
0.0
 42
6.283185307179586
  0
LINE
  5
FE
330
1F
100
AcDbEntity
  8
Layer1
 62
     7
370
    25
100
AcDbLine
 10
250.718724921526
 20
-143.1473683513056
 30
0.0
 11
250.718724921526
 21
-143.0848683513056
 31
0.0
  0
LINE
  5
FF
330
1F
100
AcDbEntity
  8
Layer1
 62
     7
370
    25
100
AcDbLine
 10
250.252724921526
 20
-140.6473683513056
 30
0.0
 11
250.718724921526
 21
-140.6473683513056
 31
0.0
  0
LINE
  5
100
330
1F
100
AcDbEntity
  8
Layer1
 62
     7
370
    25
100
AcDbLine
 10
250.718724921526
 20
-140.6473683513056
 30
0.0
 11
250.718724921526
 21
-140.7098683513056
 31
0.0
  0
LINE
  5
101
330
1F
100
AcDbEntity
  8
Layer1
 62
     7
370
    25
100
AcDbLine
 10
268.4288414975258
 20
-140.7098683513056
 30
0.0
 11
262.5791873697258
 21
-140.7098683513056
 31
0.0
  0
LINE
  5
102
330
1F
100
AcDbEntity
  8
Layer1
 62
     7
370
    25
100
AcDbLine
 10
261.5789573491259
 20
-140.6473683513056
 30
0.0
 11
261.5789573491259
 21
-140.7098683513056
 31
0.0
  0
DIMENSION
  5
103
330
1F
100
AcDbEntity
  8
0
100
AcDbDimension
  2
*D10
 10
281.5114235359936
 20
-153.0450550452983
 30
0.0
 11
281.3614235359935
 21
-153.0450550452983
 31
0.0
 70
   160
 71
     5
 42
0.3000000000000682
  3
OdaDimStyle0
100
AcDbAlignedDimension
 13
281.2114235359935
 23
-153.3898469260316
 33
0.0
 14
281.5114235359936
 24
-153.3898469260316
 34
0.0
100
AcDbRotatedDimension
1001
ACAD
1000
DSTYLE
1002
{
1070
    41
1040
1.0
1070
   140
1040
0.5
1002
}
  0
LINE
  5
111
330
1F
100
AcDbEntity
  8
Layer1
 62
     7
370
    25
100
AcDbLine
 10
151.2685864785392
 20
-121.1981687773658
 30
0.0
 11
151.2685864785392
 21
-121.3231687773658
 31
0.0
  0
LINE
  5
112
330
1F
100
AcDbEntity
  8
Layer1
 62
     7
370
    25
100
AcDbLine
 10
165.3481864785391
 20
-121.1981687773658
 30
0.0
 11
166.3481864785391
 21
-121.1981687773658
 31
0.0
  0
LINE
  5
113
330
1F
100
AcDbEntity
  8
Layer1
 62
     7
370
    25
100
AcDbLine
 10
165.3481864785391
 20
-121.3231687773658
 30
0.0
 11
158.8083864785391
 21
-121.3231687773658
 31
0.0
  0
LINE
  5
114
330
1F
100
AcDbEntity
  8
Layer1
 62
     7
370
    25
100
AcDbLine
 10
180.4277864785392
 20
-121.3231687773658
 30
0.0
 11
173.8879864785391
 21
-121.3231687773658
 31
0.0
  0
LINE
  5
115
330
1F
100
AcDbEntity
  8
Layer1
 62
     7
370
    25
100
AcDbLine
 10
173.8879864785391
 20
-121.1981687773658
 30
0.0
 11
173.8879864785391
 21
-121.3231687773658
 31
0.0
  0
LINE
  5
116
330
1F
100
AcDbEntity
  8
Layer1
 62
     7
370
    25
100
AcDbLine
 10
172.8879864785391
 20
-121.1981687773658
 30
0.0
 11
173.8879864785391
 21
-121.1981687773658
 31
0.0
  0
LINE
  5
117
330
1F
100
AcDbEntity
  8
Layer1
 62
     7
370
    25
100
AcDbLine
 10
158.8083864785391
 20
-121.1981687773658
 30
0.0
 11
158.8083864785391
 21
-121.3231687773658
 31
0.0
  0
LINE
  5
118
330
1F
100
AcDbEntity
  8
Layer1
 62
     7
370
    25
100
AcDbLine
 10
157.8083864785391
 20
-121.3231687773658
 30
0.0
 11
151.2685864785392
 21
-121.3231687773658
 31
0.0
  0
LINE
  5
119
330
1F
100
AcDbEntity
  8
Layer1
 62
     7
370
    25
100
AcDbLine
 10
150.2685864785392
 20
-121.1981687773658
 30
0.0
 11
151.2685864785392
 21
-121.1981687773658
 31
0.0
  0
LINE
  5
11A
330
1F
100
AcDbEntity
  8
Layer1
 62
     7
370
    25
100
AcDbLine
 10
157.8083864785391
 20
-121.1981687773658
 30
0.0
 11
157.8083864785391
 21
-121.3231687773658
 31
0.0
  0
LINE
  5
11B
330
1F
100
AcDbEntity
  8
Layer1
 62
     7
370
    25
100
AcDbLine
 10
157.8083864785391
 20
-121.1981687773658
 30
0.0
 11
158.8083864785391
 21
-121.1981687773658
 31
0.0
  0
LINE
  5
11C
330
1F
100
AcDbEntity
  8
Layer1
 62
     7
370
    25
100
AcDbLine
 10
172.8879864785391
 20
-121.3231687773658
 30
0.0
 11
166.3481864785391
 21
-121.3231687773658
 31
0.0
  0
LINE
  5
11D
330
1F
100
AcDbEntity
  8
Layer1
 62
     7
370
    25
100
AcDbLine
 10
166.3481864785391
 20
-121.1981687773658
 30
0.0
 11
166.3481864785391
 21
-121.3231687773658
 31
0.0
  0
LINE
  5
11E
330
1F
100
AcDbEntity
  8
Layer1
 62
     7
370
    25
100
AcDbLine
 10
172.8879864785391
 20
-121.1981687773658
 30
0.0
 11
172.8879864785391
 21
-121.3231687773658
 31
0.0
  0
LINE
  5
11F
330
1F
100
AcDbEntity
  8
Layer1
 62
     7
370
    25
100
AcDbLine
 10
165.3481864785391
 20
-121.1981687773658
 30
0.0
 11
165.3481864785391
 21
-121.3231687773658
 31
0.0
  0
ELLIPSE
  5
120
330
1F
100
AcDbEntity
  8
Layer1
 62
     7
370
    25
100
AcDbEllipse
 10
162.0782864785391
 20
-122.7531470853694
 30
0.0
 11
6.0
 21
0.0
 31
0.0
210
0.0
220
0.0
230
-1.0
 40
0.238329718000647
 41
0.0
 42
6.283185307179586
  0
LINE
  5
121
330
1F
100
AcDbEntity
  8
Layer1
 62
     7
370
    25
100
AcDbLine
 10
180.4277864785392
 20
-121.1981687773658
 30
0.0
 11
180.4277864785392
 21
-121.3231687773658
 31
0.0
  0
LINE
  5
122
330
1F
100
AcDbEntity
  8
Layer1
 62
     7
370
    25
100
AcDbLine
 10
181.1152864785392
 20
-121.1981687773658
 30
0.0
 11
180.4277864785392
 21
-121.1981687773658
 31
0.0
  0
LINE
  5
123
330
1F
100
AcDbEntity
  8
Layer1
 62
     7
370
    25
100
AcDbLine
 10
176.8017137717644
 20
-155.6376219023653
 30
0.0
 11
176.8017137717644
 21
-136.6376219023655
 31
0.0
  0
ARC
  5
124
330
1F
100
AcDbEntity
  8
Layer1
 62
     7
370
    25
100
AcDbCircle
 10
257.180023598828
 20
-129.7323037614356
 30
0.0
 40
5.166666666568005
100
AcDbArc
 50
267.5965689714768
 51
270.0000000000227
  0
CIRCLE
  5
125
330
1F
100
AcDbEntity
  8
Layer1
 62
     7
370
    25
100
AcDbCircle
 10
254.3232529685579
 20
-147.1104445893737
 30
0.0
 40
0.1720000000000007
  0
LINE
  5
126
330
1F
100
AcDbEntity
  8
Layer1
 62
     7
370
    25
100
AcDbLine
 10
256.2555261800259
 20
-140.7098683513056
 30
0.0
 11
256.2555261800259
 21
-140.6473683513056
 31
0.0
  0
ARC
  5
127
330
1F
100
AcDbEntity
  8
Layer1
 62
     7
370
    25
100
AcDbCircle
 10
257.1800235988301
 20
-130.3989704279373
 30
0.0
 40
4.499999999999659
100
AcDbArc
 50
269.9999999999993
 51
281.3204595668004
  0
DIMENSION
  5
128
330
1F
100
AcDbEntity
  8
0
100
AcDbDimension
  2
*D11
 10
259.7935004987839
 20
-131.7323037613369
 30
0.0
 11
259.7935004987839
 21
-130.2323037613369
 31
0.0
 70
   160
 71
     5
 42
3.0
  3
OdaDimStyle0
100
AcDbAlignedDimension
 13
257.5133569321301
 23
-128.7323037613369
 33
0.0
 14
257.5133569321301
 24
-131.7323037613369
 34
0.0
 50
270.0
100
AcDbRotatedDimension
1001
ACAD
1000
DSTYLE
1002
{
1070
    41
1040
1.0
1070
   140
1040
0.5
1002
}
  0
LINE
  5
136
330
1F
100
AcDbEntity
  8
Layer1
 62
     7
370
    25
100
AcDbLine
 10
258.0633569321301
 20
-134.8114212460369
 30
0.0
 11
258.0633569321301
 21
-134.7093906188369
 31
0.0
  0
LINE
  5
137
330
1F
100
AcDbEntity
  8
Layer1
 62
     7
370
    25
100
AcDbLine
 10
256.2555261800259
 20
-143.0848683513056
 30
0.0
 11
256.2555261800259
 21
-143.1473683513056
 31
0.0
  0
ARC
  5
138
330
1F
100
AcDbEntity
  8
Layer1
 62
     7
370
    25
100
AcDbCircle
 10
257.1800235988005
 20
-130.3989704279362
 30
0.0
 40
4.50000000002956
100
AcDbArc
 50
355.1133261776228
 51
0.0
  0
LINE
  5
139
330
1F
100
AcDbEntity
  8
Layer1
 62
     7
370
    25
100
AcDbLine
 10
255.2554749215259
 20
-140.6473683513056
 30
0.0
 11
256.2555261800259
 21
-140.6473683513056
 31
0.0
  0
LINE
  5
13A
330
1F
100
AcDbEntity
  8
Layer1
 62
     7
370
    25
100
AcDbLine
 10
277.3290619532257
 20
-140.7098683513056
 30
0.0
 11
280.6923119532257
 21
-140.7098683513056
 31
0.0
  0
LINE
  5
13B
330
1F
100
AcDbEntity
  8
Layer1
 62
     7
370
    25
100
AcDbLine
 10
269.4302966513258
 20
-143.0848683513056
 30
0.0
 11
269.4302966513258
 21
-143.1473683513056
 31
0.0
  0
LINE
  5
13C
330
1F
100
AcDbEntity
  8
Layer1
 62
     7
370
    25
100
AcDbLine
 10
268.4288414975258
 20
-143.1473683513056
 30
0.0
 11
268.4288414975258
 21
-143.0848683513056
 31
0.0
  0
CIRCLE
  5
13D
330
1F
100
AcDbEntity
  8
Layer1
  6
Dotted_G
 62
     7
370
    25
100
AcDbCircle
 10
257.5133569321301
 20
-130.2323037613369
 30
0.0
 40
4.625
  0
CIRCLE
  5
13E
330
1F
100
AcDbEntity
  8
Layer1
 62
     7
370
    25
100
AcDbCircle
 10
257.5133569321301
 20
-130.2323037613369
 30
0.0
 40
1.5
  0
CIRCLE
  5
13F
330
1F
100
AcDbEntity
  8
Layer1
 62
     7
370
    25
100
AcDbCircle
 10
260.2320728187916
 20
-133.9736011496237
 30
0.0
 40
0.1720000000000007
  0
CIRCLE
  5
140
330
1F
100
AcDbEntity
  8
Layer1
 62
     7
370
    25
100
AcDbCircle
 10
254.7952580661886
 20
-133.9738016318086
 30
0.0
 40
0.1720000000000487
  0
CIRCLE
  5
141
330
1F
100
AcDbEntity
  8
Layer1
 62
     7
370
    25
100
AcDbCircle
 10
257.5133569321301
 20
-125.6073037613369
 30
0.0
 40
0.1720000000000007
  0
CIRCLE
  5
142
330
1F
100
AcDbEntity
  8
Layer1
 62
     7
370
    25
100
AcDbCircle
 10
253.1149992424773
 20
-128.8031454858579
 30
0.0
 40
0.1720000000000487
  0
CIRCLE
  5
143
330
1F
100
AcDbEntity
  8
Layer1
 62
     7
370
    25
100
AcDbCircle
 10
261.9119503027262
 20
-128.8028210988685
 30
0.0
 40
0.1720000000000255
  0
DIMENSION
  5
144
330
1F
100
AcDbEntity
  8
0
100
AcDbDimension
  2
*D12
 10
281.7525983343448
 20
-135.2579720548967
 30
0.0
 11
281.7525983343448
 21
-130.2269598885458
 31
0.0
 70
   160
  1
10
 71
     5
 42
7.878857810943908
  3
OdaDimStyle0
100
AcDbAlignedDimension
 13
275.3498074254815
 23
-125.2378496602208
 33
0.0
 14
275.3498074254815
 24
-135.2579720548967
 34
0.0
 50
270.0
100
AcDbRotatedDimension
1001
ACAD
1000
DSTYLE
1002
{
1070
    41
1040
1.0
1070
   140
1040
0.5
1002
}
  0
ARC
  5
152
330
1F
100
AcDbEntity
  8
Layer1
 62
     7
370
    25
100
AcDbCircle
 10
257.5021136144088
 20
-130.2532547303499
 30
0.0
 40
5.010061197337999
100
AcDbArc
 50
237.4499026024467
 51
126.6232737523879
  0
ARC
  5
153
330
1F
100
AcDbEntity
  8
Layer1
 62
     7
370
    25
100
AcDbCircle
 10
257.7876073454148
 20
-129.4862119594823
 30
0.0
 40
5.812770786630027
100
AcDbArc
 50
192.8837205536772
 51
239.1460116902908
  0
LINE
  5
154
330
1F
100
AcDbEntity
  8
Layer1
 62
     7
370
    25
100
AcDbLine
 10
252.5133569321301
 20
-126.3323037613369
 30
0.0
 11
252.5133569321301
 21
-126.2323037613369
 31
0.0
  0
LINE
  5
155
330
1F
100
AcDbEntity
  8
Layer1
 62
     7
370
    25
100
AcDbLine
 10
252.0133569321301
 20
-126.3323037613369
 30
0.0
 11
252.5133569321301
 21
-126.3323037613369
 31
0.0
  0
LINE
  5
156
330
1F
100
AcDbEntity
  8
Layer1
 62
     7
370
    25
100
AcDbLine
 10
252.0133569321301
 20
-126.3323037613369
 30
0.0
 11
252.0133569321301
 21
-129.6823037613369
 31
0.0
  0
LINE
  5
157
330
1F
100
AcDbEntity
  8
Layer1
 62
     7
370
    25
100
AcDbLine
 10
252.1133569321302
 20
-129.6823037613369
 30
0.0
 11
252.0133569321301
 21
-129.6823037613369
 31
0.0
  0
LINE
  5
158
330
1F
100
AcDbEntity
  8
Layer1
 62
     7
370
    25
100
AcDbLine
 10
252.1133569321302
 20
-129.7323037613369
 30
0.0
 11
252.1133569321302
 21
-129.6823037613369
 31
0.0
  0
ARC
  5
159
330
1F
100
AcDbEntity
  8
Layer1
 62
     7
370
    25
100
AcDbCircle
 10
257.1800235988283
 20
-129.7323037613374
 30
0.0
 40
5.066666666664787
100
AcDbArc
 50
180.0
 51
191.9604730907987
  0
LINE
  5
15A
330
1F
100
AcDbEntity
  8
Layer1
 62
     7
370
    25
100
AcDbLine
 10
252.1211754646301
 20
-130.7823037613369
 30
0.0
 11
252.2233502071301
 21
-130.7823037613369
 31
0.0
  0
LINE
  5
15B
330
1F
100
AcDbEntity
  8
Layer1
 62
     7
370
    25
100
AcDbLine
 10
254.5133569321301
 20
-126.2323037613369
 30
0.0
 11
252.5133569321301
 21
-126.2323037613369
 31
0.0
  0
DIMENSION
  5
15C
330
1F
100
AcDbEntity
  8
0
100
AcDbDimension
  2
*D13
 10
263.7692817487838
 20
-135.2633159276879
 30
0.0
 11
263.7692817487838
 21
-130.2532547303499
 31
0.0
 70
   160
  1
10
 71
     5
 42
7.999629687450438
  3
OdaDimStyle0
100
AcDbAlignedDimension
 13
257.1271136144087
 23
-125.2431935330119
 33
0.0
 14
257.1271136144087
 24
-135.2633159276878
 34
0.0
 50
270.0
100
AcDbRotatedDimension
1001
ACAD
1000
DSTYLE
1002
{
1070
    41
1040
1.0
1070
   140
1040
0.5
1002
}
  0
ARC
  5
16A
330
1F
100
AcDbEntity
  8
Layer1
 62
     7
370
    25
100
AcDbCircle
 10
275.4748074254815
 20
-130.2479108575587
 30
0.0
 40
5.010061197338054
100
AcDbArc
 50
237.4499026024464
 51
126.6232737523886
  0
ARC
  5
16B
330
1F
100
AcDbEntity
  8
Layer1
 62
     7
370
    25
100
AcDbCircle
 10
275.7603011564878
 20
-129.4808680866911
 30
0.0
 40
5.812770786630256
100
AcDbArc
 50
192.883720553677
 51
239.1460116902882
  0
LINE
  5
16C
330
1F
100
AcDbEntity
  8
Layer1
 62
     7
370
    25
100
AcDbLine
 10
270.0860507432029
 20
-129.7269598885458
 30
0.0
 11
270.0860507432029
 21
-129.6769598885458
 31
0.0
  0
ARC
  5
16D
330
1F
100
AcDbEntity
  8
Layer1
 62
     7
370
    25
100
AcDbCircle
 10
275.1527174098906
 20
-129.7269598885468
 30
0.0
 40
5.066666666654328
100
AcDbArc
 50
180.0
 51
191.9604730908175
  0
LINE
  5
16E
330
1F
100
AcDbEntity
  8
Layer1
 62
     7
370
    25
100
AcDbLine
 10
270.0938692757029
 20
-130.7769598885458
 30
0.0
 11
270.1960440182029
 21
-130.7769598885458
 31
0.0
  0
LINE
  5
16F
330
1F
100
AcDbEntity
  8
Layer1
 62
     7
370
    25
100
AcDbLine
 10
272.4860507432028
 20
-126.2269598885458
 30
0.0
 11
270.4860507432029
 21
-126.2269598885458
 31
0.0
  0
LINE
  5
170
330
1F
100
AcDbEntity
  8
Layer1
 62
     7
370
    25
100
AcDbLine
 10
270.4860507432029
 20
-126.3269598885458
 30
0.0
 11
270.4860507432029
 21
-126.2269598885458
 31
0.0
  0
LINE
  5
171
330
1F
100
AcDbEntity
  8
Layer1
 62
     7
370
    25
100
AcDbLine
 10
269.9860507432029
 20
-126.3269598885458
 30
0.0
 11
270.4860507432029
 21
-126.3269598885458
 31
0.0
  0
LINE
  5
172
330
1F
100
AcDbEntity
  8
Layer1
 62
     7
370
    25
100
AcDbLine
 10
269.9860507432029
 20
-126.3269598885458
 30
0.0
 11
269.9860507432029
 21
-129.6769598885458
 31
0.0
  0
LINE
  5
173
330
1F
100
AcDbEntity
  8
Layer1
 62
     7
370
    25
100
AcDbLine
 10
270.0860507432029
 20
-129.6769598885458
 30
0.0
 11
269.9860507432029
 21
-129.6769598885458
 31
0.0
  0
DIMENSION
  5
174
330
1F
100
AcDbEntity
  8
0
100
AcDbDimension
  2
*D14
 10
267.5634348166122
 20
-134.8519598885457
 30
0.0
 11
267.5634348166122
 21
-130.2269598885458
 31
0.0
 70
   160
 71
     5
 42
9.249999999999972
  3
OdaDimStyle0
100
AcDbAlignedDimension
 13
275.3610507432029
 23
-125.6019598885458
 33
0.0
 14
275.3610507432029
 24
-134.8519598885457
 34
0.0
 50
270.0
100
AcDbRotatedDimension
1001
ACAD
1000
DSTYLE
1002
{
1070
    41
1040
1.0
1070
   140
1040
0.5
1002
}
  0
CIRCLE
  5
182
330
1F
100
AcDbEntity
  8
Layer1
  6
Dotted_G
 62
     7
370
    25
100
AcDbCircle
 10
275.4860507432029
 20
-130.2269598885458
 30
0.0
 40
4.625
  0
DIMENSION
  5
183
330
1F
100
AcDbEntity
  8
0
100
AcDbDimension
  2
*D15
 10
249.7871256125135
 20
-134.8573037613369
 30
0.0
 11
249.7871256125135
 21
-130.2323037613369
 31
0.0
 70
   160
 71
     5
 42
9.249999999999972
  3
OdaDimStyle0
100
AcDbAlignedDimension
 13
257.3883569321301
 23
-125.6073037613369
 33
0.0
 14
257.3883569321301
 24
-134.8573037613369
 34
0.0
 50
270.0
100
AcDbRotatedDimension
1001
ACAD
1000
DSTYLE
1002
{
1070
    41
1040
1.0
1070
   140
1040
0.5
1002
}
  0
DIMENSION
  5
191
330
1F
100
AcDbEntity
  8
0
100
AcDbDimension
  2
*D16
 10
275.4860507432029
 20
-134.1019598885458
 30
0.0
 11
275.4860507432029
 21
-129.4401536028042
 31
0.0
 70
   160
 71
     5
 42
7.750000000000028
  3
OdaDimStyle0
100
AcDbAlignedDimension
 13
275.4860507432029
 23
-126.3519598885458
 33
0.0
 14
275.4860507432029
 24
-134.1019598885458
 34
0.0
 50
270.0
100
AcDbRotatedDimension
1001
ACAD
1000
DSTYLE
1002
{
1070
    41
1040
1.0
1070
   140
1040
0.5
1002
}
  0
CIRCLE
  5
19F
330
1F
100
AcDbEntity
  8
Layer1
 62
     7
370
    25
100
AcDbCircle
 10
275.4860507432029
 20
-130.2269598885458
 30
0.0
 40
3.875
  0
CIRCLE
  5
1A0
330
1F
100
AcDbEntity
  8
Layer1
 62
     7
370
    25
100
AcDbCircle
 10
249.9248952789053
 20
-150.3062863138946
 30
0.0
 40
0.1719999999999359
  0
CIRCLE
  5
1A1
330
1F
100
AcDbEntity
  8
Layer1
 62
     7
370
    25
100
AcDbCircle
 10
251.6051541026163
 20
-155.4769424598453
 30
0.0
 40
0.1719999999999819
  0
LINE
  5
1A2
330
1F
100
AcDbEntity
  8
Layer1
 62
     7
370
    25
100
AcDbLine
 10
276.3270562916257
 20
-140.7098683513056
 30
0.0
 11
269.4302966513258
 21
-140.7098683513056
 31
0.0
  0
CIRCLE
  5
1A3
330
1F
100
AcDbEntity
  8
Layer1
  6
Dotted_G
 62
     7
370
    25
100
AcDbCircle
 10
254.3232529685579
 20
-151.7354445893736
 30
0.0
 40
4.624999999999943
  0
CIRCLE
  5
1A4
330
1F
100
AcDbEntity
  8
Layer1
 62
     7
370
    25
100
AcDbCircle
 10
278.2047666298645
 20
-133.9682572768325
 30
0.0
 40
0.1720000000000007
  0
CIRCLE
  5
1A5
330
1F
100
AcDbEntity
  8
Layer1
 62
     7
370
    25
100
AcDbCircle
 10
254.3232529685579
 20
-151.7354445893736
 30
0.0
 40
0.1562500000000666
  0
LINE
  5
1A6
330
1F
100
AcDbEntity
  8
Layer1
 62
     7
370
    25
100
AcDbLine
 10
250.718724921526
 20
-143.0848683513056
 30
0.0
 11
255.2554749215259
 21
-143.0848683513056
 31
0.0
  0
LINE
  5
1A7
330
1F
100
AcDbEntity
  8
Layer1
 62
     7
370
    25
100
AcDbLine
 10
268.4288414975258
 20
-143.1473683513056
 30
0.0
 11
269.4302966513258
 21
-143.1473683513056
 31
0.0
  0
LINE
  5
1A8
330
1F
100
AcDbEntity
  8
Layer1
 62
     7
370
    25
100
AcDbLine
 10
268.4288414975258
 20
-140.6473683513056
 30
0.0
 11
268.4288414975258
 21
-140.7098683513056
 31
0.0
  0
LINE
  5
1A9
330
1F
100
AcDbEntity
  8
Layer1
 62
     7
370
    25
100
AcDbLine
 10
262.5791873697258
 20
-140.7098683513056
 30
0.0
 11
262.5791873697258
 21
-140.6473683513056
 31
0.0
  0
LINE
  5
1AA
330
1F
100
AcDbEntity
  8
Layer1
 62
     7
370
    25
100
AcDbLine
 10
261.5632935603301
 20
-130.7823037613369
 30
0.0
 11
261.6636667107301
 21
-130.7823037613369
 31
0.0
  0
LINE
  5
1AB
330
1F
100
AcDbEntity
  8
Layer1
 62
     7
370
    25
100
AcDbLine
 10
261.5759573491258
 20
-143.1473683513056
 30
0.0
 11
262.5821873697258
 21
-143.1473683513056
 31
0.0
  0
LINE
  5
1AC
330
1F
100
AcDbEntity
  8
Layer1
 62
     7
370
    25
100
AcDbLine
 10
261.5789573491259
 20
-140.6473683513056
 30
0.0
 11
262.5791873697258
 21
-140.6473683513056
 31
0.0
  0
CIRCLE
  5
1AD
330
1F
100
AcDbEntity
  8
Layer1
 62
     7
370
    25
100
AcDbCircle
 10
271.0876930535502
 20
-128.7978016130667
 30
0.0
 40
0.1719999999999819
  0
CIRCLE
  5
1AE
330
1F
100
AcDbEntity
  8
Layer1
 62
     7
370
    25
100
AcDbCircle
 10
279.8846441137989
 20
-128.7974772260774
 30
0.0
 40
0.171999999999997
  0
LINE
  5
1AF
330
1F
100
AcDbEntity
  8
Layer1
 62
     7
370
    25
100
AcDbLine
 10
256.9633569321301
 20
-126.2323037613369
 30
0.0
 11
256.9633569321301
 21
-126.3323037613369
 31
0.0
  0
LINE
  5
1B0
330
1F
100
AcDbEntity
  8
Layer1
 62
     7
370
    25
100
AcDbLine
 10
261.5759573491258
 20
-143.1473683513056
 30
0.0
 11
261.5759573491258
 21
-143.0848683513056
 31
0.0
  0
LINE
  5
1B1
330
1F
100
AcDbEntity
  8
Layer1
 62
     7
370
    25
100
AcDbLine
 10
262.5821873697258
 20
-143.0848683513056
 30
0.0
 11
262.5821873697258
 21
-143.1473683513056
 31
0.0
  0
CIRCLE
  5
1B2
330
1F
100
AcDbEntity
  8
Layer1
 62
     7
370
    25
100
AcDbCircle
 10
258.721846339154
 20
-150.3059619269053
 30
0.0
 40
0.1720000000000255
  0
LINE
  5
1B3
330
1F
100
AcDbEntity
  8
Layer1
 62
     7
370
    25
100
AcDbLine
 10
250.252724921526
 20
-143.1473683513056
 30
0.0
 11
250.718724921526
 21
-143.1473683513056
 31
0.0
  0
CIRCLE
  5
1B4
330
1F
100
AcDbEntity
  8
Layer1
 62
     7
370
    25
100
AcDbCircle
 10
254.3232529685579
 20
-151.7354445893736
 30
0.0
 40
5.0
  0
LINE
  5
1B5
330
1F
100
AcDbEntity
  8
Layer1
 62
     7
370
    25
100
AcDbLine
 10
250.252724921526
 20
-140.6473683513056
 30
0.0
 11
250.252724921526
 21
-143.1473683513056
 31
0.0
  0
LINE
  5
1B6
330
1F
100
AcDbEntity
  8
Layer1
 62
     7
370
    25
100
AcDbLine
 10
280.6923119532257
 20
-140.7098683513056
 30
0.0
 11
280.6923119532257
 21
-143.0848683513056
 31
0.0
  0
LINE
  5
1B7
330
1F
100
AcDbEntity
  8
Layer1
 62
     7
370
    25
100
AcDbLine
 10
261.5759573491258
 20
-143.0848683513056
 30
0.0
 11
256.2555261800259
 21
-143.0848683513056
 31
0.0
  0
LINE
  5
1B8
330
1F
100
AcDbEntity
  8
Layer1
 62
     7
370
    25
100
AcDbLine
 10
261.5789573491259
 20
-140.7098683513056
 30
0.0
 11
256.2555261800259
 21
-140.7098683513056
 31
0.0
  0
ARC
  5
1B9
330
1F
100
AcDbEntity
  8
Layer1
 62
     7
370
    25
100
AcDbCircle
 10
257.1800235988304
 20
-130.3989704279402
 30
0.0
 40
4.399999999996737
100
AcDbArc
 50
269.9999999999963
 51
281.5812634884054
  0
LINE
  5
1BA
330
1F
100
AcDbEntity
  8
Layer1
 62
     7
370
    25
100
AcDbLine
 10
256.9633569321301
 20
-134.7943356326369
 30
0.0
 11
256.9633569321301
 21
-134.8944254181369
 31
0.0
  0
ARC
  5
1BB
330
1F
100
AcDbEntity
  8
Layer1
 62
     7
370
    25
100
AcDbCircle
 10
257.5133569321378
 20
-130.3989704279362
 30
0.0
 40
4.066666666658989
100
AcDbArc
 50
0.0
 51
10.15021582420871
  0
ARC
  5
1BC
330
1F
100
AcDbEntity
  8
Layer1
 62
     7
370
    25
100
AcDbCircle
 10
257.5133569321363
 20
-130.3989704279364
 30
0.0
 40
4.16666666666049
100
AcDbArc
 50
0.0
 51
9.904123684707868
  0
LINE
  5
1BD
330
1F
100
AcDbEntity
  8
Layer1
 62
     7
370
    25
100
AcDbLine
 10
261.6179275552302
 20
-129.6823037613369
 30
0.0
 11
261.5163766256301
 21
-129.6823037613369
 31
0.0
  0
DIMENSION
  5
1BE
330
1F
100
AcDbEntity
  8
0
100
AcDbDimension
  2
*D17
 10
267.0470114327463
 20
-151.713814726269
 30
0.0
 11
267.0470114327463
 21
-150.463814726269
 31
0.0
 70
   160
 71
     5
 42
2.5
  3
OdaDimStyle0
100
AcDbAlignedDimension
 13
267.7417865879984
 23
-149.213814726269
 33
0.0
 14
267.7417865879984
 24
-151.713814726269
 34
0.0
 50
270.0
100
AcDbRotatedDimension
1001
ACAD
1000
DSTYLE
1002
{
1070
    41
1040
1.0
1070
   140
1040
0.5
1002
}
  0
LINE
  5
1CC
330
1F
100
AcDbEntity
  8
Layer1
 62
     7
370
    25
100
AcDbLine
 10
269.4302966513258
 20
-140.7098683513056
 30
0.0
 11
269.4302966513258
 21
-140.6473683513056
 31
0.0
  0
LINE
  5
1CD
330
1F
100
AcDbEntity
  8
Layer1
 62
     7
370
    25
100
AcDbLine
 10
255.2554749215259
 20
-143.1473683513056
 30
0.0
 11
255.2554749215259
 21
-143.0848683513056
 31
0.0
  0
DIMENSION
  5
1CE
330
1F
100
AcDbEntity
  8
0
100
AcDbDimension
  2
*D18
 10
281.2114235359935
 20
-154.0727378486767
 30
0.0
 11
280.0114235359936
 21
-154.0727378486767
 31
0.0
 70
   160
 71
     5
 42
2.399999999999977
  3
OdaDimStyle0
100
AcDbAlignedDimension
 13
278.8114235359935
 23
-153.3898469260316
 33
0.0
 14
281.2114235359935
 24
-153.3898469260316
 34
0.0
100
AcDbRotatedDimension
1001
ACAD
1000
DSTYLE
1002
{
1070
    41
1040
1.0
1070
   140
1040
0.5
1002
}
  0
DIMENSION
  5
1DC
330
1F
100
AcDbEntity
  8
0
100
AcDbDimension
  2
*D19
 10
249.1807374619249
 20
-143.1473683513056
 30
0.0
 11
249.1807374619249
 21
-141.8973683513056
 31
0.0
 70
   160
 71
     5
 42
2.5
  3
OdaDimStyle0
100
AcDbAlignedDimension
 13
250.252724921526
 23
-140.6473683513056
 33
0.0
 14
250.252724921526
 24
-143.1473683513056
 34
0.0
 50
270.0
100
AcDbRotatedDimension
1001
ACAD
1000
DSTYLE
1002
{
1070
    41
1040
1.0
1070
   140
1040
0.5
1002
}
  0
DIMENSION
  5
1EA
330
1F
100
AcDbEntity
  8
0
100
AcDbDimension
  2
*D20
 10
253.8777249215259
 20
-142.8948683513056
 30
0.0
 11
253.8777249215259
 21
-141.8323683513056
 31
0.0
 70
   160
 71
     5
 42
2.125
  3
OdaDimStyle0
100
AcDbAlignedDimension
 13
252.3777249215259
 23
-140.7698683513056
 33
0.0
 14
252.3777249215259
 24
-142.8948683513056
 34
0.0
 50
270.0
100
AcDbRotatedDimension
1001
ACAD
1000
DSTYLE
1002
{
1070
    41
1040
1.0
1070
   140
1040
0.5
1002
}
  0
LINE
  5
1F8
330
1F
100
AcDbEntity
  8
Layer1
 62
     7
370
    25
100
AcDbLine
 10
255.2554749215259
 20
-143.1473683513056
 30
0.0
 11
256.2555261800259
 21
-143.1473683513056
 31
0.0
  0
DIMENSION
  5
1F9
330
1F
100
AcDbEntity
  8
0
100
AcDbDimension
  2
*D21
 10
282.1278385858537
 20
-130.7769598884784
 30
0.0
 11
279.8354576334727
 21
-133.9453619361372
 31
0.0
 70
   160
 71
     5
 42
1.099999999932635
  3
OdaDimStyle0
100
AcDbAlignedDimension
 13
279.4656213663029
 23
-129.6769598885458
 33
0.0
 14
279.5113605218774
 24
-130.7769598884784
 34
0.0
 50
270.0
100
AcDbRotatedDimension
1001
ACAD
1000
DSTYLE
1002
{
1070
    41
1040
1.0
1070
   140
1040
0.5
1002
}
  0
ARC
  5
209
330
1F
100
AcDbEntity
  8
Layer1
 62
     7
370
    25
100
AcDbCircle
 10
257.1800235988306
 20
-129.7323037613086
 30
0.0
 40
5.066666666694999
100
AcDbArc
 50
267.5491041594081
 51
269.9999999999942
  0
DIMENSION
  5
20A
330
1F
100
AcDbEntity
  8
0
100
AcDbDimension
  2
*D22
 10
268.2149310658251
 20
-152.870064726269
 30
0.0
 11
268.2149310658251
 21
-152.713814726269
 31
0.0
 70
   160
 71
     5
 42
0.3125
  3
OdaDimStyle0
100
AcDbAlignedDimension
 13
267.6517865879983
 23
-152.557564726269
 33
0.0
 14
267.6517865879983
 24
-152.870064726269
 34
0.0
 50
270.0
100
AcDbRotatedDimension
1001
ACAD
1000
DSTYLE
1002
{
1070
    41
1040
1.0
1070
   140
1040
0.5
1002
}
  0
DIMENSION
  5
218
330
1F
100
AcDbEntity
  8
0
100
AcDbDimension
  2
*D23
 10
250.4536332306575
 20
-155.6489424598453
 30
0.0
 11
252.7817284687527
 21
-153.2491463521709
 31
0.0
 70
   160
 71
     5
 42
0.3439999999999941
  3
OdaDimStyle0
100
AcDbAlignedDimension
 13
251.6051541026163
 23
-155.3049424598453
 33
0.0
 14
251.6051541026163
 24
-155.6489424598453
 34
0.0
 50
270.0
100
AcDbRotatedDimension
1001
ACAD
1000
DSTYLE
1002
{
1070
    41
1040
1.0
1070
   140
1040
0.5
1002
}
  0
LINE
  5
228
330
1F
100
AcDbEntity
  8
Layer1
 62
     7
370
    25
100
AcDbLine
 10
277.3290619532257
 20
-143.0848683513056
 30
0.0
 11
280.6923119532257
 21
-143.0848683513056
 31
0.0
  0
LINE
  5
229
330
1F
100
AcDbEntity
  8
Layer1
 62
     7
370
    25
100
AcDbLine
 10
276.3270562916257
 20
-143.1473683513056
 30
0.0
 11
277.3290619532257
 21
-143.1473683513056
 31
0.0
  0
LINE
  5
22A
330
1F
100
AcDbEntity
  8
Layer1
 62
     7
370
    25
100
AcDbLine
 10
276.3270562916257
 20
-140.6473683513056
 30
0.0
 11
276.3270562916257
 21
-140.7098683513056
 31
0.0
  0
LINE
  5
22B
330
1F
100
AcDbEntity
  8
Layer1
 62
     7
370
    25
100
AcDbLine
 10
277.3290619532257
 20
-140.6473683513056
 30
0.0
 11
277.3290619532257
 21
-140.7098683513056
 31
0.0
  0
LINE
  5
22C
330
1F
100
AcDbEntity
  8
Layer1
 62
     7
370
    25
100
AcDbLine
 10
278.8114235359935
 20
-153.3898469260316
 30
0.0
 11
281.2114235359935
 21
-153.3898469260316
 31
0.0
  0
LINE
  5
22D
330
1F
100
AcDbEntity
  8
Layer1
 62
     7
370
    25
100
AcDbLine
 10
278.8114235359935
 20
-153.2648469260316
 30
0.0
 11
278.2614235359936
 21
-153.2648469260316
 31
0.0
  0
LINE
  5
22E
330
1F
100
AcDbEntity
  8
Layer1
 62
     7
370
    25
100
AcDbLine
 10
281.2114235359935
 20
-153.2648469260316
 30
0.0
 11
281.5114235359936
 21
-153.2648469260316
 31
0.0
  0
LINE
  5
22F
330
1F
100
AcDbEntity
  8
Layer1
 62
     7
370
    25
100
AcDbLine
 10
281.2114235359935
 20
-153.3898469260316
 30
0.0
 11
281.2114235359935
 21
-153.2648469260316
 31
0.0
  0
LINE
  5
230
330
1F
100
AcDbEntity
  8
Layer1
 62
     7
370
    25
100
AcDbLine
 10
278.8114235359935
 20
-153.3898469260316
 30
0.0
 11
278.8114235359935
 21
-153.2648469260316
 31
0.0
  0
LINE
  5
231
330
1F
100
AcDbEntity
  8
Layer1
 62
     7
370
    25
100
AcDbLine
 10
278.2614235359936
 20
-153.2648469260316
 30
0.0
 11
278.2614235359936
 21
-152.4518469260316
 31
0.0
  0
LINE
  5
232
330
1F
100
AcDbEntity
  8
Layer1
 62
     7
370
    25
100
AcDbLine
 10
281.5114235359936
 20
-151.5148469260316
 30
0.0
 11
280.0114235359936
 21
-151.5148469260316
 31
0.0
  0
LINE
  5
233
330
1F
100
AcDbEntity
  8
Layer1
 62
     7
370
    25
100
AcDbLine
 10
278.2614235359936
 20
-152.4518469260316
 30
0.0
 11
280.0114235359936
 21
-151.5148469260316
 31
0.0
  0
LINE
  5
234
330
1F
100
AcDbEntity
  8
Layer1
 62
     7
370
    25
100
AcDbLine
 10
281.5114235359936
 20
-153.2648469260316
 30
0.0
 11
281.5114235359936
 21
-151.5148469260316
 31
0.0
  0
CIRCLE
  5
235
330
1F
100
AcDbEntity
  8
Layer1
 62
     7
370
    25
100
AcDbCircle
 10
267.9017865879985
 20
-152.713814726269
 30
0.0
 40
3.749999999999886
  0
CIRCLE
  5
236
330
1F
100
AcDbEntity
  8
Layer1
 62
     7
370
    25
100
AcDbCircle
 10
267.9017865879985
 20
-152.713814726269
 30
0.0
 40
0.15625
  0
LINE
  5
237
330
1F
100
AcDbEntity
  8
Layer1
 62
     7
370
    25
100
AcDbLine
 10
271.2194763517423
 20
-151.5988597539768
 30
0.0
 11
271.2411075413486
 21
-151.6654337101174
 31
0.0
  0
LINE
  5
238
330
1F
100
AcDbEntity
  8
Layer1
 62
     7
370
    25
100
AcDbLine
 10
268.8634662506108
 20
-152.4379761960548
 30
0.0
 11
271.2411075413486
 21
-151.6654337101174
 31
0.0
  0
LINE
  5
239
330
1F
100
AcDbEntity
  8
Layer1
 62
     7
370
    25
100
AcDbLine
 10
267.9367865879984
 20
-151.713814726269
 30
0.0
 11
267.9367865879984
 21
-149.213814726269
 31
0.0
  0
LINE
  5
23A
330
1F
100
AcDbEntity
  8
Layer1
 62
     7
370
    25
100
AcDbLine
 10
267.8667865879985
 20
-149.213814726269
 30
0.0
 11
267.8667865879985
 21
-151.713814726269
 31
0.0
  0
LINE
  5
23B
330
1F
100
AcDbEntity
  8
Layer1
 62
     7
370
    25
100
AcDbLine
 10
264.5624358588758
 20
-151.6653927272826
 30
0.0
 11
264.5840670484821
 21
-151.598818771142
 31
0.0
  0
LINE
  5
23C
330
1F
100
AcDbEntity
  8
Layer1
 62
     7
370
    25
100
AcDbLine
 10
264.5624358588758
 20
-151.6653927272826
 30
0.0
 11
266.9400771496136
 21
-152.43793521322
 31
0.0
  0
LINE
  5
23D
330
1F
100
AcDbEntity
  8
Layer1
 62
     7
370
    25
100
AcDbLine
 10
266.9617083392199
 20
-152.3713612570794
 30
0.0
 11
264.5840670484821
 21
-151.598818771142
 31
0.0
  0
LINE
  5
23E
330
1F
100
AcDbEntity
  8
Layer1
 62
     7
370
    25
100
AcDbLine
 10
271.2194763517423
 20
-151.5988597539768
 30
0.0
 11
268.8418350610045
 21
-152.3714022399141
 31
0.0
  0
LINE
  5
23F
330
1F
100
AcDbEntity
  8
Layer1
 62
     7
370
    25
100
AcDbLine
 10
267.3423876920026
 20
-153.543053799751
 30
0.0
 11
267.2857565023963
 21
-153.5019088320905
 31
0.0
  0
LINE
  5
240
330
1F
100
AcDbEntity
  8
Layer1
 62
     7
370
    25
100
AcDbLine
 10
267.8667865879985
 20
-149.213814726269
 30
0.0
 11
267.9367865879984
 21
-149.213814726269
 31
0.0
  0
LINE
  5
241
330
1F
100
AcDbEntity
  8
Layer1
 62
     7
370
    25
100
AcDbLine
 10
267.8667865879985
 20
-151.713814726269
 30
0.0
 11
267.9367865879984
 21
-151.713814726269
 31
0.0
  0
LINE
  5
242
330
1F
100
AcDbEntity
  8
Layer1
 62
     7
370
    25
100
AcDbLine
 10
268.8418350610045
 20
-152.3714022399141
 30
0.0
 11
268.8634662506108
 21
-152.4379761960548
 31
0.0
  0
LINE
  5
243
330
1F
100
AcDbEntity
  8
Layer1
 62
     7
370
    25
100
AcDbLine
 10
266.9617083392199
 20
-152.3713612570794
 30
0.0
 11
266.9400771496136
 21
-152.43793521322
 31
0.0
  0
LINE
  5
244
330
1F
100
AcDbEntity
  8
Layer1
 62
     7
370
    25
100
AcDbLine
 10
268.4611075300101
 20
-153.5430791285358
 30
0.0
 11
268.5177387196163
 21
-153.5019341608753
 31
0.0
  0
LINE
  5
245
330
1F
100
AcDbEntity
  8
Layer1
 62
     7
370
    25
100
AcDbLine
 10
265.8729245612715
 20
-155.5655962856883
 30
0.0
 11
265.8162933716652
 21
-155.5244513180279
 31
0.0
  0
LINE
  5
246
330
1F
100
AcDbEntity
  8
Layer1
 62
     7
370
    25
100
AcDbLine
 10
269.9872018503473
 20
-155.5244766468127
 30
0.0
 11
269.9305706607411
 21
-155.5656216144732
 31
0.0
  0
LINE
  5
247
330
1F
100
AcDbEntity
  8
Layer1
 62
     7
370
    25
100
AcDbLine
 10
265.8729245612715
 20
-155.5655962856883
 30
0.0
 11
267.3423876920026
 21
-153.543053799751
 31
0.0
  0
LINE
  5
248
330
1F
100
AcDbEntity
  8
Layer1
 62
     7
370
    25
100
AcDbLine
 10
267.2857565023963
 20
-153.5019088320905
 30
0.0
 11
265.8162933716652
 21
-155.5244513180279
 31
0.0
  0
LINE
  5
249
330
1F
100
AcDbEntity
  8
Layer1
 62
     7
370
    25
100
AcDbLine
 10
269.9872018503473
 20
-155.5244766468127
 30
0.0
 11
268.5177387196163
 21
-153.5019341608753
 31
0.0
  0
LINE
  5
24A
330
1F
100
AcDbEntity
  8
Layer1
 62
     7
370
    25
100
AcDbLine
 10
268.4611075300101
 20
-153.5430791285358
 30
0.0
 11
269.9305706607411
 21
-155.5656216144732
 31
0.0
  0
LINE
  5
24B
330
1F
100
AcDbEntity
  8
Layer1
 62
     7
370
    25
100
AcDbLine
 10
276.3270562916257
 20
-140.6473683513056
 30
0.0
 11
277.3290619532257
 21
-140.6473683513056
 31
0.0
  0
LINE
  5
24C
330
1F
100
AcDbEntity
  8
Layer1
 62
     7
370
    25
100
AcDbLine
 10
276.3270562916257
 20
-143.1473683513056
 30
0.0
 11
276.3270562916257
 21
-143.0848683513056
 31
0.0
  0
LINE
  5
24D
330
1F
100
AcDbEntity
  8
Layer1
 62
     7
370
    25
100
AcDbLine
 10
276.3270562916257
 20
-143.0848683513056
 30
0.0
 11
269.4302966513258
 21
-143.0848683513056
 31
0.0
  0
ARC
  5
24E
330
1F
100
AcDbEntity
  8
Layer1
 62
     7
370
    25
100
AcDbCircle
 10
275.1527174099007
 20
-129.7269598886405
 30
0.0
 40
5.066666666571962
100
AcDbArc
 50
267.5491041593781
 51
270.0000000000251
  0
ARC
  5
24F
330
1F
100
AcDbEntity
  8
Layer1
 62
     7
370
    25
100
AcDbCircle
 10
275.1527174099031
 20
-130.3936265551492
 30
0.0
 40
4.399999999996567
100
AcDbArc
 50
269.9999999999978
 51
281.5812634884059
  0
ARC
  5
250
330
1F
100
AcDbEntity
  8
Layer1
 62
     7
370
    25
100
AcDbCircle
 10
275.1527174099029
 20
-130.3936265551464
 30
0.0
 40
4.499999999999346
100
AcDbArc
 50
270.0
 51
281.3204595668005
  0
ARC
  5
251
330
1F
100
AcDbEntity
  8
Layer1
 62
     7
370
    25
100
AcDbCircle
 10
275.1527174099009
 20
-129.7269598886444
 30
0.0
 40
5.166666666568005
100
AcDbArc
 50
267.5965689714768
 51
270.0000000000227
  0
LINE
  5
252
330
1F
100
AcDbEntity
  8
Layer1
 62
     7
370
    25
100
AcDbLine
 10
274.9360507432029
 20
-134.7889917598457
 30
0.0
 11
274.9360507432029
 21
-134.8890815453458
 31
0.0
  0
LINE
  5
253
330
1F
100
AcDbEntity
  8
Layer1
 62
     7
370
    25
100
AcDbLine
 10
276.0360507432028
 20
-134.8060773732458
 30
0.0
 11
276.0360507432028
 21
-134.7040467460457
 31
0.0
  0
CIRCLE
  5
254
330
1F
100
AcDbEntity
  8
Layer1
 62
     7
370
    25
100
AcDbCircle
 10
257.0419688552195
 20
-155.4767419776604
 30
0.0
 40
0.1720000000000007
  0
DIMENSION
  5
255
330
1F
100
AcDbEntity
  8
0
100
AcDbDimension
  2
*D24
 10
267.9367865879984
 20
-147.588814726269
 30
0.0
 11
271.2648818260936
 21
-147.588814726269
 31
0.0
 70
   160
 71
     5
 42
0.0699999999999363
  3
OdaDimStyle0
100
AcDbAlignedDimension
 13
267.8667865879985
 23
-149.088814726269
 33
0.0
 14
267.9367865879984
 24
-149.088814726269
 34
0.0
100
AcDbRotatedDimension
1001
ACAD
1000
DSTYLE
1002
{
1070
    41
1040
1.0
1070
   140
1040
0.5
1002
}
  0
DIMENSION
  5
264
330
1F
100
AcDbEntity
  8
0
100
AcDbDimension
  2
*D25
 10
284.2007466724444
 20
-153.3898469260316
 30
0.0
 11
281.8726514343492
 21
-155.3898469260316
 31
0.0
 70
   160
 71
     5
 42
0.125
  3
OdaDimStyle0
100
AcDbAlignedDimension
 13
281.2114235359935
 23
-153.2648469260316
 33
0.0
 14
281.2114235359935
 24
-153.3898469260316
 34
0.0
 50
270.0
100
AcDbRotatedDimension
1001
ACAD
1000
DSTYLE
1002
{
1070
    41
1040
1.0
1070
   140
1040
0.5
1002
}
  0
DIMENSION
  5
274
330
1F
100
AcDbEntity
  8
0
100
AcDbDimension
  2
*D26
 10
283.4591025966016
 20
-153.2648469260316
 30
0.0
 11
283.4591025966016
 21
-152.3898469260316
 31
0.0
 70
   160
 71
     5
 42
1.75
  3
OdaDimStyle0
100
AcDbAlignedDimension
 13
281.5114235359936
 23
-151.5148469260316
 33
0.0
 14
281.5114235359936
 24
-153.2648469260316
 34
0.0
 50
270.0
100
AcDbRotatedDimension
1001
ACAD
1000
DSTYLE
1002
{
1070
    41
1040
1.0
1070
   140
1040
0.5
1002
}
  0
DIMENSION
  5
282
330
1F
100
AcDbEntity
  8
0
100
AcDbDimension
  2
*D27
 10
272.3738805994127
 20
-156.4636513893785
 30
0.0
 11
272.3738805994127
 21
-152.713814726269
 31
0.0
 70
   160
 71
     5
 42
7.499836663109477
  3
OdaDimStyle0
100
AcDbAlignedDimension
 13
267.9017865879985
 23
-148.963814726269
 33
0.0
 14
267.9367865879984
 24
-156.4636513893785
 34
0.0
 50
270.0
100
AcDbRotatedDimension
1001
ACAD
1000
DSTYLE
1002
{
1070
    41
1040
1.0
1070
   140
1040
0.5
1002
}
  0
DIMENSION
  5
290
330
1F
100
AcDbEntity
  8
0
100
AcDbDimension
  2
*D28
 10
278.8114235359935
 20
-152.8307523354473
 30
0.0
 11
274.9333282978984
 21
-152.8307523354473
 31
0.0
 70
   160
 71
     5
 42
0.5499999999999545
  3
OdaDimStyle0
100
AcDbAlignedDimension
 13
278.2614235359936
 23
-153.3898469260316
 33
0.0
 14
278.8114235359935
 24
-153.3898469260316
 34
0.0
100
AcDbRotatedDimension
1001
ACAD
1000
DSTYLE
1002
{
1070
    41
1040
1.0
1070
   140
1040
0.5
1002
}
  0
LINE
  5
29F
330
1F
100
AcDbEntity
  8
Layer1
 62
     7
370
    25
100
AcDbLine
 10
250.718724921526
 20
-140.7098683513056
 30
0.0
 11
255.2554749215259
 21
-140.7098683513056
 31
0.0
  0
LINE
  5
2A0
330
1F
100
AcDbEntity
  8
Layer1
 62
     7
370
    25
100
AcDbLine
 10
277.3290619532257
 20
-143.1473683513056
 30
0.0
 11
277.3290619532257
 21
-143.0848683513056
 31
0.0
  0
CIRCLE
  5
2A1
330
1F
100
AcDbEntity
  8
Layer1
 62
     7
370
    25
100
AcDbCircle
 10
251.5027249215259
 20
-141.8323683513056
 30
0.0
 40
1.0625
  0
DIMENSION
  5
2A2
330
1F
100
AcDbEntity
  8
0
100
AcDbDimension
  2
*D29
 10
247.9902905614336
 20
-156.3604445893736
 30
0.0
 11
247.9902905614336
 21
-151.7354445893736
 31
0.0
 70
   160
 71
     5
 42
9.249999999999943
  3
OdaDimStyle0
100
AcDbAlignedDimension
 13
254.0732529685579
 23
-147.1104445893737
 33
0.0
 14
254.0732529685579
 24
-156.3604445893736
 34
0.0
 50
270.0
100
AcDbRotatedDimension
1001
ACAD
1000
DSTYLE
1002
{
1070
    41
1040
1.0
1070
   140
1040
0.5
1002
}
  0
LINE
  5
2B0
330
1F
100
AcDbEntity
  8
Layer1
 62
     7
370
    25
100
AcDbLine
 10
268.4288414975258
 20
-140.6473683513056
 30
0.0
 11
269.4302966513258
 21
-140.6473683513056
 31
0.0
  0
DIMENSION
  5
2B1
330
1F
100
AcDbEntity
  8
0
100
AcDbDimension
  2
*D30
 10
262.7485844014914
 20
-143.1473683513056
 30
0.0
 11
260.4204891633962
 21
-145.1473683513056
 31
0.0
 70
   160
 71
     5
 42
0.0625
  3
OdaDimStyle0
100
AcDbAlignedDimension
 13
261.3321873697258
 23
-143.0848683513056
 33
0.0
 14
261.3321873697258
 24
-143.1473683513056
 34
0.0
 50
270.0
100
AcDbRotatedDimension
1001
ACAD
1000
DSTYLE
1002
{
1070
    41
1040
1.0
1070
   140
1040
0.5
1002
}
  0
LINE
  5
2C1
330
1F
100
AcDbEntity
  8
Layer1
 62
     7
370
    25
100
AcDbLine
 10
268.4288414975258
 20
-143.0848683513056
 30
0.0
 11
262.5821873697258
 21
-143.0848683513056
 31
0.0
  0
CIRCLE
  5
2C2
330
1F
100
AcDbEntity
  8
Layer1
 62
     7
370
    25
100
AcDbCircle
 10
272.7679518772612
 20
-133.9684577590174
 30
0.0
 40
0.1719999999999819
  0
DIMENSION
  5
2C3
330
1F
100
AcDbEntity
  8
0
100
AcDbDimension
  2
*D31
 10
269.1634348166123
 20
-130.2269598885458
 30
0.0
 11
269.1634348166123
 21
-128.4301960900042
 31
0.0
 70
   160
 71
     5
 42
4.0
  3
OdaDimStyle0
100
AcDbAlignedDimension
 13
272.213434816612
 23
-126.2269598885458
 33
0.0
 14
272.213434816612
 24
-130.2269598885458
 34
0.0
 50
270.0
100
AcDbRotatedDimension
1001
ACAD
1000
DSTYLE
1002
{
1070
    41
1040
1.0
1070
   140
1040
0.5
1002
}
  0
DIMENSION
  5
2D1
330
1F
100
AcDbEntity
  8
0
100
AcDbDimension
  2
*D32
 10
251.2662922791799
 20
-130.2323037613369
 30
0.0
 11
251.2662922791799
 21
-128.0073037613369
 31
0.0
 70
   160
 71
     5
 42
4.000000000002331
  3
OdaDimStyle0
100
AcDbAlignedDimension
 13
253.8883569321332
 23
-126.2323037613346
 33
0.0
 14
253.8883569321332
 24
-130.2323037613369
 34
0.0
 50
270.0
100
AcDbRotatedDimension
1001
ACAD
1000
DSTYLE
1002
{
1070
    41
1040
1.0
1070
   140
1040
0.5
1002
}
  0
DIMENSION
  5
2DF
330
1F
100
AcDbEntity
  8
0
100
AcDbDimension
  2
*D33
 10
257.5133569321301
 20
-129.5223965945615
 30
0.0
 11
254.7633569321332
 21
-129.5223965945615
 31
0.0
 70
   160
 71
     5
 42
5.5
  3
OdaDimStyle0
100
AcDbAlignedDimension
 13
252.0133569321301
 23
-130.6618822716448
 33
0.0
 14
257.5133569321301
 24
-130.6618822716448
 34
0.0
100
AcDbRotatedDimension
1001
ACAD
1000
DSTYLE
1002
{
1070
    41
1040
1.0
1070
   140
1040
0.5
1002
}
  0
LINE
  5
2ED
330
1F
100
AcDbEntity
  8
Layer1
 62
     7
370
    25
100
AcDbLine
 10
258.0633569321301
 20
-126.3696680345369
 30
0.0
 11
258.0633569321301
 21
-126.2687632768369
 31
0.0
  0
LINE
  5
2EE
330
1F
100
AcDbEntity
  8
Layer1
 62
     7
370
    25
100
AcDbLine
 10
257.5133569321301
 20
-126.2323037613369
 30
0.0
 11
256.9633569321301
 21
-126.2323037613369
 31
0.0
  0
ARC
  5
2EF
330
1F
100
AcDbEntity
  8
Layer1
 62
     7
370
    25
100
AcDbCircle
 10
257.5133569321296
 20
-130.3989704279445
 30
0.0
 40
4.166666666674217
100
AcDbArc
 50
82.41482001210571
 51
89.99999999999218
  0
LINE
  5
2F0
330
1F
100
AcDbEntity
  8
Layer1
 62
     7
370
    25
100
AcDbLine
 10
274.9360507432029
 20
-126.2269598885458
 30
0.0
 11
274.9360507432029
 21
-126.3269598885458
 31
0.0
  0
LINE
  5
2F1
330
1F
100
AcDbEntity
  8
Layer1
 62
     7
370
    25
100
AcDbLine
 10
275.4860507432029
 20
-126.2269598885458
 30
0.0
 11
274.9360507432029
 21
-126.2269598885458
 31
0.0
  0
ARC
  5
2F2
330
1F
100
AcDbEntity
  8
Layer1
 62
     7
370
    25
100
AcDbCircle
 10
275.4860507432024
 20
-130.3936265551523
 30
0.0
 40
4.166666666673216
100
AcDbArc
 50
82.41482001210545
 51
89.99999999999375
  0
LINE
  5
2F3
330
1F
100
AcDbEntity
  8
Layer1
 62
     7
370
    25
100
AcDbLine
 10
276.0360507432028
 20
-126.3643241617458
 30
0.0
 11
276.0360507432028
 21
-126.2634194040457
 31
0.0
  0
ARC
  5
2F4
330
1F
100
AcDbEntity
  8
Layer1
 62
     7
370
    25
100
AcDbCircle
 10
275.4860507432039
 20
-130.3936265551303
 30
0.0
 40
4.066666666651196
100
AcDbArc
 50
82.22716057558453
 51
90.00000000001361
  0
LINE
  5
2F5
330
1F
100
AcDbEntity
  8
Layer1
 62
     7
370
    25
100
AcDbLine
 10
274.9360507432029
 20
-126.3269598885458
 30
0.0
 11
275.4860507432029
 21
-126.3269598885458
 31
0.0
  0
ARC
  5
2F6
330
1F
100
AcDbEntity
  8
Layer1
 62
     7
370
    25
100
AcDbCircle
 10
257.5133569321309
 20
-130.3989704279271
 30
0.0
 40
4.066666666656824
100
AcDbArc
 50
82.22716057559293
 51
90.00000000001121
  0
LINE
  5
2F7
330
1F
100
AcDbEntity
  8
Layer1
 62
     7
370
    25
100
AcDbLine
 10
256.9633569321301
 20
-126.3323037613369
 30
0.0
 11
257.5133569321301
 21
-126.3323037613369
 31
0.0
  0
CIRCLE
  5
2F8
330
1F
100
AcDbEntity
  8
Layer1
 62
     7
370
    25
100
AcDbCircle
 10
275.4860507432029
 20
-125.6019598885458
 30
0.0
 40
0.1720000000000007
  0
ARC
  5
2F9
330
1F
100
AcDbEntity
  8
Layer1
 62
     7
370
    25
100
AcDbCircle
 10
257.1800235988646
 20
-130.3989704279392
 30
0.0
 40
4.399999999965417
100
AcDbArc
 50
355.0019860134909
 51
0.0
  0
ARC
  5
2FA
330
1F
100
AcDbEntity
  8
Layer1
 62
     7
370
    25
100
AcDbCircle
 10
275.1527174099344
 20
-130.3936265551463
 30
0.0
 40
4.499999999968508
100
AcDbArc
 50
355.113326177573
 51
0.0
  0
LINE
  5
2FB
330
1F
100
AcDbEntity
  8
Layer1
 62
     7
370
    25
100
AcDbLine
 10
279.5359873714029
 20
-130.7769598885458
 30
0.0
 11
279.6363605218029
 21
-130.7769598885458
 31
0.0
  0
ARC
  5
2FC
330
1F
100
AcDbEntity
  8
Layer1
 62
     7
370
    25
100
AcDbCircle
 10
275.1527174098776
 20
-130.3936265551442
 30
0.0
 40
4.40000000002533
100
AcDbArc
 50
355.0019860135078
 51
0.0
  0
ARC
  5
2FD
330
1F
100
AcDbEntity
  8
Layer1
 62
     7
370
    25
100
AcDbCircle
 10
275.4860507431957
 20
-130.393626555147
 30
0.0
 40
4.066666666673882
100
AcDbArc
 50
0.0
 51
10.15021582419972
  0
LINE
  5
2FE
330
1F
100
AcDbEntity
  8
Layer1
 62
     7
370
    25
100
AcDbLine
 10
279.5906213663029
 20
-129.6769598885458
 30
0.0
 11
279.4890704367029
 21
-129.6769598885458
 31
0.0
  0
ARC
  5
2FF
330
1F
100
AcDbEntity
  8
Layer1
 62
     7
370
    25
100
AcDbCircle
 10
275.4860507432093
 20
-130.3936265551452
 30
0.0
 40
4.166666666660262
100
AcDbArc
 50
0.0
 51
9.904123684707978
  0
LINE
  5
300
330
1F
100
AcDbEntity
  8
Layer1
 62
     7
370
    25
100
AcDbLine
 10
180.4277864785392
 20
-101.3231687773655
 30
0.0
 11
173.8879864785391
 21
-101.3231687773655
 31
0.0
  0
LINE
  5
301
330
1F
100
AcDbEntity
  8
Layer1
 62
     7
370
    25
100
AcDbLine
 10
181.1152864785392
 20
-101.4481687773655
 30
0.0
 11
180.4277864785392
 21
-101.4481687773655
 31
0.0
  0
LINE
  5
302
330
1F
100
AcDbEntity
  8
Layer1
 62
     7
370
    25
100
AcDbLine
 10
180.4277864785392
 20
-101.4481687773655
 30
0.0
 11
180.4277864785392
 21
-101.3231687773655
 31
0.0
  0
LINE
  5
303
330
1F
100
AcDbEntity
  8
Layer1
 62
     7
370
    25
100
AcDbLine
 10
143.0412864785392
 20
-101.4481687773655
 30
0.0
 11
143.7287864785392
 21
-101.4481687773655
 31
0.0
  0
LINE
  5
304
330
1F
100
AcDbEntity
  8
Layer1
 62
     7
370
    25
100
AcDbLine
 10
150.2685864785392
 20
-101.3231687773655
 30
0.0
 11
143.7287864785392
 21
-101.3231687773655
 31
0.0
  0
LINE
  5
305
330
1F
100
AcDbEntity
  8
Layer1
 62
     7
370
    25
100
AcDbLine
 10
143.7287864785392
 20
-101.4481687773655
 30
0.0
 11
143.7287864785392
 21
-101.3231687773655
 31
0.0
  0
LINE
  5
306
330
1F
100
AcDbEntity
  8
Layer1
 62
     7
370
    25
100
AcDbLine
 10
150.2685864785392
 20
-105.3281687773655
 30
0.0
 11
150.2685864785392
 21
-105.1931687773655
 31
0.0
  0
LINE
  5
307
330
1F
100
AcDbEntity
  8
Layer1
 62
     7
370
    25
100
AcDbLine
 10
143.0412864785392
 20
-105.3281687773655
 30
0.0
 11
143.7287864785392
 21
-105.3281687773655
 31
0.0
  0
LINE
  5
308
330
1F
100
AcDbEntity
  8
Layer1
 62
     7
370
     9
100
AcDbLine
 10
143.7287864785392
 20
-105.1931687773655
 30
0.0
 11
143.0412864785392
 21
-105.1931687773655
 31
0.0
  0
LINE
  5
309
330
1F
100
AcDbEntity
  8
Layer1
 62
     7
370
    25
100
AcDbLine
 10
143.7287864785392
 20
-105.3281687773655
 30
0.0
 11
143.7287864785392
 21
-105.1931687773655
 31
0.0
  0
LINE
  5
30A
330
1F
100
AcDbEntity
  8
Layer1
 62
     7
370
    25
100
AcDbLine
 10
143.0412864785392
 20
-105.1931687773655
 30
0.0
 11
143.0412864785392
 21
-101.4481687773655
 31
0.0
  0
LINE
  5
30B
330
1F
100
AcDbEntity
  8
Layer1
 62
     7
370
    25
100
AcDbLine
 10
150.2685864785392
 20
-101.4481687773655
 30
0.0
 11
150.2685864785392
 21
-101.3231687773655
 31
0.0
  0
DIMENSION
  5
30C
330
1F
100
AcDbEntity
  8
0
100
AcDbDimension
  2
*D34
 10
258.0633569321301
 20
-124.1578132612284
 30
0.0
 11
261.355737884511
 21
-124.1578132612284
 31
0.0
 70
   160
 71
     5
 42
1.100000000000023
  3
OdaDimStyle0
100
AcDbAlignedDimension
 13
256.9633569321301
 23
-126.2323037613369
 33
0.0
 14
258.0633569321301
 24
-126.2687632768369
 34
0.0
100
AcDbRotatedDimension
1001
ACAD
1000
DSTYLE
1002
{
1070
    41
1040
1.0
1070
   140
1040
0.5
1002
}
  0
DIMENSION
  5
31B
330
1F
100
AcDbEntity
  8
0
100
AcDbDimension
  2
*D35
 10
258.6270182909662
 20
-126.3323037613369
 30
0.0
 11
256.298923052871
 21
-128.3323037613369
 31
0.0
 70
   160
 71
     5
 42
0.0999999999999943
  3
OdaDimStyle0
100
AcDbAlignedDimension
 13
256.9633569321301
 23
-126.2323037613369
 33
0.0
 14
256.9633569321301
 24
-126.3323037613369
 34
0.0
 50
270.0
100
AcDbRotatedDimension
1001
ACAD
1000
DSTYLE
1002
{
1070
    41
1040
1.0
1070
   140
1040
0.5
1002
}
  0
DIMENSION
  5
32B
330
1F
100
AcDbEntity
  8
0
100
AcDbDimension
  2
*D36
 10
271.2895937717274
 20
-134.1404577590174
 30
0.0
 11
273.6176890098226
 21
-131.7964577590174
 31
0.0
 70
   160
 71
     5
 42
0.3439999999999941
  3
OdaDimStyle0
100
AcDbAlignedDimension
 13
272.6429518772612
 23
-133.7964577590174
 33
0.0
 14
272.6429518772612
 24
-134.1404577590174
 34
0.0
 50
270.0
100
AcDbRotatedDimension
1001
ACAD
1000
DSTYLE
1002
{
1070
    41
1040
1.0
1070
   140
1040
0.5
1002
}
  0
DIMENSION
  5
33B
330
1F
100
AcDbEntity
  8
0
100
AcDbDimension
  2
*D37
 10
253.0295616108995
 20
-134.1458016318086
 30
0.0
 11
255.3576568489947
 21
-131.8018016318086
 31
0.0
 70
   160
 71
     5
 42
0.3440000000000225
  3
OdaDimStyle0
100
AcDbAlignedDimension
 13
254.7952580661886
 23
-133.8018016318086
 33
0.0
 14
254.7952580661886
 24
-134.1458016318086
 34
0.0
 50
270.0
100
AcDbRotatedDimension
1001
ACAD
1000
DSTYLE
1002
{
1070
    41
1040
1.0
1070
   140
1040
0.5
1002
}
  0
LINE
  5
34B
330
1F
100
AcDbEntity
  8
Layer1
 62
     7
370
    25
100
AcDbLine
 10
255.2554749215259
 20
-140.6473683513056
 30
0.0
 11
255.2554749215259
 21
-140.7098683513056
 31
0.0
  0
DIMENSION
  5
34C
330
1F
100
AcDbEntity
  8
0
100
AcDbDimension
  2
*D38
 10
262.5821873697258
 20
-141.5848683513056
 30
0.0
 11
264.7317111792496
 21
-141.5848683513056
 31
0.0
 70
   160
  1
1
 71
     5
 42
0.6307370586981083
  3
OdaDimStyle0
100
AcDbAlignedDimension
 13
261.5759573491258
 23
-143.0848683513056
 33
0.0
 14
262.5821873697258
 24
-143.0848683513056
 34
0.0
100
AcDbRotatedDimension
1001
ACAD
1000
DSTYLE
1002
{
1070
    41
1040
1.0
1070
   140
1040
0.5
1002
}
  0
DIMENSION
  5
35B
330
1F
100
AcDbEntity
  8
0
100
AcDbDimension
  2
*D39
 10
279.6363605218774
 20
-130.5765339276009
 30
0.0
 11
276.195987371403
 21
-130.5765339276009
 31
0.0
 70
   160
 71
     5
 42
0.100373150474411
  3
OdaDimStyle0
100
AcDbAlignedDimension
 13
279.5359873714029
 23
-130.2769598885458
 33
0.0
 14
279.6363605218774
 24
-130.2769598884784
 34
0.0
100
AcDbRotatedDimension
1001
ACAD
1000
DSTYLE
1002
{
1070
    41
1040
1.0
1070
   140
1040
0.5
1002
}
  0
DIMENSION
  5
36A
330
1F
100
AcDbEntity
  8
0
100
AcDbDimension
  2
*D40
 10
280.6923119532257
 20
-139.1473683513055
 30
0.0
 11
266.4198324024908
 21
-139.1473683513055
 31
0.0
 70
   160
 71
     5
 42
30.43958703169972
  3
OdaDimStyle0
100
AcDbAlignedDimension
 13
250.252724921526
 23
-140.6473683513056
 33
0.0
 14
280.6923119532257
 24
-140.7098683513056
 34
0.0
100
AcDbRotatedDimension
1001
ACAD
1000
DSTYLE
1002
{
1070
    41
1040
1.0
1070
   140
1040
0.5
1002
}
  0
DIMENSION
  5
378
330
1F
100
AcDbEntity
  8
0
100
AcDbDimension
  2
*D41
 10
282.1923119532257
 20
-143.0848683513056
 30
0.0
 11
282.1923119532257
 21
-141.8973683513056
 31
0.0
 70
   160
 71
     5
 42
2.375
  3
OdaDimStyle0
100
AcDbAlignedDimension
 13
280.6923119532257
 23
-140.7098683513056
 33
0.0
 14
280.6923119532257
 24
-143.0848683513056
 34
0.0
 50
270.0
100
AcDbRotatedDimension
1001
ACAD
1000
DSTYLE
1002
{
1070
    41
1040
1.0
1070
   140
1040
0.5
1002
}
  0
DIMENSION
  5
386
330
1F
100
AcDbEntity
  8
0
100
AcDbDimension
  2
*D42
 10
281.5114235359936
 20
-149.3691889086554
 30
0.0
 11
279.8864235359936
 21
-149.3691889086554
 31
0.0
 70
   160
 71
     5
 42
3.25
  3
OdaDimStyle0
100
AcDbAlignedDimension
 13
278.2614235359936
 23
-152.4518469260316
 33
0.0
 14
281.5114235359936
 24
-152.3898469260316
 34
0.0
100
AcDbRotatedDimension
1001
ACAD
1000
DSTYLE
1002
{
1070
    41
1040
1.0
1070
   140
1040
0.5
1002
}
  0
DIMENSION
  5
394
330
1F
100
AcDbEntity
  8
0
100
AcDbDimension
  2
*D43
 10
281.5114235359936
 20
-150.4368972419887
 30
0.0
 11
276.7190425836126
 21
-150.4368972419887
 31
0.0
 70
   160
 71
     5
 42
1.5
  3
OdaDimStyle0
100
AcDbAlignedDimension
 13
280.0114235359936
 23
-151.3898469260316
 33
0.0
 14
281.5114235359936
 24
-151.3898469260316
 34
0.0
100
AcDbRotatedDimension
1001
ACAD
1000
DSTYLE
1002
{
1070
    41
1040
1.0
1070
   140
1040
0.5
1002
}
  0
DIMENSION
  5
3A3
330
1F
100
AcDbEntity
  8
0
100
AcDbDimension
  2
*D44
 10
279.0132378346973
 20
-153.2648469260316
 30
0.0
 11
276.6851425966021
 21
-155.2648469260316
 31
0.0
 70
   160
 71
     5
 42
0.8129999999999883
  3
OdaDimStyle0
100
AcDbAlignedDimension
 13
278.1364235359936
 23
-152.4518469260316
 33
0.0
 14
278.1364235359936
 24
-153.2648469260316
 34
0.0
 50
270.0
100
AcDbRotatedDimension
1001
ACAD
1000
DSTYLE
1002
{
1070
    41
1040
1.0
1070
   140
1040
0.5
1002
}
  0
DIMENSION
  5
3B3
330
1F
100
AcDbEntity
  8
0
100
AcDbDimension
  2
*D45
 10
260.1819572280995
 20
-156.7354445893736
 30
0.0
 11
260.1819572280995
 21
-151.7354445893736
 31
0.0
 70
   160
 71
     5
 42
10.0
  3
OdaDimStyle0
100
AcDbAlignedDimension
 13
254.4482529685579
 23
-146.7354445893736
 33
0.0
 14
254.4482529685579
 24
-156.7354445893736
 34
0.0
 50
270.0
100
AcDbRotatedDimension
1001
ACAD
1000
DSTYLE
1002
{
1070
    41
1040
1.0
1070
   140
1040
0.5
1002
}
  0
LINE
  5
3C1
330
1F
100
AcDbEntity
  8
Layer1
 62
     7
370
    25
100
AcDbLine
 10
166.3481864785391
 20
-105.3281687773655
 30
0.0
 11
166.3481864785391
 21
-105.1931687773655
 31
0.0
  0
LINE
  5
3C2
330
1F
100
AcDbEntity
  8
Layer1
 62
     7
370
    25
100
AcDbLine
 10
165.3481864785391
 20
-105.3281687773655
 30
0.0
 11
165.3481864785391
 21
-105.1931687773655
 31
0.0
  0
LINE
  5
3C3
330
1F
100
AcDbEntity
  8
Layer1
 62
     7
370
    25
100
AcDbLine
 10
157.8083864785391
 20
-101.3231687773655
 30
0.0
 11
151.2685864785392
 21
-101.3231687773655
 31
0.0
  0
LINE
  5
3C4
330
1F
100
AcDbEntity
  8
Layer1
 62
     7
370
    25
100
AcDbLine
 10
150.2685864785392
 20
-101.4481687773655
 30
0.0
 11
151.2685864785392
 21
-101.4481687773655
 31
0.0
  0
LINE
  5
3C5
330
1F
100
AcDbEntity
  8
Layer1
 62
     7
370
    25
100
AcDbLine
 10
165.3481864785391
 20
-101.3231687773655
 30
0.0
 11
158.8083864785391
 21
-101.3231687773655
 31
0.0
  0
LINE
  5
3C6
330
1F
100
AcDbEntity
  8
Layer1
 62
     7
370
    25
100
AcDbLine
 10
166.3481864785391
 20
-101.4481687773655
 30
0.0
 11
166.3481864785391
 21
-101.3231687773655
 31
0.0
  0
LINE
  5
3C7
330
1F
100
AcDbEntity
  8
Layer1
 62
     7
370
    25
100
AcDbLine
 10
172.8879864785391
 20
-101.3231687773655
 30
0.0
 11
166.3481864785391
 21
-101.3231687773655
 31
0.0
  0
LINE
  5
3C8
330
1F
100
AcDbEntity
  8
Layer1
 62
     7
370
    25
100
AcDbLine
 10
157.8083864785391
 20
-101.4481687773655
 30
0.0
 11
157.8083864785391
 21
-101.3231687773655
 31
0.0
  0
LINE
  5
3C9
330
1F
100
AcDbEntity
  8
Layer1
 62
     7
370
    25
100
AcDbLine
 10
158.8083864785391
 20
-101.4481687773655
 30
0.0
 11
158.8083864785391
 21
-101.3231687773655
 31
0.0
  0
ELLIPSE
  5
3CA
330
1F
100
AcDbEntity
  8
Layer1
 62
     7
370
    25
100
AcDbEllipse
 10
165.8482864785391
 20
-103.6231687773655
 30
0.0
 11
0.0
 21
-1.2
 31
0.0
210
0.0
220
0.0
230
1.0
 40
0.7499999999999999
 41
4.71238898038469
 42
10.99557428756428
  0
LINE
  5
3CB
330
1F
100
AcDbEntity
  8
Layer1
 62
     7
370
    25
100
AcDbLine
 10
165.3481864785391
 20
-101.4481687773655
 30
0.0
 11
166.3481864785391
 21
-101.4481687773655
 31
0.0
  0
LINE
  5
3CC
330
1F
100
AcDbEntity
  8
Layer1
 62
     7
370
    25
100
AcDbLine
 10
157.8083864785391
 20
-101.4481687773655
 30
0.0
 11
158.8083864785391
 21
-101.4481687773655
 31
0.0
  0
LINE
  5
3CD
330
1F
100
AcDbEntity
  8
Layer1
 62
     7
370
    25
100
AcDbLine
 10
157.8083864785391
 20
-105.3281687773655
 30
0.0
 11
158.8083864785391
 21
-105.3281687773655
 31
0.0
  0
ELLIPSE
  5
3CE
330
1F
100
AcDbEntity
  8
Layer1
 62
     7
370
    25
100
AcDbEllipse
 10
162.0782864785391
 20
-102.7531470853694
 30
0.0
 11
6.0
 21
0.0
 31
0.0
210
0.0
220
0.0
230
-1.0
 40
0.238329718000647
 41
0.0
 42
6.283185307179586
  0
DIMENSION
  5
3CF
330
1F
100
AcDbEntity
  8
0
100
AcDbDimension
  2
*D46
 10
168.0782864785391
 20
-111.1229274428486
 30
0.0
 11
162.0782864785391
 21
-111.1229274428486
 31
0.0
 70
   160
 71
     5
 42
12.0
  3
OdaDimStyle0
100
AcDbAlignedDimension
 13
156.0782864785391
 23
-106.4189274428486
 33
0.0
 14
168.0782864785391
 24
-106.4189274428486
 34
0.0
100
AcDbRotatedDimension
1001
ACAD
1000
DSTYLE
1002
{
1070
    41
1040
0.800000011920929
1070
   140
1040
1.333333373069763
1002
}
  0
LINE
  5
3DD
330
1F
100
AcDbEntity
  8
Layer1
 62
     7
370
    25
100
AcDbLine
 10
162.0782864785391
 20
-101.3231687773655
 30
0.0
 11
162.0782864785391
 21
-117.3231687773655
 31
0.0
  0
LINE
  5
3DE
330
1F
100
AcDbEntity
  8
Layer1
 62
     7
370
     9
100
AcDbLine
 10
172.8879864785391
 20
-105.1931687773655
 30
0.0
 11
173.8879864785391
 21
-105.1931687773655
 31
0.0
  0
LINE
  5
3DF
330
1F
100
AcDbEntity
  8
Layer1
 62
     7
370
    25
100
AcDbLine
 10
172.8879864785391
 20
-105.3281687773655
 30
0.0
 11
173.8879864785391
 21
-105.3281687773655
 31
0.0
  0
LINE
  5
3E0
330
1F
100
AcDbEntity
  8
Layer1
 62
     7
370
    25
100
AcDbLine
 10
173.8879864785391
 20
-105.3281687773655
 30
0.0
 11
173.8879864785391
 21
-105.1931687773655
 31
0.0
  0
LINE
  5
3E1
330
1F
100
AcDbEntity
  8
Layer1
 62
     7
370
     9
100
AcDbLine
 10
180.4277864785392
 20
-105.1931687773655
 30
0.0
 11
181.1152864785392
 21
-105.1931687773655
 31
0.0
  0
LINE
  5
3E2
330
1F
100
AcDbEntity
  8
Layer1
 62
     7
370
    25
100
AcDbLine
 10
181.1152864785392
 20
-105.3281687773655
 30
0.0
 11
180.4277864785392
 21
-105.3281687773655
 31
0.0
  0
LINE
  5
3E3
330
1F
100
AcDbEntity
  8
Layer1
 62
     7
370
    25
100
AcDbLine
 10
180.4277864785392
 20
-105.3281687773655
 30
0.0
 11
180.4277864785392
 21
-105.1931687773655
 31
0.0
  0
LINE
  5
3E4
330
1F
100
AcDbEntity
  8
Layer1
 62
     7
370
    25
100
AcDbLine
 10
181.1152864785392
 20
-101.4481687773655
 30
0.0
 11
181.1152864785392
 21
-105.1931687773655
 31
0.0
  0
LINE
  5
3E5
330
1F
100
AcDbEntity
  8
Layer1
 62
     7
370
    25
100
AcDbLine
 10
172.8879864785391
 20
-101.4481687773655
 30
0.0
 11
173.8879864785391
 21
-101.4481687773655
 31
0.0
  0
LINE
  5
3E6
330
1F
100
AcDbEntity
  8
Layer1
 62
     7
370
    25
100
AcDbLine
 10
173.8879864785391
 20
-101.4481687773655
 30
0.0
 11
173.8879864785391
 21
-101.3231687773655
 31
0.0
  0
LINE
  5
3E7
330
1F
100
AcDbEntity
  8
Layer1
 62
     7
370
     9
100
AcDbLine
 10
231.1326137717466
 20
-122.7296672393011
 30
0.0
 11
231.1326137717466
 21
-122.8546672393011
 31
0.0
  0
LINE
  5
3E8
330
1F
100
AcDbEntity
  8
Layer1
 62
     7
370
     9
100
AcDbLine
 10
194.0622137717466
 20
-122.8546672393011
 30
0.0
 11
194.0622137717466
 21
-122.7296672393011
 31
0.0
  0
LINE
  5
3E9
330
1F
100
AcDbEntity
  8
Layer1
 62
     7
370
     9
100
AcDbLine
 10
193.5622137717466
 20
-122.7296672393011
 30
0.0
 11
194.0622137717466
 21
-122.7296672393011
 31
0.0
  0
LINE
  5
3EA
330
1F
100
AcDbEntity
  8
Layer1
 62
     7
370
     9
100
AcDbLine
 10
193.3747137717466
 20
-122.7296672393011
 30
0.0
 11
193.5622137717466
 21
-122.7296672393011
 31
0.0
  0
LINE
  5
3EB
330
1F
100
AcDbEntity
  8
Layer1
 62
     7
370
     9
100
AcDbLine
 10
194.0622137717466
 20
-101.3546672393011
 30
0.0
 11
202.3298137717466
 21
-101.3546672393011
 31
0.0
  0
LINE
  5
3EC
330
1F
100
AcDbEntity
  8
Layer1
 62
     7
370
     9
100
AcDbLine
 10
194.0622137717466
 20
-122.8546672393011
 30
0.0
 11
202.3298137717466
 21
-122.8546672393011
 31
0.0
  0
LINE
  5
3ED
330
1F
100
AcDbEntity
  8
Layer1
 62
     7
370
     9
100
AcDbLine
 10
193.3747137717466
 20
-101.4796672393011
 30
0.0
 11
193.3747137717466
 21
-122.7296672393011
 31
0.0
  0
LINE
  5
3EE
330
1F
100
AcDbEntity
  8
Layer1
 62
     7
370
     9
100
AcDbLine
 10
240.0877137717466
 20
-101.4796672393011
 30
0.0
 11
240.0877137717466
 21
-122.7296672393011
 31
0.0
  0
DIMENSION
  5
3EF
330
1F
100
AcDbEntity
  8
0
100
AcDbDimension
  2
*D47
 10
190.9997137717466
 20
-122.8546672393011
 30
0.0
 11
190.9997137717466
 21
-112.1046672393011
 31
0.0
 70
   160
 71
     5
 42
21.5
  3
OdaDimStyle0
100
AcDbAlignedDimension
 13
187.9997137717466
 23
-101.3546672393011
 33
0.0
 14
187.9997137717466
 24
-122.8546672393011
 34
0.0
 50
270.0
100
AcDbRotatedDimension
1001
ACAD
1000
DSTYLE
1002
{
1070
    41
1040
0.800000011920929
1070
   140
1040
1.333333373069763
1002
}
  0
LINE
  5
3FD
330
1F
100
AcDbEntity
  8
Layer1
 62
     7
370
    25
100
AcDbLine
 10
209.3562137717466
 20
-103.074684609805
 30
0.0
 11
209.3562137717466
 21
-124.574684609805
 31
0.0
  0
LINE
  5
3FE
330
1F
100
AcDbEntity
  8
Layer1
 62
     7
370
    25
100
AcDbLine
 10
224.1062137717466
 20
-103.074684609805
 30
0.0
 11
224.1062137717466
 21
-124.574684609805
 31
0.0
  0
LINE
  5
3FF
330
1F
100
AcDbEntity
  8
Layer1
 62
     7
370
    25
100
AcDbLine
 10
216.7312137717466
 20
-104.7947019803088
 30
0.0
 11
216.7312137717466
 21
-126.2947019803088
 31
0.0
  0
DIMENSION
  5
400
330
1F
100
AcDbEntity
  8
0
100
AcDbDimension
  2
*D48
 10
236.7844538168415
 20
-99.50177340995532
 30
0.0
 11
214.3298769369146
 21
-99.50177340995532
 31
0.0
 70
   160
 71
     5
 42
43.40974004509494
  3
OdaDimStyle0
100
AcDbAlignedDimension
 13
193.3747137717466
 23
-128.729667239301
 33
0.0
 14
236.7844538168415
 24
-139.5796672392968
 34
0.0
100
AcDbRotatedDimension
1001
ACAD
1000
DSTYLE
1002
{
1070
    41
1040
0.800000011920929
1070
   140
1040
1.333333373069763
1002
}
  0
LINE
  5
40E
330
1F
100
AcDbEntity
  8
Layer1
 62
     7
370
    25
100
AcDbLine
 10
172.8879864785391
 20
-105.3281687773655
 30
0.0
 11
172.8879864785391
 21
-105.1931687773655
 31
0.0
  0
LINE
  5
40F
330
1F
100
AcDbEntity
  8
Layer1
 62
     7
370
    25
100
AcDbLine
 10
165.3481864785391
 20
-101.4481687773655
 30
0.0
 11
165.3481864785391
 21
-101.3231687773655
 31
0.0
  0
LINE
  5
410
330
1F
100
AcDbEntity
  8
Layer1
 62
     7
370
    25
100
AcDbLine
 10
172.8879864785391
 20
-101.4481687773655
 30
0.0
 11
172.8879864785391
 21
-101.3231687773655
 31
0.0
  0
LINE
  5
411
330
1F
100
AcDbEntity
  8
Layer1
 62
     7
370
    25
100
AcDbLine
 10
151.2685864785392
 20
-101.4481687773655
 30
0.0
 11
151.2685864785392
 21
-101.3231687773655
 31
0.0
  0
LINE
  5
412
330
1F
100
AcDbEntity
  8
Layer1
 62
     7
370
     9
100
AcDbLine
 10
157.8083864785391
 20
-105.1931687773655
 30
0.0
 11
158.8083864785391
 21
-105.1931687773655
 31
0.0
  0
LINE
  5
413
330
1F
100
AcDbEntity
  8
Layer1
 62
     7
370
    25
100
AcDbLine
 10
158.8083864785391
 20
-105.3281687773655
 30
0.0
 11
158.8083864785391
 21
-105.1931687773655
 31
0.0
  0
LINE
  5
414
330
1F
100
AcDbEntity
  8
Layer1
 62
     7
370
     9
100
AcDbLine
 10
150.2685864785392
 20
-105.1931687773655
 30
0.0
 11
151.2685864785392
 21
-105.1931687773655
 31
0.0
  0
LINE
  5
415
330
1F
100
AcDbEntity
  8
Layer1
 62
     7
370
    25
100
AcDbLine
 10
150.2685864785392
 20
-105.3281687773655
 30
0.0
 11
151.2685864785392
 21
-105.3281687773655
 31
0.0
  0
LINE
  5
416
330
1F
100
AcDbEntity
  8
Layer1
 62
     7
370
    25
100
AcDbLine
 10
151.2685864785392
 20
-105.3281687773655
 30
0.0
 11
151.2685864785392
 21
-105.1931687773655
 31
0.0
  0
LINE
  5
417
330
1F
100
AcDbEntity
  8
Layer1
 62
     7
370
    25
100
AcDbLine
 10
157.8083864785391
 20
-105.3281687773655
 30
0.0
 11
157.8083864785391
 21
-105.1931687773655
 31
0.0
  0
LINE
  5
418
330
1F
100
AcDbEntity
  8
Layer1
 62
     7
370
    25
100
AcDbLine
 10
165.3481864785391
 20
-105.3281687773655
 30
0.0
 11
166.3481864785391
 21
-105.3281687773655
 31
0.0
  0
LINE
  5
419
330
1F
100
AcDbEntity
  8
Layer1
 62
     7
370
     9
100
AcDbLine
 10
165.3481864785391
 20
-105.1931687773655
 30
0.0
 11
166.3481864785391
 21
-105.1931687773655
 31
0.0
  0
LINE
  5
41A
330
1F
100
AcDbEntity
  8
Layer1
 62
     7
370
     9
100
AcDbLine
 10
221.8650137717466
 20
-101.3546672393011
 30
0.0
 11
230.1326137717466
 21
-101.3546672393011
 31
0.0
  0
LINE
  5
41B
330
1F
100
AcDbEntity
  8
Layer1
 62
     7
370
     9
100
AcDbLine
 10
194.0622137717466
 20
-101.3546672393011
 30
0.0
 11
194.0622137717466
 21
-101.4796672393011
 31
0.0
  0
LINE
  5
41C
330
1F
100
AcDbEntity
  8
Layer1
 62
     7
370
     9
100
AcDbLine
 10
193.5622137717466
 20
-101.4796672393011
 30
0.0
 11
194.0622137717466
 21
-101.4796672393011
 31
0.0
  0
LINE
  5
41D
330
1F
100
AcDbEntity
  8
Layer1
 62
     7
370
     9
100
AcDbLine
 10
193.3747137717466
 20
-101.4796672393011
 30
0.0
 11
193.5622137717466
 21
-101.4796672393011
 31
0.0
  0
LINE
  5
41E
330
1F
100
AcDbEntity
  8
Layer1
 62
     7
370
     9
100
AcDbLine
 10
203.3298137717466
 20
-122.8546672393011
 30
0.0
 11
211.5974137717465
 21
-122.8546672393011
 31
0.0
  0
LINE
  5
41F
330
1F
100
AcDbEntity
  8
Layer1
 62
     7
370
     9
100
AcDbLine
 10
203.3298137717466
 20
-122.7296672393011
 30
0.0
 11
203.3298137717466
 21
-122.8546672393011
 31
0.0
  0
LINE
  5
420
330
1F
100
AcDbEntity
  8
Layer1
 62
     7
370
     9
100
AcDbLine
 10
202.3298137717466
 20
-122.7296672393011
 30
0.0
 11
202.3298137717466
 21
-122.8546672393011
 31
0.0
  0
LINE
  5
421
330
1F
100
AcDbEntity
  8
Layer1
 62
     7
370
     9
100
AcDbLine
 10
202.3298137717466
 20
-122.7296672393011
 30
0.0
 11
203.3298137717466
 21
-122.7296672393011
 31
0.0
  0
LINE
  5
422
330
1F
100
AcDbEntity
  8
Layer1
 62
     7
370
     9
100
AcDbLine
 10
220.8650137717466
 20
-122.7296672393011
 30
0.0
 11
221.8650137717466
 21
-122.7296672393011
 31
0.0
  0
LINE
  5
423
330
1F
100
AcDbEntity
  8
Layer1
 62
     7
370
     9
100
AcDbLine
 10
220.8650137717466
 20
-122.7296672393011
 30
0.0
 11
220.8650137717466
 21
-122.8546672393011
 31
0.0
  0
LINE
  5
424
330
1F
100
AcDbEntity
  8
Layer1
 62
     7
370
     9
100
AcDbLine
 10
221.8650137717466
 20
-122.8546672393011
 30
0.0
 11
230.1326137717466
 21
-122.8546672393011
 31
0.0
  0
LINE
  5
425
330
1F
100
AcDbEntity
  8
Layer1
 62
     7
370
     9
100
AcDbLine
 10
231.1326137717466
 20
-122.8546672393011
 30
0.0
 11
239.4002137717465
 21
-122.8546672393011
 31
0.0
  0
LINE
  5
426
330
1F
100
AcDbEntity
  8
Layer1
 62
     7
370
     9
100
AcDbLine
 10
239.4002137717466
 20
-122.8546672393011
 30
0.0
 11
239.4002137717466
 21
-122.7296672393011
 31
0.0
  0
LINE
  5
427
330
1F
100
AcDbEntity
  8
Layer1
 62
     7
370
     9
100
AcDbLine
 10
211.5974137717465
 20
-122.7296672393011
 30
0.0
 11
212.5974137717465
 21
-122.7296672393011
 31
0.0
  0
LINE
  5
428
330
1F
100
AcDbEntity
  8
Layer1
 62
     7
370
     9
100
AcDbLine
 10
211.5974137717465
 20
-122.7296672393011
 30
0.0
 11
211.5974137717465
 21
-122.8546672393011
 31
0.0
  0
LINE
  5
429
330
1F
100
AcDbEntity
  8
Layer1
 62
     7
370
     9
100
AcDbLine
 10
221.8650137717466
 20
-122.7296672393011
 30
0.0
 11
221.8650137717466
 21
-122.8546672393011
 31
0.0
  0
LINE
  5
42A
330
1F
100
AcDbEntity
  8
Layer1
 62
     7
370
     9
100
AcDbLine
 10
212.5974137717465
 20
-122.8546672393011
 30
0.0
 11
220.8650137717466
 21
-122.8546672393011
 31
0.0
  0
LINE
  5
42B
330
1F
100
AcDbEntity
  8
Layer1
 62
     7
370
     9
100
AcDbLine
 10
212.5974137717465
 20
-122.7296672393011
 30
0.0
 11
212.5974137717465
 21
-122.8546672393011
 31
0.0
  0
LINE
  5
42C
330
1F
100
AcDbEntity
  8
Layer1
 62
     7
370
     9
100
AcDbLine
 10
239.9002137717466
 20
-122.7296672393011
 30
0.0
 11
240.0877137717466
 21
-122.7296672393011
 31
0.0
  0
LINE
  5
42D
330
1F
100
AcDbEntity
  8
Layer1
 62
     7
370
     9
100
AcDbLine
 10
230.1326137717466
 20
-122.7296672393011
 30
0.0
 11
230.1326137717466
 21
-122.8546672393011
 31
0.0
  0
ELLIPSE
  5
42E
330
1F
100
AcDbEntity
  8
Layer1
 62
     7
370
    25
100
AcDbEllipse
 10
216.7312137717466
 20
-124.574684609805
 30
0.0
 11
7.375000000000001
 21
0.0
 31
0.0
210
0.0
220
0.0
230
-1.0
 40
0.2332226943056073
 41
0.0
 42
6.283185307179586
  0
MTEXT
  5
42F
330
1F
100
AcDbEntity
  8
Layer1
 62
     7
370
    25
100
AcDbMText
 10
210.7538248302516
 20
-127.4826933119792
 30
0.0
 40
1.333333373069763
 41
15.575
 71
     1
 72
     1
  1
{\C7;\l\fPlotter|b1|i0|c00|p34;\H1.00x;Gas Cowling\P}
 73
     1
 44
1.0
  0
MTEXT
  5
430
330
1F
100
AcDbEntity
  8
Layer1
 62
     7
370
    25
100
AcDbMText
 10
205.4984033973974
 20
-119.6404685489958
 30
0.0
 40
1.0
 41
25.025
 71
     1
 72
     1
  1
{\C7;\l\fPlotter|b0|i0|c00|p34;\H1.00x; 14.75" Diameter On Center\P\l\fPlotter|b0|i0|c00|p34;\H0.89x;(with 3/8" sheet overlap at joint)\P}
 73
     1
 44
1.0
  0
LINE
  5
431
330
1F
100
AcDbEntity
  8
Layer1
 62
     7
370
     9
100
AcDbLine
 10
239.9002137717466
 20
-122.7296672393011
 30
0.0
 11
239.4002137717466
 21
-122.7296672393011
 31
0.0
  0
LINE
  5
432
330
1F
100
AcDbEntity
  8
Layer1
 62
     7
370
     9
100
AcDbLine
 10
230.1326137717466
 20
-122.7296672393011
 30
0.0
 11
231.1326137717466
 21
-122.7296672393011
 31
0.0
  0
LINE
  5
433
330
1F
100
AcDbEntity
  8
Layer1
 62
     7
370
     9
100
AcDbLine
 10
202.3298137717466
 20
-101.4796672393011
 30
0.0
 11
203.3298137717466
 21
-101.4796672393011
 31
0.0
  0
DIMENSION
  5
434
330
1F
100
AcDbEntity
  8
0
100
AcDbDimension
  2
*D49
 10
229.8491056176166
 20
-103.5421672393011
 30
0.0
 11
225.6575182057134
 21
-107.0068286162617
 31
0.0
 70
   160
 71
     5
 42
1.999999999999986
  3
OdaDimStyle0
100
AcDbAlignedDimension
 13
224.9569137717466
 23
-101.5421672393011
 33
0.0
 14
224.9569137717466
 24
-103.5421672393011
 34
0.0
 50
270.0
100
AcDbRotatedDimension
1001
ACAD
1000
DSTYLE
1002
{
1070
    41
1040
0.800000011920929
1070
   140
1040
1.333333373069763
1002
}
  0
DIMENSION
  5
443
330
1F
100
AcDbEntity
  8
0
100
AcDbDimension
  2
*D50
 10
224.9569137717466
 20
-104.2592402071274
 30
0.0
 11
229.9559240942258
 21
-104.2592402071274
 31
0.0
 70
   160
 71
     5
 42
2.05000000000004
  3
OdaDimStyle0
100
AcDbAlignedDimension
 13
222.9069137717466
 23
-103.0421672393011
 33
0.0
 14
224.9569137717466
 24
-103.0421672393011
 34
0.0
100
AcDbRotatedDimension
1001
ACAD
1000
DSTYLE
1002
{
1070
    41
1040
0.800000011920929
1070
   140
1040
1.333333373069763
1002
}
  0
LINE
  5
451
330
1F
100
AcDbEntity
  8
Layer1
 62
     7
370
     9
100
AcDbLine
 10
222.9069137717466
 20
-103.5421672393011
 30
0.0
 11
222.9069137717466
 21
-101.5421672393011
 31
0.0
  0
LINE
  5
452
330
1F
100
AcDbEntity
  8
Layer1
 62
     7
370
     9
100
AcDbLine
 10
224.9569137717466
 20
-103.5421672393011
 30
0.0
 11
222.9069137717466
 21
-103.5421672393011
 31
0.0
  0
LINE
  5
453
330
1F
100
AcDbEntity
  8
Layer1
 62
     7
370
     9
100
AcDbLine
 10
224.9569137717466
 20
-101.5421672393011
 30
0.0
 11
224.9569137717466
 21
-103.5421672393011
 31
0.0
  0
LINE
  5
454
330
1F
100
AcDbEntity
  8
Layer1
 62
     7
370
     9
100
AcDbLine
 10
222.9069137717466
 20
-101.5421672393011
 30
0.0
 11
224.9569137717466
 21
-101.5421672393011
 31
0.0
  0
CIRCLE
  5
455
330
1F
100
AcDbEntity
  8
Layer1
 62
     7
370
     9
100
AcDbCircle
 10
216.7312137717466
 20
-117.3546672393011
 30
0.0
 40
0.375
  0
LINE
  5
456
330
1F
100
AcDbEntity
  8
Layer1
 62
     7
370
     9
100
AcDbLine
 10
220.8650137717466
 20
-101.4796672393011
 30
0.0
 11
220.8650137717466
 21
-101.3546672393011
 31
0.0
  0
LINE
  5
457
330
1F
100
AcDbEntity
  8
Layer1
 62
     7
370
     9
100
AcDbLine
 10
212.5974137717465
 20
-101.4796672393011
 30
0.0
 11
212.5974137717465
 21
-101.3546672393011
 31
0.0
  0
LINE
  5
458
330
1F
100
AcDbEntity
  8
Layer1
 62
     7
370
     9
100
AcDbLine
 10
211.5974137717465
 20
-101.4796672393011
 30
0.0
 11
211.5974137717465
 21
-101.3546672393011
 31
0.0
  0
LINE
  5
459
330
1F
100
AcDbEntity
  8
Layer1
 62
     7
370
     9
100
AcDbLine
 10
220.8650137717466
 20
-101.4796672393011
 30
0.0
 11
221.8650137717466
 21
-101.4796672393011
 31
0.0
  0
LINE
  5
45A
330
1F
100
AcDbEntity
  8
Layer1
 62
     7
370
     9
100
AcDbLine
 10
212.5974137717465
 20
-101.3546672393011
 30
0.0
 11
220.8650137717466
 21
-101.3546672393011
 31
0.0
  0
LINE
  5
45B
330
1F
100
AcDbEntity
  8
Layer1
 62
     7
370
     9
100
AcDbLine
 10
231.1326137717466
 20
-101.3546672393011
 30
0.0
 11
239.4002137717466
 21
-101.3546672393011
 31
0.0
  0
LINE
  5
45C
330
1F
100
AcDbEntity
  8
Layer1
 62
     7
370
     9
100
AcDbLine
 10
221.8650137717466
 20
-101.4796672393011
 30
0.0
 11
221.8650137717466
 21
-101.3546672393011
 31
0.0
  0
LINE
  5
45D
330
1F
100
AcDbEntity
  8
Layer1
 62
     7
370
     9
100
AcDbLine
 10
211.5974137717465
 20
-101.4796672393011
 30
0.0
 11
212.5974137717465
 21
-101.4796672393011
 31
0.0
  0
ELLIPSE
  5
45E
330
1F
100
AcDbEntity
  8
Layer1
 62
     7
370
    25
100
AcDbEllipse
 10
216.7312137717466
 20
-103.074684609805
 30
0.0
 11
7.375000000000001
 21
0.0
 31
0.0
210
0.0
220
0.0
230
-1.0
 40
0.2332226943056073
 41
0.0
 42
6.283185307179586
  0
DIMENSION
  5
45F
330
1F
100
AcDbEntity
  8
0
100
AcDbDimension
  2
*D51
 10
224.1062137717466
 20
-112.6438604672839
 30
0.0
 11
216.7312137717466
 21
-112.6438604672839
 31
0.0
 70
   160
 71
     5
 42
14.75
  3
OdaDimStyle0
100
AcDbAlignedDimension
 13
209.3562137717466
 23
-107.5402444672839
 33
0.0
 14
224.1062137717466
 24
-107.5402444672839
 34
0.0
100
AcDbRotatedDimension
1001
ACAD
1000
DSTYLE
1002
{
1070
    41
1040
0.800000011920929
1070
   140
1040
1.333333373069763
1002
}
  0
DIMENSION
  5
46D
330
1F
100
AcDbEntity
  8
0
100
AcDbDimension
  2
*D52
 10
217.1062137717466
 20
-117.2413358812284
 30
0.0
 11
222.0978011955708
 21
-117.2413358812284
 31
0.0
 70
   160
 71
     5
 42
0.75
  3
OdaDimStyle0
100
AcDbAlignedDimension
 13
216.3562137717466
 23
-117.3546672393011
 33
0.0
 14
217.1062137717466
 24
-117.3546672393011
 34
0.0
100
AcDbRotatedDimension
1001
ACAD
1000
DSTYLE
1002
{
1070
    41
1040
0.800000011920929
1070
   140
1040
1.333333373069763
1002
}
  0
LINE
  5
47C
330
1F
100
AcDbEntity
  8
Layer1
 62
     7
370
     9
100
AcDbLine
 10
230.1326137717466
 20
-101.4796672393011
 30
0.0
 11
231.1326137717466
 21
-101.4796672393011
 31
0.0
  0
LINE
  5
47D
330
1F
100
AcDbEntity
  8
Layer1
 62
     7
370
     9
100
AcDbLine
 10
239.9002137717466
 20
-101.4796672393011
 30
0.0
 11
239.4002137717466
 21
-101.4796672393011
 31
0.0
  0
LINE
  5
47E
330
1F
100
AcDbEntity
  8
Layer1
 62
     7
370
     9
100
AcDbLine
 10
239.9002137717466
 20
-101.4796672393011
 30
0.0
 11
240.0877137717466
 21
-101.4796672393011
 31
0.0
  0
LINE
  5
47F
330
1F
100
AcDbEntity
  8
Layer1
 62
     7
370
     9
100
AcDbLine
 10
231.1326137717466
 20
-101.4796672393011
 30
0.0
 11
231.1326137717466
 21
-101.3546672393011
 31
0.0
  0
LINE
  5
480
330
1F
100
AcDbEntity
  8
Layer1
 62
     7
370
     9
100
AcDbLine
 10
230.1326137717466
 20
-101.4796672393011
 30
0.0
 11
230.1326137717466
 21
-101.3546672393011
 31
0.0
  0
LINE
  5
481
330
1F
100
AcDbEntity
  8
Layer1
 62
     7
370
     9
100
AcDbLine
 10
239.4002137717466
 20
-101.3546672393011
 30
0.0
 11
239.4002137717466
 21
-101.4796672393011
 31
0.0
  0
LINE
  5
482
330
1F
100
AcDbEntity
  8
Dimension
 62
     5
420
      255
370
     5
100
AcDbLine
 10
265.7872442307087
 20
-114.6007028436392
 30
0.0
 11
265.7872442307087
 21
-115.9982436854188
 31
0.0
  0
LINE
  5
483
330
1F
100
AcDbEntity
  8
Dimension
 62
     5
420
      255
370
     5
100
AcDbLine
 10
265.7872442307087
 20
-115.2407028531759
 30
0.0
 11
266.0272442253442
 21
-115.4007028555601
 31
0.0
  0
LINE
  5
484
330
1F
100
AcDbEntity
  8
Dimension
 62
     5
420
      255
370
     5
100
AcDbLine
 10
265.5472442360731
 20
-115.4007028555601
 30
0.0
 11
265.7872442307087
 21
-115.2407028531759
 31
0.0
  0
LINE
  5
485
330
1F
100
AcDbEntity
  8
Layer1
 62
     7
370
    25
100
AcDbLine
 10
263.3671013234956
 20
-115.0786838817645
 30
0.0
 11
263.3671013234956
 21
-114.9536838817645
 31
0.0
  0
LINE
  5
486
330
1F
100
AcDbEntity
  8
Layer1
 62
     7
370
    25
100
AcDbLine
 10
263.3671013234956
 20
-114.9536838817645
 30
0.0
 11
262.8671013234956
 21
-114.9536838817645
 31
0.0
  0
LINE
  5
487
330
1F
100
AcDbEntity
  8
Layer1
 62
     7
370
    25
100
AcDbLine
 10
262.8671013234956
 20
-114.9536838817645
 30
0.0
 11
262.3671013234956
 21
-114.9536838817645
 31
0.0
  0
LINE
  5
488
330
1F
100
AcDbEntity
  8
Layer1
 62
     7
370
    25
100
AcDbLine
 10
262.3671013234956
 20
-114.9536838817645
 30
0.0
 11
262.3671013234956
 21
-115.0786838817645
 31
0.0
  0
LINE
  5
489
330
1F
100
AcDbEntity
  8
Layer1
 62
     7
370
    25
100
AcDbLine
 10
268.3937013234955
 20
-115.0786838817645
 30
0.0
 11
268.3937013234955
 21
-114.9536838817645
 31
0.0
  0
LINE
  5
48A
330
1F
100
AcDbEntity
  8
Layer1
 62
     7
370
    25
100
AcDbLine
 10
268.3937013234955
 20
-114.9536838817645
 30
0.0
 11
267.8937013234955
 21
-114.9536838817645
 31
0.0
  0
LINE
  5
48B
330
1F
100
AcDbEntity
  8
Layer1
 62
     7
370
    25
100
AcDbLine
 10
253.3139013234957
 20
-114.9536838817645
 30
0.0
 11
252.8139013234957
 21
-114.9536838817645
 31
0.0
  0
HATCH
  5
48C
330
1F
100
AcDbEntity
  8
Dimension
 62
     5
420
      255
370
     5
100
AcDbHatch
 10
0.0
 20
0.0
 30
0.0
210
0.0
220
0.0
230
1.0
  2
SOLID
 70
     1
 71
     0
 91
        1
 92
       64
 93
        4
 72
     1
 10
265.7872442307087
 20
-114.6007028436392
 11
265.5472442360731
 21
-115.4007028555601
 72
     1
 10
265.5472442360731
 20
-115.4007028555601
 11
265.7872442307087
 21
-115.2407028531759
 72
     1
 10
265.7872442307087
 20
-115.2407028531759
 11
266.0272442253442
 21
-115.4007028555601
 72
     1
 10
266.0272442253442
 20
-115.4007028555601
 11
265.7872442307087
 21
-114.6007028436392
 97
        0
 75
     0
 76
     1
 98
        0
  0
LINE
  5
48D
330
1F
100
AcDbEntity
  8
0
100
AcDbLine
 10
265.7872442307087
 20
-114.6007028436392
 30
0.0
 11
265.5472442360731
 21
-115.4007028555601
 31
0.0
  0
LINE
  5
48E
330
1F
100
AcDbEntity
  8
0
100
AcDbLine
 10
265.5472442360731
 20
-115.4007028555601
 30
0.0
 11
265.7872442307087
 21
-115.2407028531759
 31
0.0
  0
LINE
  5
48F
330
1F
100
AcDbEntity
  8
0
100
AcDbLine
 10
265.7872442307087
 20
-115.2407028531759
 30
0.0
 11
266.0272442253442
 21
-115.4007028555601
 31
0.0
  0
LINE
  5
490
330
1F
100
AcDbEntity
  8
0
100
AcDbLine
 10
266.0272442253442
 20
-115.4007028555601
 30
0.0
 11
265.7872442307087
 21
-114.6007028436392
 31
0.0
  0
LINE
  5
491
330
1F
100
AcDbEntity
  8
Dimension
 62
     5
420
      255
370
     5
100
AcDbLine
 10
266.0272442253442
 20
-115.4007028555601
 30
0.0
 11
265.7872442307087
 21
-114.6007028436392
 31
0.0
  0
LINE
  5
492
330
1F
100
AcDbEntity
  8
Dimension
 62
     5
420
      255
370
     5
100
AcDbLine
 10
265.7872442307087
 20
-114.6007028436392
 30
0.0
 11
265.5472442360731
 21
-115.4007028555601
 31
0.0
  0
LINE
  5
493
330
1F
100
AcDbEntity
  8
Layer1
 62
     7
370
    25
100
AcDbLine
 10
257.3405013234956
 20
-115.0786838817645
 30
0.0
 11
253.3139013234957
 21
-115.0786838817645
 31
0.0
  0
LINE
  5
494
330
1F
100
AcDbEntity
  8
Layer1
 62
     7
370
    25
100
AcDbLine
 10
267.3937013234955
 20
-115.0786838817645
 30
0.0
 11
263.3671013234956
 21
-115.0786838817645
 31
0.0
  0
LINE
  5
495
330
1F
100
AcDbEntity
  8
Layer1
 62
     7
370
    25
100
AcDbLine
 10
262.3671013234956
 20
-115.0786838817645
 30
0.0
 11
258.3405013234956
 21
-115.0786838817645
 31
0.0
  0
LINE
  5
496
330
1F
100
AcDbEntity
  8
Layer1
 62
     7
370
    25
100
AcDbLine
 10
277.4469013234955
 20
-115.0786838817645
 30
0.0
 11
273.4203013234956
 21
-115.0786838817645
 31
0.0
  0
LINE
  5
497
330
1F
100
AcDbEntity
  8
Layer1
 62
     7
370
    25
100
AcDbLine
 10
272.4203013234956
 20
-115.0786838817645
 30
0.0
 11
268.3937013234955
 21
-115.0786838817645
 31
0.0
  0
LINE
  5
498
330
1F
100
AcDbEntity
  8
Layer1
 62
     7
370
    25
100
AcDbLine
 10
261.3804013234956
 20
-104.1786838817645
 30
0.0
 11
261.3804013234956
 21
-116.1786838817645
 31
0.0
  0
LINE
  5
499
330
1F
100
AcDbEntity
  8
Layer1
 62
     7
370
    25
100
AcDbLine
 10
269.3804013234956
 20
-104.1786838817645
 30
0.0
 11
269.3804013234956
 21
-116.1786838817645
 31
0.0
  0
MTEXT
  5
49A
330
1F
100
AcDbEntity
  8
Layer1
 62
     7
370
    25
100
AcDbMText
 10
255.3597421724841
 20
-118.7077952678821
 30
0.0
 40
1.333333373069763
 41
22.925
 71
     1
 72
     1
  1
{\C7;\l\fPlotter|b1|i0|c00|p34;\H1.00x;  Packed Bed Filter\P}
 73
     1
 44
1.0
  0
MTEXT
  5
49B
330
1F
100
AcDbEntity
  8
Layer1
 62
     7
370
    25
100
AcDbMText
 10
167.9532880611123
 20
-168.1504942849707
 30
0.0
 40
1.111111164093018
 41
94.325
 71
     1
 72
     1
  3
{\C7;\l\fPlotter|b0|i0|c00|p34;\H1.00x;\PBefore building, check for more recent versions at: \l\fPlotter|b0|i0|c00|p34;\H1.15x; www.allpowerlabs.org/gasification/gek\P\l\fPlotter|b0|i0|c00|p34;\H0.87x;      ALL Power Labs1010 Murray Street Berkeley,
  1
 CA 94710. 3/09. jim@allpowerlabs.org\P\P}
 73
     1
 44
1.0
  0
LINE
  5
49C
330
1F
100
AcDbEntity
  8
Layer1
 62
     7
370
     9
100
AcDbLine
 10
203.3298137717466
 20
-101.3546672393011
 30
0.0
 11
211.5974137717465
 21
-101.3546672393011
 31
0.0
  0
LINE
  5
49D
330
1F
100
AcDbEntity
  8
Layer1
 62
     7
370
     9
100
AcDbLine
 10
202.3298137717466
 20
-101.4796672393011
 30
0.0
 11
202.3298137717466
 21
-101.3546672393011
 31
0.0
  0
LINE
  5
49E
330
1F
100
AcDbEntity
  8
Layer1
 62
     7
370
     9
100
AcDbLine
 10
203.3298137717466
 20
-101.4796672393011
 30
0.0
 11
203.3298137717466
 21
-101.3546672393011
 31
0.0
  0
LINE
  5
49F
330
1F
100
AcDbEntity
  8
Layer1
 62
     7
370
    25
100
AcDbLine
 10
277.4469013234955
 20
-114.9536838817645
 30
0.0
 11
277.4469013234955
 21
-115.0786838817645
 31
0.0
  0
LINE
  5
4A0
330
1F
100
AcDbEntity
  8
Layer1
 62
     7
370
    25
100
AcDbLine
 10
257.8405013234956
 20
-114.9536838817645
 30
0.0
 11
257.3405013234956
 21
-114.9536838817645
 31
0.0
  0
LINE
  5
4A1
330
1F
100
AcDbEntity
  8
Layer1
 62
     7
370
    25
100
AcDbLine
 10
253.3139013234957
 20
-115.0786838817645
 30
0.0
 11
253.3139013234957
 21
-114.9536838817645
 31
0.0
  0
LINE
  5
4A2
330
1F
100
AcDbEntity
  8
Layer1
 62
     7
370
    25
100
AcDbLine
 10
258.3405013234956
 20
-115.0786838817645
 30
0.0
 11
258.3405013234956
 21
-114.9536838817645
 31
0.0
  0
LINE
  5
4A3
330
1F
100
AcDbEntity
  8
Layer1
 62
     7
370
    25
100
AcDbLine
 10
258.3405013234956
 20
-114.9536838817645
 30
0.0
 11
257.8405013234956
 21
-114.9536838817645
 31
0.0
  0
LINE
  5
4A4
330
1F
100
AcDbEntity
  8
Layer1
 62
     7
370
    25
100
AcDbLine
 10
267.8937013234955
 20
-114.9536838817645
 30
0.0
 11
267.3937013234955
 21
-114.9536838817645
 31
0.0
  0
LINE
  5
4A5
330
1F
100
AcDbEntity
  8
Layer1
 62
     7
370
    25
100
AcDbLine
 10
267.3937013234955
 20
-114.9536838817645
 30
0.0
 11
267.3937013234955
 21
-115.0786838817645
 31
0.0
  0
LINE
  5
4A6
330
1F
100
AcDbEntity
  8
Layer1
 62
     7
370
    25
100
AcDbLine
 10
278.1344013234955
 20
-114.9536838817645
 30
0.0
 11
277.9469013234955
 21
-114.9536838817645
 31
0.0
  0
LINE
  5
4A7
330
1F
100
AcDbEntity
  8
Layer1
 62
     7
370
    25
100
AcDbLine
 10
252.6264013234955
 20
-103.2036838817645
 30
0.0
 11
252.6264013234955
 21
-114.9536838817645
 31
0.0
  0
LINE
  5
4A8
330
1F
100
AcDbEntity
  8
Layer1
 62
     7
370
    25
100
AcDbLine
 10
278.1344013234955
 20
-114.9536838817645
 30
0.0
 11
278.1344013234955
 21
-103.2036838817645
 31
0.0
  0
MTEXT
  5
4A9
330
1F
100
AcDbEntity
  8
Layer1
 62
     7
370
    25
100
AcDbMText
 10
253.6215287812263
 20
-109.9311359230605
 30
0.0
 40
1.0
 41
25.025
 71
     1
 72
     1
  1
{\C7;\l\fPlotter|b0|i0|c00|p34;\H1.00x;   8" Diameter On Center\P\l\fPlotter|b0|i0|c00|p34;\H0.89x;(with 3/8" sheet overlap at joint)\P\l\fPlotter|b1|i0|c00|p34;\H1.12x;\P}
 73
     1
 44
1.0
  0
LINE
  5
4AA
330
1F
100
AcDbEntity
  8
Dimension
 62
     5
420
      255
370
     5
100
AcDbLine
 10
250.2514013234956
 20
-114.4386838722277
 30
0.0
 11
250.4914013181312
 21
-114.2786838698436
 31
0.0
  0
LINE
  5
4AB
330
1F
100
AcDbEntity
  8
Dimension
 62
     5
420
      255
370
     5
100
AcDbLine
 10
250.01140132886
 20
-114.2786838698436
 30
0.0
 11
250.2514013234956
 21
-114.4386838722277
 31
0.0
  0
CIRCLE
  5
4AC
330
1F
100
AcDbEntity
  8
Layer1
 62
     7
370
    25
100
AcDbCircle
 10
265.3803987020814
 20
-114.078683881768
 30
0.0
 40
0.5
  0
HATCH
  5
4AD
330
1F
100
AcDbEntity
  8
Dimension
 62
     5
420
      255
370
     5
100
AcDbHatch
 10
0.0
 20
0.0
 30
0.0
210
0.0
220
0.0
230
1.0
  2
SOLID
 70
     1
 71
     0
 91
        1
 92
       64
 93
        4
 72
     1
 10
250.2514013234956
 20
-115.0786838817645
 11
250.01140132886
 21
-114.2786838698436
 72
     1
 10
250.01140132886
 20
-114.2786838698436
 11
250.2514013234956
 21
-114.4386838722277
 72
     1
 10
250.2514013234956
 20
-114.4386838722277
 11
250.4914013181312
 21
-114.2786838698436
 72
     1
 10
250.4914013181312
 20
-114.2786838698436
 11
250.2514013234956
 21
-115.0786838817645
 97
        0
 75
     0
 76
     1
 98
        0
  0
LINE
  5
4AE
330
1F
100
AcDbEntity
  8
0
100
AcDbLine
 10
250.2514013234956
 20
-115.0786838817645
 30
0.0
 11
250.01140132886
 21
-114.2786838698436
 31
0.0
  0
LINE
  5
4AF
330
1F
100
AcDbEntity
  8
0
100
AcDbLine
 10
250.01140132886
 20
-114.2786838698436
 30
0.0
 11
250.2514013234956
 21
-114.4386838722277
 31
0.0
  0
LINE
  5
4B0
330
1F
100
AcDbEntity
  8
0
100
AcDbLine
 10
250.2514013234956
 20
-114.4386838722277
 30
0.0
 11
250.4914013181312
 21
-114.2786838698436
 31
0.0
  0
LINE
  5
4B1
330
1F
100
AcDbEntity
  8
0
100
AcDbLine
 10
250.4914013181312
 20
-114.2786838698436
 30
0.0
 11
250.2514013234956
 21
-115.0786838817645
 31
0.0
  0
LINE
  5
4B2
330
1F
100
AcDbEntity
  8
Dimension
 62
     5
420
      255
370
     5
100
AcDbLine
 10
250.4914013181312
 20
-114.2786838698436
 30
0.0
 11
250.2514013234956
 21
-115.0786838817645
 31
0.0
  0
LINE
  5
4B3
330
1F
100
AcDbEntity
  8
Dimension
 62
     5
420
      255
370
     5
100
AcDbLine
 10
250.2514013234956
 20
-115.0786838817645
 30
0.0
 11
250.01140132886
 21
-114.2786838698436
 31
0.0
  0
LINE
  5
4B4
330
1F
100
AcDbEntity
  8
Dimension
 62
     5
420
      255
370
     5
100
AcDbLine
 10
250.2514013234956
 20
-115.0786838817645
 30
0.0
 11
250.2514013234956
 21
-110.0657070387378
 31
0.0
  0
LINE
  5
4B5
330
1F
100
AcDbEntity
  8
Layer1
 62
     7
370
    25
100
AcDbLine
 10
273.4203013234956
 20
-115.0786838817645
 30
0.0
 11
273.4203013234956
 21
-114.9536838817645
 31
0.0
  0
LINE
  5
4B6
330
1F
100
AcDbEntity
  8
Layer1
 62
     7
370
    25
100
AcDbLine
 10
273.4203013234956
 20
-114.9536838817645
 30
0.0
 11
272.9203013234956
 21
-114.9536838817645
 31
0.0
  0
LINE
  5
4B7
330
1F
100
AcDbEntity
  8
Layer1
 62
     7
370
    25
100
AcDbLine
 10
272.9203013234956
 20
-114.9536838817645
 30
0.0
 11
272.4203013234956
 21
-114.9536838817645
 31
0.0
  0
LINE
  5
4B8
330
1F
100
AcDbEntity
  8
Layer1
 62
     7
370
    25
100
AcDbLine
 10
272.4203013234956
 20
-114.9536838817645
 30
0.0
 11
272.4203013234956
 21
-115.0786838817645
 31
0.0
  0
MTEXT
  5
4B9
330
1F
100
AcDbEntity
  8
Dimension
 62
     5
420
      255
370
    25
100
AcDbMText
 10
265.4380378710952
 20
-116.7542436930483
 30
0.0
 40
1.333333373069763
 41
0.7333333551883697
 71
     1
 72
     1
  1
{\C5;\l\fPlotter|b0|i0|c00|p34;\H1.00x;1\P}
 73
     1
 44
1.0
  0
LINE
  5
4BA
330
1F
100
AcDbEntity
  8
Layer1
 62
     7
370
    25
100
AcDbLine
 10
265.3804013234956
 20
-105.2786838817645
 30
0.0
 11
265.3804013234956
 21
-117.2786838817645
 31
0.0
  0
ELLIPSE
  5
4BB
330
1F
100
AcDbEntity
  8
Layer1
 62
     7
370
    25
100
AcDbEllipse
 10
265.3804013234956
 20
-116.1786838817645
 30
0.0
 11
4.0
 21
0.0
 31
0.0
210
0.0
220
0.0
230
-1.0
 40
0.275
 41
0.0
 42
6.283185307179586
  0
LINE
  5
4BC
330
1F
100
AcDbEntity
  8
Layer1
 62
     7
370
    25
100
AcDbLine
 10
253.3139013234957
 20
-103.0786838817645
 30
0.0
 11
253.3139013234957
 21
-103.2036838817645
 31
0.0
  0
LINE
  5
4BD
330
1F
100
AcDbEntity
  8
Dimension
 62
     5
420
      255
370
     5
100
AcDbLine
 10
277.3344013115747
 20
-101.1936838764
 30
0.0
 11
277.4944013139589
 21
-100.9536838817644
 31
0.0
  0
LINE
  5
4BE
330
1F
100
AcDbEntity
  8
Dimension
 62
     5
420
      255
370
     5
100
AcDbLine
 10
278.1344013234956
 20
-100.9536838817644
 30
0.0
 11
277.3344013115747
 21
-101.1936838764
 31
0.0
  0
LINE
  5
4BF
330
1F
100
AcDbEntity
  8
Layer1
 62
     7
370
    25
100
AcDbLine
 10
278.1344013234955
 20
-103.2036838817645
 30
0.0
 11
277.9469013234955
 21
-103.2036838817645
 31
0.0
  0
LINE
  5
4C0
330
1F
100
AcDbEntity
  8
Dimension
 62
     5
420
      255
370
     5
100
AcDbLine
 10
278.1344013234956
 20
-100.9536838817644
 30
0.0
 11
269.4438935080891
 21
-100.9536838817644
 31
0.0
  0
LINE
  5
4C1
330
1F
100
AcDbEntity
  8
Layer1
 62
     7
370
    25
100
AcDbLine
 10
267.3937013234955
 20
-103.2036838817645
 30
0.0
 11
267.3937013234955
 21
-103.0786838817645
 31
0.0
  0
LINE
  5
4C2
330
1F
100
AcDbEntity
  8
Layer1
 62
     7
370
    25
100
AcDbLine
 10
258.3405013234956
 20
-103.2036838817645
 30
0.0
 11
257.8405013234956
 21
-103.2036838817645
 31
0.0
  0
HATCH
  5
4C3
330
1F
100
AcDbEntity
  8
Dimension
 62
     5
420
      255
370
     5
100
AcDbHatch
 10
0.0
 20
0.0
 30
0.0
210
0.0
220
0.0
230
1.0
  2
SOLID
 70
     1
 71
     0
 91
        1
 92
       64
 93
        4
 72
     1
 10
250.2514013234956
 20
-103.0786838817644
 11
250.4914013181312
 21
-103.8786838936854
 72
     1
 10
250.4914013181312
 20
-103.8786838936854
 11
250.2514013234956
 21
-103.7186838913012
 72
     1
 10
250.2514013234956
 20
-103.7186838913012
 11
250.01140132886
 21
-103.8786838936854
 72
     1
 10
250.01140132886
 20
-103.8786838936854
 11
250.2514013234956
 21
-103.0786838817644
 97
        0
 75
     0
 76
     1
 98
        0
  0
LINE
  5
4C4
330
1F
100
AcDbEntity
  8
0
100
AcDbLine
 10
250.2514013234956
 20
-103.0786838817644
 30
0.0
 11
250.4914013181312
 21
-103.8786838936854
 31
0.0
  0
LINE
  5
4C5
330
1F
100
AcDbEntity
  8
0
100
AcDbLine
 10
250.4914013181312
 20
-103.8786838936854
 30
0.0
 11
250.2514013234956
 21
-103.7186838913012
 31
0.0
  0
LINE
  5
4C6
330
1F
100
AcDbEntity
  8
0
100
AcDbLine
 10
250.2514013234956
 20
-103.7186838913012
 30
0.0
 11
250.01140132886
 21
-103.8786838936854
 31
0.0
  0
LINE
  5
4C7
330
1F
100
AcDbEntity
  8
0
100
AcDbLine
 10
250.01140132886
 20
-103.8786838936854
 30
0.0
 11
250.2514013234956
 21
-103.0786838817644
 31
0.0
  0
LINE
  5
4C8
330
1F
100
AcDbEntity
  8
Dimension
 62
     5
420
      255
370
     5
100
AcDbLine
 10
250.4914013181312
 20
-103.8786838936854
 30
0.0
 11
250.2514013234956
 21
-103.7186838913012
 31
0.0
  0
LINE
  5
4C9
330
1F
100
AcDbEntity
  8
Dimension
 62
     5
420
      255
370
     5
100
AcDbLine
 10
250.2514013234956
 20
-103.0786838817644
 30
0.0
 11
250.4914013181312
 21
-103.8786838936854
 31
0.0
  0
MTEXT
  5
4CA
330
1F
100
AcDbEntity
  8
Dimension
 62
     5
420
      255
370
    25
100
AcDbMText
 10
249.0767981138865
 20
-108.4883736732974
 30
0.0
 40
1.333333373069763
 41
2.466666740179062
 71
     1
 72
     1
  1
{\C5;\l\fPlotter|b0|i0|c00|p34;12\P}
 73
     1
 44
1.0
  0
LINE
  5
4CB
330
1F
100
AcDbEntity
  8
Dimension
 62
     5
420
      255
370
     5
100
AcDbLine
 10
250.2514013234956
 20
-103.0786838817644
 30
0.0
 11
250.2514013234956
 21
-107.732373665668
 31
0.0
  0
LINE
  5
4CC
330
1F
100
AcDbEntity
  8
Dimension
 62
     5
420
      255
370
     5
100
AcDbLine
 10
250.01140132886
 20
-103.8786838936854
 30
0.0
 11
250.2514013234956
 21
-103.0786838817644
 31
0.0
  0
LINE
  5
4CD
330
1F
100
AcDbEntity
  8
Dimension
 62
     5
420
      255
370
     5
100
AcDbLine
 10
250.2514013234956
 20
-103.7186838913012
 30
0.0
 11
250.01140132886
 21
-103.8786838936854
 31
0.0
  0
LINE
  5
4CE
330
1F
100
AcDbEntity
  8
Dimension
 62
     5
420
      255
370
     5
100
AcDbLine
 10
277.4944013139589
 20
-100.9536838817644
 30
0.0
 11
277.3344013115747
 21
-100.7136838871289
 31
0.0
  0
LINE
  5
4CF
330
1F
100
AcDbEntity
  8
Layer1
 62
     7
370
    25
100
AcDbLine
 10
277.4469013234955
 20
-103.0786838817645
 30
0.0
 11
273.4203013234956
 21
-103.0786838817645
 31
0.0
  0
LINE
  5
4D0
330
1F
100
AcDbEntity
  8
Dimension
 62
     5
420
      255
370
     5
100
AcDbLine
 10
265.7872442307087
 20
-112.9607028341024
 30
0.0
 11
265.5472442360731
 21
-112.8007028317182
 31
0.0
  0
LINE
  5
4D1
330
1F
100
AcDbEntity
  8
Dimension
 62
     5
420
      255
370
     5
100
AcDbLine
 10
266.0272442253442
 20
-112.8007028317182
 30
0.0
 11
265.7872442307087
 21
-112.9607028341024
 31
0.0
  0
HATCH
  5
4D2
330
1F
100
AcDbEntity
  8
Dimension
 62
     5
420
      255
370
     5
100
AcDbHatch
 10
0.0
 20
0.0
 30
0.0
210
0.0
220
0.0
230
1.0
  2
SOLID
 70
     1
 71
     0
 91
        1
 92
       64
 93
        4
 72
     1
 10
265.7872442307087
 20
-113.6007028436392
 11
266.0272442253442
 21
-112.8007028317182
 72
     1
 10
266.0272442253442
 20
-112.8007028317182
 11
265.7872442307087
 21
-112.9607028341024
 72
     1
 10
265.7872442307087
 20
-112.9607028341024
 11
265.5472442360731
 21
-112.8007028317182
 72
     1
 10
265.5472442360731
 20
-112.8007028317182
 11
265.7872442307087
 21
-113.6007028436392
 97
        0
 75
     0
 76
     1
 98
        0
  0
LINE
  5
4D3
330
1F
100
AcDbEntity
  8
0
100
AcDbLine
 10
265.7872442307087
 20
-113.6007028436392
 30
0.0
 11
266.0272442253442
 21
-112.8007028317182
 31
0.0
  0
LINE
  5
4D4
330
1F
100
AcDbEntity
  8
0
100
AcDbLine
 10
266.0272442253442
 20
-112.8007028317182
 30
0.0
 11
265.7872442307087
 21
-112.9607028341024
 31
0.0
  0
LINE
  5
4D5
330
1F
100
AcDbEntity
  8
0
100
AcDbLine
 10
265.7872442307087
 20
-112.9607028341024
 30
0.0
 11
265.5472442360731
 21
-112.8007028317182
 31
0.0
  0
LINE
  5
4D6
330
1F
100
AcDbEntity
  8
0
100
AcDbLine
 10
265.5472442360731
 20
-112.8007028317182
 30
0.0
 11
265.7872442307087
 21
-113.6007028436392
 31
0.0
  0
LINE
  5
4D7
330
1F
100
AcDbEntity
  8
Dimension
 62
     5
420
      255
370
     5
100
AcDbLine
 10
265.5472442360731
 20
-112.8007028317182
 30
0.0
 11
265.7872442307087
 21
-113.6007028436392
 31
0.0
  0
LINE
  5
4D8
330
1F
100
AcDbEntity
  8
Dimension
 62
     5
420
      255
370
     5
100
AcDbLine
 10
265.7872442307087
 20
-113.6007028436392
 30
0.0
 11
266.0272442253442
 21
-112.8007028317182
 31
0.0
  0
LINE
  5
4D9
330
1F
100
AcDbEntity
  8
Dimension
 62
     5
420
      255
370
     5
100
AcDbLine
 10
265.7872442307087
 20
-113.6007028436392
 30
0.0
 11
265.7872442307087
 21
-110.6007028436392
 31
0.0
  0
LINE
  5
4DA
330
1F
100
AcDbEntity
  8
Layer1
 62
     7
370
    25
100
AcDbLine
 10
252.6264013234955
 20
-114.9536838817645
 30
0.0
 11
252.8139013234955
 21
-114.9536838817645
 31
0.0
  0
LINE
  5
4DB
330
1F
100
AcDbEntity
  8
Layer1
 62
     7
370
    25
100
AcDbLine
 10
257.3405013234956
 20
-114.9536838817645
 30
0.0
 11
257.3405013234956
 21
-115.0786838817645
 31
0.0
  0
LINE
  5
4DC
330
1F
100
AcDbEntity
  8
Layer1
 62
     7
370
    25
100
AcDbLine
 10
277.9469013234955
 20
-114.9536838817645
 30
0.0
 11
277.4469013234955
 21
-114.9536838817645
 31
0.0
  0
LINE
  5
4DD
330
1F
100
AcDbEntity
  8
Dimension
 62
     5
420
      255
370
     5
100
AcDbLine
 10
265.5105811085072
 20
-105.3786838936854
 30
0.0
 11
265.7505811031427
 21
-105.2186838913013
 31
0.0
  0
LINE
  5
4DE
330
1F
100
AcDbEntity
  8
Dimension
 62
     5
420
      255
370
     5
100
AcDbLine
 10
265.7505811031427
 20
-104.5786838817645
 30
0.0
 11
265.5105811085072
 21
-105.3786838936854
 31
0.0
  0
LINE
  5
4DF
330
1F
100
AcDbEntity
  8
Dimension
 62
     5
420
      255
370
     5
100
AcDbLine
 10
265.7505811031427
 20
-103.5786838817644
 30
0.0
 11
265.7505811031427
 21
-100.5786838817644
 31
0.0
  0
HATCH
  5
4E0
330
1F
100
AcDbEntity
  8
Dimension
 62
     5
420
      255
370
     5
100
AcDbHatch
 10
0.0
 20
0.0
 30
0.0
210
0.0
220
0.0
230
1.0
  2
SOLID
 70
     1
 71
     0
 91
        1
 92
       64
 93
        4
 72
     1
 10
265.7505811031427
 20
-103.5786838817644
 11
265.9905810977783
 21
-102.7786838698435
 72
     1
 10
265.9905810977783
 20
-102.7786838698435
 11
265.7505811031427
 21
-102.9386838722277
 72
     1
 10
265.7505811031427
 20
-102.9386838722277
 11
265.5105811085072
 21
-102.7786838698435
 72
     1
 10
265.5105811085072
 20
-102.7786838698435
 11
265.7505811031427
 21
-103.5786838817644
 97
        0
 75
     0
 76
     1
 98
        0
  0
LINE
  5
4E1
330
1F
100
AcDbEntity
  8
0
100
AcDbLine
 10
265.7505811031427
 20
-103.5786838817644
 30
0.0
 11
265.9905810977783
 21
-102.7786838698435
 31
0.0
  0
LINE
  5
4E2
330
1F
100
AcDbEntity
  8
0
100
AcDbLine
 10
265.9905810977783
 20
-102.7786838698435
 30
0.0
 11
265.7505811031427
 21
-102.9386838722277
 31
0.0
  0
LINE
  5
4E3
330
1F
100
AcDbEntity
  8
0
100
AcDbLine
 10
265.7505811031427
 20
-102.9386838722277
 30
0.0
 11
265.5105811085072
 21
-102.7786838698435
 31
0.0
  0
LINE
  5
4E4
330
1F
100
AcDbEntity
  8
0
100
AcDbLine
 10
265.5105811085072
 20
-102.7786838698435
 30
0.0
 11
265.7505811031427
 21
-103.5786838817644
 31
0.0
  0
LINE
  5
4E5
330
1F
100
AcDbEntity
  8
Dimension
 62
     5
420
      255
370
     5
100
AcDbLine
 10
265.5105811085072
 20
-102.7786838698435
 30
0.0
 11
265.7505811031427
 21
-103.5786838817644
 31
0.0
  0
LINE
  5
4E6
330
1F
100
AcDbEntity
  8
Dimension
 62
     5
420
      255
370
     5
100
AcDbLine
 10
265.7505811031427
 20
-102.9386838722277
 30
0.0
 11
265.5105811085072
 21
-102.7786838698435
 31
0.0
  0
LINE
  5
4E7
330
1F
100
AcDbEntity
  8
Dimension
 62
     5
420
      255
370
     5
100
AcDbLine
 10
265.9905810977783
 20
-102.7786838698435
 30
0.0
 11
265.7505811031427
 21
-102.9386838722277
 31
0.0
  0
LINE
  5
4E8
330
1F
100
AcDbEntity
  8
Dimension
 62
     5
420
      255
370
     5
100
AcDbLine
 10
265.7505811031427
 20
-103.5786838817644
 30
0.0
 11
265.9905810977783
 21
-102.7786838698435
 31
0.0
  0
MTEXT
  5
4E9
330
1F
100
AcDbEntity
  8
Dimension
 62
     5
420
      255
370
    25
100
AcDbMText
 10
261.9835758254369
 20
-100.543017202859
 30
0.0
 40
1.333333373069763
 41
7.133333545923232
 71
     1
 72
     1
  1
{\C5;\l\fPlotter|b0|i0|c00|p34;25.508\P}
 73
     1
 44
1.0
  0
LINE
  5
4EA
330
1F
100
AcDbEntity
  8
Dimension
 62
     5
420
      255
370
     5
100
AcDbLine
 10
252.6264013234956
 20
-100.9536838817644
 30
0.0
 11
261.316909138902
 21
-100.9536838817644
 31
0.0
  0
LINE
  5
4EB
330
1F
100
AcDbEntity
  8
Layer1
 62
     7
370
    25
100
AcDbLine
 10
267.8937013234955
 20
-103.2036838817645
 30
0.0
 11
267.3937013234955
 21
-103.2036838817645
 31
0.0
  0
LINE
  5
4EC
330
1F
100
AcDbEntity
  8
Layer1
 62
     7
370
    25
100
AcDbLine
 10
263.3671013234956
 20
-103.0786838817645
 30
0.0
 11
263.3671013234956
 21
-103.2036838817645
 31
0.0
  0
LINE
  5
4ED
330
1F
100
AcDbEntity
  8
Layer1
 62
     7
370
    25
100
AcDbLine
 10
263.3671013234956
 20
-103.2036838817645
 30
0.0
 11
262.8671013234956
 21
-103.2036838817645
 31
0.0
  0
LINE
  5
4EE
330
1F
100
AcDbEntity
  8
Layer1
 62
     7
370
    25
100
AcDbLine
 10
262.8671013234956
 20
-103.2036838817645
 30
0.0
 11
262.3671013234956
 21
-103.2036838817645
 31
0.0
  0
LINE
  5
4EF
330
1F
100
AcDbEntity
  8
Layer1
 62
     7
370
    25
100
AcDbLine
 10
262.3671013234956
 20
-103.2036838817645
 30
0.0
 11
262.3671013234956
 21
-103.0786838817645
 31
0.0
  0
LINE
  5
4F0
330
1F
100
AcDbEntity
  8
Layer1
 62
     7
370
    25
100
AcDbLine
 10
262.3671013234956
 20
-103.0786838817645
 30
0.0
 11
258.3405013234956
 21
-103.0786838817645
 31
0.0
  0
LINE
  5
4F1
330
1F
100
AcDbEntity
  8
Layer1
 62
     7
370
    25
100
AcDbLine
 10
273.4203013234956
 20
-103.0786838817645
 30
0.0
 11
273.4203013234956
 21
-103.2036838817645
 31
0.0
  0
LINE
  5
4F2
330
1F
100
AcDbEntity
  8
Layer1
 62
     7
370
    25
100
AcDbLine
 10
273.4203013234956
 20
-103.2036838817645
 30
0.0
 11
272.9203013234956
 21
-103.2036838817645
 31
0.0
  0
LINE
  5
4F3
330
1F
100
AcDbEntity
  8
Layer1
 62
     7
370
    25
100
AcDbLine
 10
272.9203013234956
 20
-103.2036838817645
 30
0.0
 11
272.4203013234956
 21
-103.2036838817645
 31
0.0
  0
LINE
  5
4F4
330
1F
100
AcDbEntity
  8
Layer1
 62
     7
370
    25
100
AcDbLine
 10
272.4203013234956
 20
-103.2036838817645
 30
0.0
 11
272.4203013234956
 21
-103.0786838817645
 31
0.0
  0
LINE
  5
4F5
330
1F
100
AcDbEntity
  8
Layer1
 62
     7
370
    25
100
AcDbLine
 10
272.4203013234956
 20
-103.0786838817645
 30
0.0
 11
268.3937013234955
 21
-103.0786838817645
 31
0.0
  0
LINE
  5
4F6
330
1F
100
AcDbEntity
  8
Layer1
 62
     7
370
    25
100
AcDbLine
 10
268.3937013234955
 20
-103.2036838817645
 30
0.0
 11
267.8937013234955
 21
-103.2036838817645
 31
0.0
  0
LINE
  5
4F7
330
1F
100
AcDbEntity
  8
Layer1
 62
     7
370
    25
100
AcDbLine
 10
267.3937013234955
 20
-103.0786838817645
 30
0.0
 11
263.3671013234956
 21
-103.0786838817645
 31
0.0
  0
ELLIPSE
  5
4F8
330
1F
100
AcDbEntity
  8
Layer1
 62
     7
370
    25
100
AcDbEllipse
 10
265.3804013234956
 20
-104.1786838817645
 30
0.0
 11
4.0
 21
0.0
 31
0.0
210
0.0
220
0.0
230
-1.0
 40
0.275
 41
0.0
 42
6.283185307179586
  0
LINE
  5
4F9
330
1F
100
AcDbEntity
  8
Dimension
 62
     5
420
      255
370
     5
100
AcDbLine
 10
252.6264013234956
 20
-100.9536838817644
 30
0.0
 11
253.4264013354165
 21
-100.7136838871289
 31
0.0
  0
ARC
  5
4FA
330
1F
100
AcDbEntity
  8
Layer1
 62
     7
370
    25
100
AcDbCircle
 10
197.0094906266404
 20
-163.0144110774006
 30
0.0
 40
8.029113203345547
100
AcDbArc
 50
68.49555975918695
 51
111.626974708732
  0
ELLIPSE
  5
4FB
330
1F
100
AcDbEntity
  8
Layer1
 62
     7
370
    25
100
AcDbEllipse
 10
196.9812137717541
 20
-154.3126219023588
 30
0.0
 11
0.9
 21
0.0
 31
0.0
210
0.0
220
0.0
230
-1.0
 40
0.3333333333333334
 41
0.0
 42
6.283185307179586
  0
DIMENSION
  5
4FC
330
1F
100
AcDbEntity
  8
0
100
AcDbDimension
  2
*D53
 10
201.3512765996181
 20
-154.0126219023587
 30
0.0
 11
201.3512765996181
 21
-144.0126227175516
 31
0.0
 70
   160
 71
     5
 42
19.99999836961422
  3
OdaDimStyle0
100
AcDbAlignedDimension
 13
194.9892893788509
 23
-134.0126235327445
 33
0.0
 14
194.9812137717541
 24
-154.0126219023587
 34
0.0
 50
270.0
100
AcDbRotatedDimension
1001
ACAD
1000
DSTYLE
1002
{
1070
    41
1040
0.800000011920929
1070
   140
1040
1.333333373069763
1002
}
  0
MTEXT
  5
50A
330
1F
100
AcDbEntity
  8
Layer1
 62
     7
370
    25
100
AcDbMText
 10
221.5288978127241
 20
-157.9437110308443
 30
0.0
 40
1.0
 41
21.875
 71
     1
 72
     1
  1
{\C7;\l\fPlotter|b0|i0|c00|p34;\H1.00x;  5" Diameter On Center\P\l\fPlotter|b0|i0|c00|p34;\H0.75x; (with 1/4" sheet overlap at joint)\P\l\fPlotter|b1|i0|c00|p34;\P}
 73
     1
 44
1.0
  0
LINE
  5
50B
330
1F
100
AcDbEntity
  8
Layer1
 62
     7
370
    25
100
AcDbLine
 10
239.5090638190498
 20
-145.8725377554417
 30
0.0
 11
239.50906381905
 21
-155.5365233848595
 31
0.0
  0
LINE
  5
50C
330
1F
100
AcDbEntity
  8
Layer1
 62
     7
370
     9
100
AcDbLine
 10
239.50906381905
 20
-155.5365233848595
 30
0.0
 11
239.38406381905
 21
-155.5365233848595
 31
0.0
  0
LINE
  5
50D
330
1F
100
AcDbEntity
  8
Layer1
 62
     7
370
     9
100
AcDbLine
 10
239.0090638190499
 20
-155.5365233848595
 30
0.0
 11
239.0090638190499
 21
-155.6615233848595
 31
0.0
  0
LINE
  5
50E
330
1F
100
AcDbEntity
  8
Layer1
 62
     7
370
     9
100
AcDbLine
 10
239.3840638190499
 20
-155.5365233848595
 30
0.0
 11
239.0090638190499
 21
-155.5365233848595
 31
0.0
  0
MTEXT
  5
50F
330
1F
100
AcDbEntity
  8
Layer1
 62
     7
370
    25
100
AcDbMText
 10
225.2761673860334
 20
-161.4457857538771
 30
0.0
 40
1.333333373069763
 41
15.575
 71
     1
 72
     1
  1
{\C7;\l\fPlotter|b1|i0|c00|p34;\H1.00x;Swirl Burner\P}
 73
     1
 44
1.0
  0
DIMENSION
  5
510
330
1F
100
AcDbEntity
  8
0
100
AcDbDimension
  2
*D54
 10
239.5090638190498
 20
-143.9975377554417
 30
0.0
 11
231.5300638190499
 21
-143.9975377554417
 31
0.0
 70
   160
 71
     5
 42
15.95799999999986
  3
OdaDimStyle0
100
AcDbAlignedDimension
 13
223.5510638190499
 23
-146.9975377554417
 33
0.0
 14
239.5090638190498
 24
-146.9975377554417
 34
0.0
100
AcDbRotatedDimension
1001
ACAD
1000
DSTYLE
1002
{
1070
    41
1040
0.800000011920929
1070
   140
1040
1.333333373069763
1002
}
  0
LINE
  5
51E
330
1F
100
AcDbEntity
  8
Layer1
 62
     7
370
    25
100
AcDbLine
 10
223.5510638190499
 20
-145.8725377554417
 30
0.0
 11
239.5090638190498
 21
-145.8725377554417
 31
0.0
  0
LINE
  5
51F
330
1F
100
AcDbEntity
  8
Layer1
 62
     7
370
     9
100
AcDbLine
 10
234.5230638190498
 20
-155.6615233848595
 30
0.0
 11
239.0090638190499
 21
-155.6615233848595
 31
0.0
  0
LINE
  5
520
330
1F
100
AcDbEntity
  8
Layer1
 62
     7
370
     9
100
AcDbLine
 10
228.5370638190498
 20
-155.5365233848595
 30
0.0
 11
228.5370638190498
 21
-155.6615233848595
 31
0.0
  0
LINE
  5
521
330
1F
100
AcDbEntity
  8
Layer1
 62
     7
370
     9
100
AcDbLine
 10
224.0510638190498
 20
-155.6615233848595
 30
0.0
 11
228.5370638190498
 21
-155.6615233848595
 31
0.0
  0
LINE
  5
522
330
1F
100
AcDbEntity
  8
Layer1
 62
     7
370
     9
100
AcDbLine
 10
228.9120638190498
 20
-155.5365233848595
 30
0.0
 11
228.5370638190498
 21
-155.5365233848595
 31
0.0
  0
LINE
  5
523
330
1F
100
AcDbEntity
  8
Layer1
 62
     7
370
     9
100
AcDbLine
 10
229.2870638190499
 20
-155.5365233848595
 30
0.0
 11
229.2870638190499
 21
-155.6615233848595
 31
0.0
  0
LINE
  5
524
330
1F
100
AcDbEntity
  8
Layer1
 62
     7
370
     9
100
AcDbLine
 10
229.2870638190499
 20
-155.5365233848595
 30
0.0
 11
228.9120638190498
 21
-155.5365233848595
 31
0.0
  0
ELLIPSE
  5
525
330
1F
100
AcDbEntity
  8
Layer1
 62
     7
370
    25
100
AcDbEllipse
 10
231.5300638190499
 20
-146.5709293242593
 30
0.0
 11
2.5
 21
0.0
 31
0.0
210
0.0
220
0.0
230
-1.0
 40
0.2793566275270223
 41
0.0
 42
6.283185307179586
  0
LINE
  5
526
330
1F
100
AcDbEntity
  8
Layer1
 62
     7
370
     9
100
AcDbLine
 10
229.2870638190499
 20
-155.6615233848595
 30
0.0
 11
233.7730638190499
 21
-155.6615233848595
 31
0.0
  0
LINE
  5
527
330
1F
100
AcDbEntity
  8
Layer1
 62
     7
370
     9
100
AcDbLine
 10
233.7730638190499
 20
-155.5365233848595
 30
0.0
 11
233.7730638190499
 21
-155.6615233848595
 31
0.0
  0
LINE
  5
528
330
1F
100
AcDbEntity
  8
Layer1
 62
     7
370
     9
100
AcDbLine
 10
234.14806381905
 20
-155.5365233848595
 30
0.0
 11
233.7730638190499
 21
-155.5365233848595
 31
0.0
  0
LINE
  5
529
330
1F
100
AcDbEntity
  8
Layer1
 62
     7
370
     9
100
AcDbLine
 10
234.5230638190498
 20
-155.5365233848595
 30
0.0
 11
234.5230638190498
 21
-155.6615233848595
 31
0.0
  0
LINE
  5
52A
330
1F
100
AcDbEntity
  8
Layer1
 62
     7
370
     9
100
AcDbLine
 10
234.5230638190498
 20
-155.5365233848595
 30
0.0
 11
234.14806381905
 21
-155.5365233848595
 31
0.0
  0
ELLIPSE
  5
52B
330
1F
100
AcDbEntity
  8
Layer1
 62
     7
370
    25
100
AcDbEllipse
 10
231.5300638190499
 20
-156.3599149536771
 30
0.0
 11
2.5
 21
0.0
 31
0.0
210
0.0
220
0.0
230
-1.0
 40
0.2793566275270223
 41
0.0
 42
6.283185307179586
  0
LINE
  5
52C
330
1F
100
AcDbEntity
  8
Layer1
 62
     7
370
    25
100
AcDbLine
 10
229.0300638190498
 20
-146.5709293242593
 30
0.0
 11
229.0300638190498
 21
-156.3599149536771
 31
0.0
  0
LINE
  5
52D
330
1F
100
AcDbEntity
  8
Layer1
 62
     7
370
    25
100
AcDbLine
 10
234.0300638190498
 20
-146.5709293242593
 30
0.0
 11
234.0300638190498
 21
-156.3599149536771
 31
0.0
  0
LINE
  5
52E
330
1F
100
AcDbEntity
  8
Layer1
 62
     7
370
    25
100
AcDbLine
 10
231.5300638190499
 20
-147.2693208930768
 30
0.0
 11
231.5300638190499
 21
-157.0583065224946
 31
0.0
  0
ARC
  5
52F
330
1F
100
AcDbEntity
  8
Layer1
 62
     7
370
     5
100
AcDbCircle
 10
-226.1450599883647
 20
-154.4173489433892
 30
0.0
 40
1.208767001256725
210
0.0
220
0.0
230
-1.0
100
AcDbArc
 50
57.68859297107042
 51
65.78235767936995
  0
ARC
  5
530
330
1F
100
AcDbEntity
  8
Layer1
 62
     7
370
     5
100
AcDbCircle
 10
-226.1439534487481
 20
-154.4108525363846
 30
0.0
 40
1.202389551129825
210
0.0
220
0.0
230
-1.0
100
AcDbArc
 50
65.70346119616832
 51
98.25460806346891
  0
ARC
  5
531
330
1F
100
AcDbEntity
  8
Layer1
 62
     7
370
     5
100
AcDbCircle
 10
-226.1562456403002
 20
-154.3090075179241
 30
0.0
 40
1.099837590910107
210
0.0
220
0.0
230
-1.0
100
AcDbArc
 50
98.38261919415541
 51
103.8548614845358
  0
LINE
  5
532
330
1F
100
AcDbEntity
  8
Layer1
 62
     7
370
     5
100
AcDbLine
 10
226.4196162938359
 20
-153.2411692224715
 30
0.0
 11
226.6351801130298
 21
-153.2973590111749
 31
0.0
  0
ARC
  5
533
330
1F
100
AcDbEntity
  8
Layer1
 62
     7
370
     5
100
AcDbCircle
 10
-222.1635765474716
 20
-169.9382249637248
 30
0.0
 40
17.23118272488129
210
0.0
220
0.0
230
-1.0
100
AcDbArc
 50
105.040780404446
 51
108.2148553083819
  0
ARC
  5
534
330
1F
100
AcDbEntity
  8
Layer1
 62
     7
370
     5
100
AcDbCircle
 10
-223.7976023146159
 20
-164.7632441293376
 30
0.0
 40
11.8049305167129
210
0.0
220
0.0
230
-1.0
100
AcDbArc
 50
108.5325474867
 51
113.9267738707454
  0
ARC
  5
535
330
1F
100
AcDbEntity
  8
Layer1
 62
     7
370
     5
100
AcDbCircle
 10
-228.4712928333348
 20
-154.3087642867947
 30
0.0
 40
0.3548083438053036
210
0.0
220
0.0
230
-1.0
100
AcDbArc
 50
108.7450857159002
 51
135.6822962555821
  0
ARC
  5
536
330
1F
100
AcDbEntity
  8
Layer1
 62
     7
370
     5
100
AcDbCircle
 10
-228.475183590113
 20
-154.3106082146212
 30
0.0
 40
0.3533359010543978
210
0.0
220
0.0
230
-1.0
100
AcDbArc
 50
135.027572425949
 51
194.6249127309184
  0
ARC
  5
537
330
1F
100
AcDbEntity
  8
Layer1
 62
     7
370
     5
100
AcDbCircle
 10
-228.4743345401488
 20
-154.3153378139808
 30
0.0
 40
0.3529957749050629
210
0.0
220
0.0
230
-1.0
100
AcDbArc
 50
193.8472906778281
 51
226.3476784074465
  0
ARC
  5
538
330
1F
100
AcDbEntity
  8
Layer1
 62
     7
370
     5
100
AcDbCircle
 10
-228.4700896045397
 20
-154.3139928277043
 30
0.0
 40
0.3569055588166035
210
0.0
220
0.0
230
-1.0
100
AcDbArc
 50
226.0036548949893
 51
252.7801436960425
  0
ARC
  5
539
330
1F
100
AcDbEntity
  8
Layer1
 62
     7
370
     5
100
AcDbCircle
 10
-224.8347811596173
 20
-147.3240415831569
 30
0.0
 40
8.230207819794943
210
0.0
220
0.0
230
-1.0
100
AcDbArc
 50
242.9645982682263
 51
245.9907625418396
  0
ARC
  5
53A
330
1F
100
AcDbEntity
  8
Layer1
 62
     7
370
     5
100
AcDbCircle
 10
-224.8365293213231
 20
-147.3259727449961
 30
0.0
 40
8.227732483420375
210
0.0
220
0.0
230
-1.0
100
AcDbArc
 50
245.9964111912242
 51
249.0234232944975
  0
ARC
  5
53B
330
1F
100
AcDbEntity
  8
Layer1
 62
     7
370
     5
100
AcDbCircle
 10
-224.8216001626582
 20
-147.2851188718261
 30
0.0
 40
8.271223303955592
210
0.0
220
0.0
230
-1.0
100
AcDbArc
 50
249.0281709288636
 51
252.0399220856056
  0
ARC
  5
53C
330
1F
100
AcDbEntity
  8
Layer1
 62
     7
370
     5
100
AcDbCircle
 10
-224.8806695750677
 20
-147.4804226555401
 30
0.0
 40
8.067223064267855
210
0.0
220
0.0
230
-1.0
100
AcDbArc
 50
252.0112877899959
 51
255.0781707076268
  0
ARC
  5
53D
330
1F
100
AcDbEntity
  8
Layer1
 62
     7
370
     5
100
AcDbCircle
 10
-224.5831900810998
 20
-146.2952066707501
 30
0.0
 40
9.289089453208858
210
0.0
220
0.0
230
-1.0
100
AcDbArc
 50
255.1876315334741
 51
257.5057397170228
  0
ARC
  5
53E
330
1F
100
AcDbEntity
  8
Layer1
 62
     7
370
     5
100
AcDbCircle
 10
-226.1207777550646
 20
-153.375951589689
 30
0.0
 40
2.043618881560492
210
0.0
220
0.0
230
-1.0
100
AcDbArc
 50
256.6453495628966
 51
262.3051134135196
  0
ARC
  5
53F
330
1F
100
AcDbEntity
  8
Layer1
 62
     7
370
     5
100
AcDbCircle
 10
-226.2225118608058
 20
-153.9795403107784
 30
0.0
 40
1.431983074081083
210
0.0
220
0.0
230
-1.0
100
AcDbArc
 50
263.1053227715361
 51
282.2201270205132
  0
ARC
  5
540
330
1F
100
AcDbEntity
  8
Layer1
 62
     7
370
     5
100
AcDbCircle
 10
-226.2227839014099
 20
-153.97480681017
 30
0.0
 40
1.436667092015616
210
0.0
220
0.0
230
-1.0
100
AcDbArc
 50
282.1907723939447
 51
288.5414149542199
  0
ARC
  5
541
330
1F
100
AcDbEntity
  8
Layer1
 62
     7
370
     5
100
AcDbCircle
 10
-226.222347693247
 20
-153.9760844147186
 30
0.0
 40
1.43531709290751
210
0.0
220
0.0
230
-1.0
100
AcDbArc
 50
288.5411235155445
 51
294.8973996487936
  0
ARC
  5
542
330
1F
100
AcDbEntity
  8
Layer1
 62
     7
370
     5
100
AcDbCircle
 10
-226.2228386515782
 20
-153.9757205542492
 30
0.0
 40
1.435853857871077
210
0.0
220
0.0
230
-1.0
100
AcDbArc
 50
294.9090573698292
 51
301.2636617525539
  0
ARC
  5
543
330
1F
100
AcDbEntity
  8
Layer1
 62
     7
370
     5
100
AcDbCircle
 10
-226.2232918247212
 20
-153.9759536469491
 30
0.0
 40
1.435889889454274
210
0.0
220
0.0
230
-1.0
100
AcDbArc
 50
301.2839457271253
 51
307.6402447610597
  0
ARC
  5
544
330
1F
100
AcDbEntity
  8
Layer1
 62
     7
370
     5
100
AcDbCircle
 10
-226.2230190625253
 20
-153.9752491969383
 30
0.0
 40
1.43628128493762
210
0.0
220
0.0
230
-1.0
100
AcDbArc
 50
307.6144667724608
 51
313.9656818506716
  0
ARC
  5
545
330
1F
100
AcDbEntity
  8
Layer1
 62
     7
370
     5
100
AcDbCircle
 10
-226.4369096953452
 20
-154.2508509357935
 30
0.0
 40
1.428752627925121
210
0.0
220
0.0
230
-1.0
100
AcDbArc
 50
327.9505037607427
 51
337.1982685200258
  0
ARC
  5
546
330
1F
100
AcDbEntity
  8
Layer1
 62
     7
370
     5
100
AcDbCircle
 10
-226.4322930836285
 20
-154.2524614002696
 30
0.0
 40
1.423872705378272
210
0.0
220
0.0
230
-1.0
100
AcDbArc
 50
337.1860144721267
 51
5.027377336020442
  0
ARC
  5
547
330
1F
100
AcDbEntity
  8
Layer1
 62
     7
370
     5
100
AcDbCircle
 10
-226.4374486722014
 20
-154.2525193044937
 30
0.0
 40
1.42901358868307
210
0.0
220
0.0
230
-1.0
100
AcDbArc
 50
5.011575569505481
 51
14.25915728065441
  0
ARC
  5
548
330
1F
100
AcDbEntity
  8
Layer1
 62
     7
370
     5
100
AcDbCircle
 10
-226.1463475770699
 20
-154.4176039678108
 30
0.0
 40
1.209934667464472
210
0.0
220
0.0
230
-1.0
100
AcDbArc
 50
25.29933633528688
 51
33.38513540429331
  0
ARC
  5
549
330
1F
100
AcDbEntity
  8
Layer1
 62
     7
370
     5
100
AcDbCircle
 10
-226.1449768269459
 20
-154.4169749277734
 30
0.0
 40
1.20844398746152
210
0.0
220
0.0
230
-1.0
100
AcDbArc
 50
33.39599446902658
 51
41.49195659162466
  0
ARC
  5
54A
330
1F
100
AcDbEntity
  8
Layer1
 62
     7
370
     5
100
AcDbCircle
 10
-226.1448827368857
 20
-154.417265450076
 30
0.0
 40
1.208566017199124
210
0.0
220
0.0
230
-1.0
100
AcDbArc
 50
41.50522854807712
 51
49.5984667923137
  0
ARC
  5
54B
330
1F
100
AcDbEntity
  8
Layer1
 62
     7
370
     5
100
AcDbCircle
 10
-226.1451874379474
 20
-154.4172530001907
 30
0.0
 40
1.208754049228813
210
0.0
220
0.0
230
-1.0
100
AcDbArc
 50
49.58708562429733
 51
57.68105634025506
  0
LINE
  5
54C
330
1F
100
AcDbEntity
  8
Layer1
 62
     7
370
     9
100
AcDbLine
 10
223.6760638190499
 20
-155.5365233848595
 30
0.0
 11
223.5510638190499
 21
-155.5365233848595
 31
0.0
  0
LINE
  5
54D
330
1F
100
AcDbEntity
  8
Layer1
 62
     7
370
    25
100
AcDbLine
 10
223.5510638190499
 20
-145.8725377554417
 30
0.0
 11
223.5510638190499
 21
-155.5365233848595
 31
0.0
  0
DIMENSION
  5
54E
330
1F
100
AcDbEntity
  8
0
100
AcDbDimension
  2
*D55
 10
220.2526532340074
 20
-155.6615233848595
 30
0.0
 11
220.2526532340074
 21
-150.7670305701506
 31
0.0
 70
   160
 71
     5
 42
9.788985629417795
  3
OdaDimStyle0
100
AcDbAlignedDimension
 13
223.30106381905
 23
-145.8725377554417
 33
0.0
 14
223.30106381905
 24
-155.6615233848595
 34
0.0
 50
270.0
100
AcDbRotatedDimension
1001
ACAD
1000
DSTYLE
1002
{
1070
    41
1040
0.800000011920929
1070
   140
1040
1.333333373069763
1002
}
  0
LINE
  5
55C
330
1F
100
AcDbEntity
  8
Layer1
 62
     7
370
     9
100
AcDbLine
 10
224.0510638190498
 20
-155.5365233848595
 30
0.0
 11
224.0510638190498
 21
-155.6615233848595
 31
0.0
  0
LINE
  5
55D
330
1F
100
AcDbEntity
  8
Layer1
 62
     7
370
     9
100
AcDbLine
 10
224.0510638190498
 20
-155.5365233848595
 30
0.0
 11
223.6760638190499
 21
-155.5365233848595
 31
0.0
  0
LINE
  5
55E
330
1F
100
AcDbEntity
  8
Layer1
 62
     7
370
    25
100
AcDbLine
 10
268.3937013234955
 20
-103.0786838817645
 30
0.0
 11
268.3937013234955
 21
-103.2036838817645
 31
0.0
  0
CIRCLE
  5
55F
330
1F
100
AcDbEntity
  8
Layer1
 62
     7
370
    25
100
AcDbCircle
 10
265.3803983337067
 20
-104.0786838817641
 30
0.0
 40
0.5
  0
HATCH
  5
560
330
1F
100
AcDbEntity
  8
Dimension
 62
     5
420
      255
370
     5
100
AcDbHatch
 10
0.0
 20
0.0
 30
0.0
210
0.0
220
0.0
230
1.0
  2
SOLID
 70
     1
 71
     0
 91
        1
 92
       64
 93
        4
 72
     1
 10
278.1344013234956
 20
-100.9536838817644
 11
277.3344013115747
 21
-101.1936838764
 72
     1
 10
277.3344013115747
 20
-101.1936838764
 11
277.4944013139589
 21
-100.9536838817644
 72
     1
 10
277.4944013139589
 20
-100.9536838817644
 11
277.3344013115747
 21
-100.7136838871289
 72
     1
 10
277.3344013115747
 20
-100.7136838871289
 11
278.1344013234956
 21
-100.9536838817644
 97
        0
 75
     0
 76
     1
 98
        0
  0
LINE
  5
561
330
1F
100
AcDbEntity
  8
0
100
AcDbLine
 10
278.1344013234956
 20
-100.9536838817644
 30
0.0
 11
277.3344013115747
 21
-101.1936838764
 31
0.0
  0
LINE
  5
562
330
1F
100
AcDbEntity
  8
0
100
AcDbLine
 10
277.3344013115747
 20
-101.1936838764
 30
0.0
 11
277.4944013139589
 21
-100.9536838817644
 31
0.0
  0
LINE
  5
563
330
1F
100
AcDbEntity
  8
0
100
AcDbLine
 10
277.4944013139589
 20
-100.9536838817644
 30
0.0
 11
277.3344013115747
 21
-100.7136838871289
 31
0.0
  0
LINE
  5
564
330
1F
100
AcDbEntity
  8
0
100
AcDbLine
 10
277.3344013115747
 20
-100.7136838871289
 30
0.0
 11
278.1344013234956
 21
-100.9536838817644
 31
0.0
  0
LINE
  5
565
330
1F
100
AcDbEntity
  8
Dimension
 62
     5
420
      255
370
     5
100
AcDbLine
 10
277.3344013115747
 20
-100.7136838871289
 30
0.0
 11
278.1344013234956
 21
-100.9536838817644
 31
0.0
  0
LINE
  5
566
330
1F
100
AcDbEntity
  8
Layer1
 62
     7
370
    25
100
AcDbLine
 10
257.8405013234956
 20
-103.2036838817645
 30
0.0
 11
257.3405013234956
 21
-103.2036838817645
 31
0.0
  0
LINE
  5
567
330
1F
100
AcDbEntity
  8
Layer1
 62
     7
370
    25
100
AcDbLine
 10
257.3405013234956
 20
-103.2036838817645
 30
0.0
 11
257.3405013234956
 21
-103.0786838817645
 31
0.0
  0
LINE
  5
568
330
1F
100
AcDbEntity
  8
Layer1
 62
     7
370
    25
100
AcDbLine
 10
257.3405013234956
 20
-103.0786838817645
 30
0.0
 11
253.3139013234957
 21
-103.0786838817645
 31
0.0
  0
HATCH
  5
569
330
1F
100
AcDbEntity
  8
Dimension
 62
     5
420
      255
370
     5
100
AcDbHatch
 10
0.0
 20
0.0
 30
0.0
210
0.0
220
0.0
230
1.0
  2
SOLID
 70
     1
 71
     0
 91
        1
 92
       64
 93
        4
 72
     1
 10
252.6264013234956
 20
-100.9536838817644
 11
253.4264013354165
 21
-100.7136838871289
 72
     1
 10
253.4264013354165
 20
-100.7136838871289
 11
253.2664013330324
 21
-100.9536838817644
 72
     1
 10
253.2664013330324
 20
-100.9536838817644
 11
253.4264013354165
 21
-101.1936838764
 72
     1
 10
253.4264013354165
 20
-101.1936838764
 11
252.6264013234956
 21
-100.9536838817644
 97
        0
 75
     0
 76
     1
 98
        0
  0
LINE
  5
56A
330
1F
100
AcDbEntity
  8
0
100
AcDbLine
 10
252.6264013234956
 20
-100.9536838817644
 30
0.0
 11
253.4264013354165
 21
-100.7136838871289
 31
0.0
  0
LINE
  5
56B
330
1F
100
AcDbEntity
  8
0
100
AcDbLine
 10
253.4264013354165
 20
-100.7136838871289
 30
0.0
 11
253.2664013330324
 21
-100.9536838817644
 31
0.0
  0
LINE
  5
56C
330
1F
100
AcDbEntity
  8
0
100
AcDbLine
 10
253.2664013330324
 20
-100.9536838817644
 30
0.0
 11
253.4264013354165
 21
-101.1936838764
 31
0.0
  0
LINE
  5
56D
330
1F
100
AcDbEntity
  8
0
100
AcDbLine
 10
253.4264013354165
 20
-101.1936838764
 30
0.0
 11
252.6264013234956
 21
-100.9536838817644
 31
0.0
  0
LINE
  5
56E
330
1F
100
AcDbEntity
  8
Dimension
 62
     5
420
      255
370
     5
100
AcDbLine
 10
253.4264013354165
 20
-101.1936838764
 30
0.0
 11
252.6264013234956
 21
-100.9536838817644
 31
0.0
  0
LINE
  5
56F
330
1F
100
AcDbEntity
  8
Dimension
 62
     5
420
      255
370
     5
100
AcDbLine
 10
253.2664013330324
 20
-100.9536838817644
 30
0.0
 11
253.4264013354165
 21
-101.1936838764
 31
0.0
  0
LINE
  5
570
330
1F
100
AcDbEntity
  8
Dimension
 62
     5
420
      255
370
     5
100
AcDbLine
 10
253.4264013354165
 20
-100.7136838871289
 30
0.0
 11
253.2664013330324
 21
-100.9536838817644
 31
0.0
  0
LINE
  5
571
330
1F
100
AcDbEntity
  8
Layer1
 62
     7
370
    25
100
AcDbLine
 10
253.3139013234957
 20
-103.2036838817645
 30
0.0
 11
252.8139013234957
 21
-103.2036838817645
 31
0.0
  0
LINE
  5
572
330
1F
100
AcDbEntity
  8
Layer1
 62
     7
370
    25
100
AcDbLine
 10
252.6264013234955
 20
-103.2036838817645
 30
0.0
 11
252.8139013234955
 21
-103.2036838817645
 31
0.0
  0
LINE
  5
573
330
1F
100
AcDbEntity
  8
Layer1
 62
     7
370
    25
100
AcDbLine
 10
258.3405013234956
 20
-103.0786838817645
 30
0.0
 11
258.3405013234956
 21
-103.2036838817645
 31
0.0
  0
LINE
  5
574
330
1F
100
AcDbEntity
  8
Layer1
 62
     7
370
    25
100
AcDbLine
 10
277.9469013234955
 20
-103.2036838817645
 30
0.0
 11
277.4469013234955
 21
-103.2036838817645
 31
0.0
  0
LINE
  5
575
330
1F
100
AcDbEntity
  8
Layer1
 62
     7
370
    25
100
AcDbLine
 10
277.4469013234955
 20
-103.2036838817645
 30
0.0
 11
277.4469013234955
 21
-103.0786838817645
 31
0.0
  0
MTEXT
  5
576
330
1F
100
AcDbEntity
  8
Dimension
 62
     5
420
      255
370
    25
100
AcDbMText
 10
265.4013747435292
 20
-107.0564050131439
 30
0.0
 40
1.333333373069763
 41
0.7333333551883697
 71
     1
 72
     1
  1
{\C5;\l\fPlotter|b0|i0|c00|p34;1\P}
 73
     1
 44
1.0
  0
LINE
  5
577
330
1F
100
AcDbEntity
  8
Dimension
 62
     5
420
      255
370
     5
100
AcDbLine
 10
265.7505811031427
 20
-104.5786838817645
 30
0.0
 11
265.7505811031427
 21
-106.3004050055145
 31
0.0
  0
HATCH
  5
578
330
1F
100
AcDbEntity
  8
Dimension
 62
     5
420
      255
370
     5
100
AcDbHatch
 10
0.0
 20
0.0
 30
0.0
210
0.0
220
0.0
230
1.0
  2
SOLID
 70
     1
 71
     0
 91
        1
 92
       64
 93
        4
 72
     1
 10
265.7505811031427
 20
-104.5786838817645
 11
265.5105811085072
 21
-105.3786838936854
 72
     1
 10
265.5105811085072
 20
-105.3786838936854
 11
265.7505811031427
 21
-105.2186838913013
 72
     1
 10
265.7505811031427
 20
-105.2186838913013
 11
265.9905810977783
 21
-105.3786838936854
 72
     1
 10
265.9905810977783
 20
-105.3786838936854
 11
265.7505811031427
 21
-104.5786838817645
 97
        0
 75
     0
 76
     1
 98
        0
  0
LINE
  5
579
330
1F
100
AcDbEntity
  8
0
100
AcDbLine
 10
265.7505811031427
 20
-104.5786838817645
 30
0.0
 11
265.5105811085072
 21
-105.3786838936854
 31
0.0
  0
LINE
  5
57A
330
1F
100
AcDbEntity
  8
0
100
AcDbLine
 10
265.5105811085072
 20
-105.3786838936854
 30
0.0
 11
265.7505811031427
 21
-105.2186838913013
 31
0.0
  0
LINE
  5
57B
330
1F
100
AcDbEntity
  8
0
100
AcDbLine
 10
265.7505811031427
 20
-105.2186838913013
 30
0.0
 11
265.9905810977783
 21
-105.3786838936854
 31
0.0
  0
LINE
  5
57C
330
1F
100
AcDbEntity
  8
0
100
AcDbLine
 10
265.9905810977783
 20
-105.3786838936854
 30
0.0
 11
265.7505811031427
 21
-104.5786838817645
 31
0.0
  0
LINE
  5
57D
330
1F
100
AcDbEntity
  8
Dimension
 62
     5
420
      255
370
     5
100
AcDbLine
 10
265.9905810977783
 20
-105.3786838936854
 30
0.0
 11
265.7505811031427
 21
-104.5786838817645
 31
0.0
  0
LINE
  5
57E
330
1F
100
AcDbEntity
  8
Dimension
 62
     5
420
      255
370
     5
100
AcDbLine
 10
265.7505811031427
 20
-105.2186838913013
 30
0.0
 11
265.9905810977783
 21
-105.3786838936854
 31
0.0
  0
LINE
  5
57F
330
1F
100
AcDbEntity
  8
Layer1
 62
     7
370
    25
100
AcDbLine
 10
199.4892893788509
 20
-134.7110151015621
 30
0.0
 11
199.4892893788509
 21
-142.2484722604591
 31
0.0
  0
LINE
  5
580
330
1F
100
AcDbEntity
  8
Layer1
 62
     7
370
    25
100
AcDbLine
 10
196.9892893788509
 20
-135.4094066703796
 30
0.0
 11
196.9892893788509
 21
-142.9468638292767
 31
0.0
  0
LINE
  5
581
330
1F
100
AcDbEntity
  8
Layer1
 62
     7
370
    25
100
AcDbLine
 10
196.9892893788509
 20
-134.0126235327445
 30
0.0
 11
196.9812137717541
 21
-154.0126219023587
 31
0.0
  0
LINE
  5
582
330
1F
100
AcDbEntity
  8
Layer1
 62
     7
370
     9
100
AcDbLine
 10
194.7462893788509
 20
-134.1376235327445
 30
0.0
 11
194.3712893788509
 21
-134.1376235327445
 31
0.0
  0
LINE
  5
583
330
1F
100
AcDbEntity
  8
Layer1
 62
     7
370
    25
100
AcDbLine
 10
195.8307893788509
 20
-136.5876235327445
 30
0.0
 11
195.8307893788509
 21
-134.1376235327445
 31
0.0
  0
LINE
  5
584
330
1F
100
AcDbEntity
  8
Layer1
 62
     7
370
     9
100
AcDbLine
 10
194.7462893788509
 20
-134.1376235327445
 30
0.0
 11
194.7462893788509
 21
-134.0126235327445
 31
0.0
  0
LINE
  5
585
330
1F
100
AcDbEntity
  8
Layer1
 62
     7
370
     9
100
AcDbLine
 10
194.3712893788509
 20
-134.1376235327445
 30
0.0
 11
193.9962893788509
 21
-134.1376235327445
 31
0.0
  0
LINE
  5
586
330
1F
100
AcDbEntity
  8
Layer1
 62
     7
370
     9
100
AcDbLine
 10
193.9962893788509
 20
-134.1376235327445
 30
0.0
 11
193.9962893788509
 21
-134.0126235327445
 31
0.0
  0
LINE
  5
587
330
1F
100
AcDbEntity
  8
Layer1
 62
     7
370
     9
100
AcDbLine
 10
189.5102893788509
 20
-134.0126235327445
 30
0.0
 11
193.9962893788509
 21
-134.0126235327445
 31
0.0
  0
LINE
  5
588
330
1F
100
AcDbEntity
  8
Layer1
 62
     7
370
     9
100
AcDbLine
 10
189.1352893788509
 20
-134.1376235327445
 30
0.0
 11
189.0102893788509
 21
-134.1376235327445
 31
0.0
  0
LINE
  5
589
330
1F
100
AcDbEntity
  8
Layer1
 62
     7
370
     9
100
AcDbLine
 10
189.5102893788509
 20
-134.1376235327445
 30
0.0
 11
189.1352893788509
 21
-134.1376235327445
 31
0.0
  0
LINE
  5
58A
330
1F
100
AcDbEntity
  8
Layer1
 62
     7
370
     9
100
AcDbLine
 10
189.5102893788509
 20
-134.1376235327445
 30
0.0
 11
189.5102893788509
 21
-134.0126235327445
 31
0.0
  0
LINE
  5
58B
330
1F
100
AcDbEntity
  8
Layer1
 62
     7
370
    25
100
AcDbLine
 10
189.1252626125636
 20
-143.0505227882552
 30
0.0
 11
194.0502626125636
 21
-155.5505227882552
 31
0.0
  0
LINE
  5
58C
330
1F
100
AcDbEntity
  8
Layer1
 62
     7
370
    25
100
AcDbLine
 10
194.4892893788509
 20
-142.2484722604591
 30
0.0
 11
196.0821361717961
 21
-154.3262007636016
 31
0.0
  0
LINE
  5
58D
330
1F
100
AcDbEntity
  8
Layer1
 62
     7
370
    25
100
AcDbLine
 10
189.0102893788509
 20
-134.1376235327445
 30
0.0
 11
189.0102893788509
 21
-141.5126235327445
 31
0.0
  0
LINE
  5
58E
330
1F
100
AcDbEntity
  8
Layer1
 62
     7
370
    25
100
AcDbLine
 10
194.4892893788509
 20
-134.7110151015621
 30
0.0
 11
194.4892893788509
 21
-142.2484722604591
 31
0.0
  0
LINE
  5
58F
330
1F
100
AcDbEntity
  8
Layer1
 62
     7
370
    25
100
AcDbLine
 10
195.8307893788509
 20
-134.1376235327445
 30
0.0
 11
198.1477893788509
 21
-134.1376235327445
 31
0.0
  0
LINE
  5
590
330
1F
100
AcDbEntity
  8
Layer1
 62
     7
370
     9
100
AcDbLine
 10
194.7462893788509
 20
-134.0126235327445
 30
0.0
 11
199.2322893788509
 21
-134.0126235327445
 31
0.0
  0
ELLIPSE
  5
591
330
1F
100
AcDbEntity
  8
Layer1
 62
     7
370
    25
100
AcDbEllipse
 10
196.9892893788509
 20
-134.7110151015621
 30
0.0
 11
2.5
 21
0.0
 31
0.0
210
0.0
220
0.0
230
-1.0
 40
0.2793566275270223
 41
0.0
 42
6.283185307179586
  0
DIMENSION
  5
592
330
1F
100
AcDbEntity
  8
0
100
AcDbDimension
  2
*D56
 10
204.9682893788509
 20
-131.3876235327445
 30
0.0
 11
196.9892893788509
 21
-131.3876235327445
 31
0.0
 70
   160
 71
     5
 42
15.95799999999997
  3
OdaDimStyle0
100
AcDbAlignedDimension
 13
189.0102893788509
 23
-134.3876235327445
 33
0.0
 14
204.9682893788509
 24
-134.3876235327445
 34
0.0
100
AcDbRotatedDimension
1001
ACAD
1000
DSTYLE
1002
{
1070
    41
1040
0.800000011920929
1070
   140
1040
1.333333373069763
1002
}
  0
LINE
  5
5A0
330
1F
100
AcDbEntity
  8
Layer1
 62
     7
370
    25
100
AcDbLine
 10
189.0102893788509
 20
-141.5126235327445
 30
0.0
 11
204.9682893788509
 21
-141.5126235327445
 31
0.0
  0
LINE
  5
5A1
330
1F
100
AcDbEntity
  8
Layer1
 62
     7
370
    25
100
AcDbLine
 10
195.8307893788509
 20
-136.5876235327445
 30
0.0
 11
198.1477893788509
 21
-136.6626235327446
 31
0.0
  0
ELLIPSE
  5
5A2
330
1F
100
AcDbEntity
  8
Layer1
 62
     7
370
    25
100
AcDbEllipse
 10
196.9892893788509
 20
-142.2484722604591
 30
0.0
 11
2.5
 21
0.0
 31
0.0
210
0.0
220
0.0
230
-1.0
 40
0.2793566275270223
 41
0.0
 42
6.283185307179586
  0
DIMENSION
  5
5A3
330
1F
100
AcDbEntity
  8
0
100
AcDbDimension
  2
*D57
 10
197.881213771754
 20
-154.2752189285676
 30
0.0
 11
203.8056300420167
 21
-154.2752189285676
 31
0.0
 70
   160
 71
     5
 42
1.799999999999955
  3
OdaDimStyle0
100
AcDbAlignedDimension
 13
196.0812137717541
 23
-155.0626219023588
 33
0.0
 14
197.881213771754
 24
-155.0626219023588
 34
0.0
100
AcDbRotatedDimension
1001
ACAD
1000
DSTYLE
1002
{
1070
    41
1040
0.800000011920929
1070
   140
1040
1.333333373069763
1002
}
  0
ARC
  5
5B1
330
1F
100
AcDbEntity
  8
Layer1
 62
     7
370
    25
100
AcDbCircle
 10
197.0094906266404
 20
-163.0144110774006
 30
0.0
 40
21.46433989200294
100
AcDbArc
 50
68.49555975918713
 51
111.5502763799234
  0
LINE
  5
5B2
330
1F
100
AcDbEntity
  8
Layer1
  6
Dotted_G
 62
     7
370
    25
100
AcDbLine
 10
211.7154867928588
 20
-136.4281622615341
 30
0.0
 11
213.7835979200211
 21
-136.4281622615341
 31
0.0
  0
LINE
  5
5B3
330
1F
100
AcDbEntity
  8
Layer1
 62
     7
370
    25
100
AcDbLine
 10
213.7835979200211
 20
-136.4281622615341
 30
0.0
 11
213.7835979200211
 21
-138.4281622615341
 31
0.0
  0
CIRCLE
  5
5B4
330
1F
100
AcDbEntity
  8
Layer1
 62
     7
370
    25
100
AcDbCircle
 10
213.0335979200211
 20
-137.4281622615341
 30
0.0
 40
0.2500000000000221
  0
LINE
  5
5B5
330
1F
100
AcDbEntity
  8
Layer1
 62
     7
370
    25
100
AcDbLine
 10
211.7154867928588
 20
-132.4281622615341
 30
0.0
 11
211.7154867928588
 21
-134.4281622615341
 31
0.0
  0
LINE
  5
5B6
330
1F
100
AcDbEntity
  8
Layer1
 62
     7
370
    25
100
AcDbLine
 10
213.7835979200211
 20
-132.4281622615341
 30
0.0
 11
213.7835979200211
 21
-140.4281622615341
 31
0.0
  0
LINE
  5
5B7
330
1F
100
AcDbEntity
  8
Layer1
 62
     7
370
    25
100
AcDbLine
 10
211.7154867928588
 20
-132.4281622615341
 30
0.0
 11
213.7835979200211
 21
-132.4281622615341
 31
0.0
  0
LINE
  5
5B8
330
1F
100
AcDbEntity
  8
Layer1
 62
     7
370
    25
100
AcDbLine
 10
221.2157857999924
 20
-135.0260307828445
 30
0.0
 11
221.0907857999925
 21
-135.0260307828445
 31
0.0
  0
LINE
  5
5B9
330
1F
100
AcDbEntity
  8
Layer1
 62
     7
370
    25
100
AcDbLine
 10
221.2157857999924
 20
-137.5248713274495
 30
0.0
 11
221.2157857999924
 21
-135.0260307828445
 31
0.0
  0
MTEXT
  5
5BA
330
1F
100
AcDbEntity
  8
Layer1
 62
     7
370
    25
100
AcDbMText
 10
188.2202314205347
 20
-157.5075917887705
 30
0.0
 40
1.0
 41
26.075
 71
     1
 72
     1
  1
{\C7;\l\fPlotter|b0|i0|c00|p34;\H1.00x;  5" Dia cyl, Taper to 1.8"\P\l\fPlotter|b0|i0|c00|p34;\H0.75x;      (with 1/4" sheet overlap) \P}
 73
     1
 44
1.0
  0
MTEXT
  5
5BB
330
1F
100
AcDbEntity
  8
Layer1
 62
     7
370
    25
100
AcDbMText
 10
194.5953835067433
 20
-161.192787848608
 30
0.0
 40
1.333333373069763
 41
10.325
 71
     1
 72
     1
  1
{\C7;\l\fPlotter|b1|i0|c00|p34;\H1.00x;Cyclone\P}
 73
     1
 44
1.0
  0
LINE
  5
5BC
330
1F
100
AcDbEntity
  8
Layer1
 62
     7
370
    25
100
AcDbLine
 10
198.1477893788509
 20
-134.1376235327445
 30
0.0
 11
198.1477893788509
 21
-136.6626235327446
 31
0.0
  0
LINE
  5
5BD
330
1F
100
AcDbEntity
  8
Layer1
 62
     7
370
     9
100
AcDbLine
 10
204.8432893788509
 20
-134.1376235327445
 30
0.0
 11
204.4682893788509
 21
-134.1376235327445
 31
0.0
  0
LINE
  5
5BE
330
1F
100
AcDbEntity
  8
Layer1
 62
     7
370
     9
100
AcDbLine
 10
199.9822893788509
 20
-134.0126235327445
 30
0.0
 11
204.4682893788509
 21
-134.0126235327445
 31
0.0
  0
LINE
  5
5BF
330
1F
100
AcDbEntity
  8
Layer1
 62
     7
370
     9
100
AcDbLine
 10
204.4682893788509
 20
-134.1376235327445
 30
0.0
 11
204.4682893788509
 21
-134.0126235327445
 31
0.0
  0
LINE
  5
5C0
330
1F
100
AcDbEntity
  8
Layer1
 62
     7
370
     9
100
AcDbLine
 10
199.9822893788509
 20
-134.1376235327445
 30
0.0
 11
199.6072893788509
 21
-134.1376235327445
 31
0.0
  0
LINE
  5
5C1
330
1F
100
AcDbEntity
  8
Layer1
 62
     7
370
     9
100
AcDbLine
 10
199.9822893788509
 20
-134.1376235327445
 30
0.0
 11
199.9822893788509
 21
-134.0126235327445
 31
0.0
  0
LINE
  5
5C2
330
1F
100
AcDbEntity
  8
Layer1
 62
     7
370
     9
100
AcDbLine
 10
199.6072893788509
 20
-134.1376235327445
 30
0.0
 11
199.2322893788509
 21
-134.1376235327445
 31
0.0
  0
LINE
  5
5C3
330
1F
100
AcDbEntity
  8
Layer1
 62
     7
370
     9
100
AcDbLine
 10
199.2322893788509
 20
-134.1376235327445
 30
0.0
 11
199.2322893788509
 21
-134.0126235327445
 31
0.0
  0
LINE
  5
5C4
330
1F
100
AcDbEntity
  8
Layer1
 62
     7
370
     9
100
AcDbLine
 10
204.9682893788509
 20
-134.1376235327445
 30
0.0
 11
204.8432893788509
 21
-134.1376235327445
 31
0.0
  0
LINE
  5
5C5
330
1F
100
AcDbEntity
  8
Layer1
 62
     7
370
    25
100
AcDbLine
 10
199.4892893788509
 20
-142.2484722604591
 30
0.0
 11
197.880291371712
 21
-154.3262007636016
 31
0.0
  0
DIMENSION
  5
5C6
330
1F
100
AcDbEntity
  8
0
100
AcDbDimension
  2
*D58
 10
207.9316040452194
 20
-154.0126219023587
 30
0.0
 11
207.9316040452194
 21
-147.7813465438782
 31
0.0
 70
   160
  1
12.5
 71
     5
 42
10.81763871303568
  3
OdaDimStyle0
100
AcDbAlignedDimension
 13
197.0094906266404
 23
-141.5500711853976
 33
0.0
 14
196.9812137717541
 24
-154.0126219023587
 34
0.0
 50
270.0
100
AcDbRotatedDimension
1001
ACAD
1000
DSTYLE
1002
{
1070
    41
1040
1.0
1070
   140
1040
1.333333373069763
1002
}
  0
LINE
  5
5D4
330
1F
100
AcDbEntity
  8
Layer1
 62
     7
370
    25
100
AcDbLine
 10
206.382529735036
 20
-159.09943165052
 30
0.0
 11
206.382529735036
 21
-159.22443165052
 31
0.0
  0
LINE
  5
5D5
330
1F
100
AcDbEntity
  8
Layer1
 62
     7
370
    25
100
AcDbLine
 10
204.8752626125636
 20
-143.0505227882552
 30
0.0
 11
199.9502626125636
 21
-155.5505227882552
 31
0.0
  0
DIMENSION
  5
5D6
330
1F
100
AcDbEntity
  8
0
100
AcDbDimension
  2
*D59
 10
207.9682893788509
 20
-141.5126235327445
 30
0.0
 11
207.9682893788509
 21
-137.7626235327445
 31
0.0
 70
   160
 71
     5
 42
7.5
  3
OdaDimStyle0
100
AcDbAlignedDimension
 13
204.9682893788509
 23
-134.0126235327445
 33
0.0
 14
204.9682893788509
 24
-141.5126235327445
 34
0.0
 50
270.0
100
AcDbRotatedDimension
1001
ACAD
1000
DSTYLE
1002
{
1070
    41
1040
0.800000011920929
1070
   140
1040
1.333333373069763
1002
}
  0
LINE
  5
5E4
330
1F
100
AcDbEntity
  8
Layer1
 62
     7
370
    25
100
AcDbLine
 10
204.9682893788509
 20
-134.1376235327445
 30
0.0
 11
204.9682893788509
 21
-141.5126235327445
 31
0.0
  0
MTEXT
  5
5E5
330
1F
100
AcDbEntity
  8
Layer1
  6
Dotted_G
 62
     7
370
    25
100
AcDbMText
 10
253.8106823807643
 20
-136.3469044813696
 30
0.0
 40
0.8694444703559081
 41
10.325
 71
     1
 72
     1
  1
{\C7;\l\fArial|b0|i0|c00|p34;Bottom Plate\P}
 73
     1
 44
1.0
  0
MTEXT
  5
5E6
330
1F
100
AcDbEntity
  8
Layer1
  6
Dotted_G
 62
     7
370
    25
100
AcDbMText
 10
272.4604524816728
 20
-136.3361216037655
 30
0.0
 40
0.8694444703559081
 41
8.225
 71
     1
 72
     1
  1
{\C7;\l\fArial|b0|i0|c00|p34;Top Plate\P}
 73
     1
 44
1.0
  0
MTEXT
  5
5E7
330
1F
100
AcDbEntity
  8
Layer1
  6
Dotted_G
 62
     7
370
    25
100
AcDbMText
 10
264.3406937644558
 20
-144.3320342828014
 30
0.0
 40
0.8694444703559081
 41
10.325
 71
     1
 72
     1
  1
{\C7;\l\fArial|b0|i0|c00|p34;Side Cowling\P}
 73
     1
 44
1.0
  0
MTEXT
  5
5E8
330
1F
100
AcDbEntity
  8
Layer1
 62
     7
370
    25
100
AcDbMText
 10
254.8878611248863
 20
-161.5704517697893
 30
0.0
 40
1.333333373069763
 41
26.075
 71
     1
 72
     1
  1
{\C7;\l\fPlotter|b1|i0|c00|p34;Centrifugal Vac/Blower\P\l\fPlotter|b0|i0|c00|p34;\H0.75x; all pieces 16awg mild steel \P  except rotor plate, 11awg\P}
 73
     1
 44
1.0
  0
MTEXT
  5
5E9
330
1F
100
AcDbEntity
  8
Layer1
  6
Dotted_G
 62
     7
370
    25
100
AcDbMText
 10
266.7608095363059
 20
-157.7695119242845
 30
0.0
 40
0.8694444703559081
 41
7.04375
 71
     1
 72
     1
  1
{\C7;\l\fArial|b0|i0|c00|p34;\H1.00x;Rotor\P}
 73
     1
 44
1.0
  0
MTEXT
  5
5EA
330
1F
100
AcDbEntity
  8
Layer1
  6
Dotted_G
 62
     7
370
    25
100
AcDbMText
 10
248.4889579904917
 20
-157.9956810476543
 30
0.0
 40
0.8694444703559081
 41
14.525
 71
     1
 72
     1
  1
{\C7;\l\fArial|b0|i0|c00|p34;Motor Backing Plate\P}
 73
     1
 44
1.0
  0
MTEXT
  5
5EB
330
1F
100
AcDbEntity
  8
Layer1
  6
Dotted_G
 62
     7
370
    25
100
AcDbMText
 10
276.1992796784307
 20
-157.0683460363917
 30
0.0
 40
0.8694444703559081
 41
10.325
 71
     1
 72
     1
  1
{\C7;\l\fArial|b0|i0|c00|p34;Fan Blade x 5\P}
 73
     1
 44
1.0
  0
MTEXT
  5
5EC
330
1F
100
AcDbEntity
  8
Layer1
 62
     7
370
    25
100
AcDbMText
 10
162.7266304304968
 20
-87.9322968280342
 30
0.0
 40
2.666666746139526
 41
99.575
 71
     1
 72
     1
  1
{\C7;\l\fPlotter|b1|i0|c00|p34;\H1.00x;GEK Vessel Tubes v2.0: rolled from flat sheet\P\l\fPlotter|b0|i0|c00|p34;\H0.56x;          \l\fPlotter|b0|i0|c00|p34;\H1.04x;         (Cut from 1/16" thick mild steel sheet)\P}
 73
     1
 44
1.0
  0
MTEXT
  5
5ED
330
1F
100
AcDbEntity
  8
Layer1
 62
     7
370
    25
100
AcDbMText
 10
211.01445101167
 20
-141.954331461916
 30
0.0
 40
1.0
 41
10.325
 71
     1
 72
     1
  1
{\C7;\l\fPlotter|b0|i0|c00|p34;\H1.00x;Cyclone Inlet\l\fPlotter|b0|i0|c00|p34;\H0.75x; \P}
 73
     1
 44
1.0
  0
LINE
  5
5EE
330
1F
100
AcDbEntity
  8
Layer1
  6
Dotted_G
 62
     7
370
    25
100
AcDbLine
 10
215.3433335660084
 20
-137.0335133482507
 30
0.0
 11
221.2157857999924
 21
-137.5248713274495
 31
0.0
  0
LINE
  5
5EF
330
1F
100
AcDbEntity
  8
Layer1
  6
Dotted_G
 62
     7
370
    25
100
AcDbLine
 10
221.2157857999924
 20
-135.0260307828445
 30
0.0
 11
215.340785759332
 21
-135.0335149710811
 31
0.0
  0
LINE
  5
5F0
330
1F
100
AcDbEntity
  8
Layer1
  6
Dotted_G
 62
     7
370
    25
100
AcDbLine
 10
219.0899167333495
 20
-138.5260307828445
 30
0.0
 11
215.340785759332
 21
-139.0260307828445
 31
0.0
  0
LINE
  5
5F1
330
1F
100
AcDbEntity
  8
Layer1
 62
     7
370
    25
100
AcDbLine
 10
215.340785759332
 20
-141.0260307828445
 30
0.0
 11
219.0899167333496
 21
-140.8510307828445
 31
0.0
  0
LINE
  5
5F2
330
1F
100
AcDbEntity
  8
Layer1
 62
     7
370
    25
100
AcDbLine
 10
221.2157857999924
 20
-137.5248713274495
 30
0.0
 11
221.0907857999924
 21
-137.5248713274495
 31
0.0
  0
LINE
  5
5F3
330
1F
100
AcDbEntity
  8
Layer1
 62
     7
370
    25
100
AcDbLine
 10
219.0899167333495
 20
-138.5260307828445
 30
0.0
 11
219.0899167333496
 21
-140.8510307828445
 31
0.0
  0
ARC
  5
5F4
330
1F
100
AcDbEntity
  8
Layer1
 62
     7
370
    25
100
AcDbCircle
 10
-221.0907857999924
 20
-140.0248713274495
 30
0.0
 40
2.500000000000066
210
0.0
220
0.0
230
-1.0
100
AcDbArc
 50
36.83668891159169
 51
89.99999999999935
  0
LINE
  5
5F5
330
1F
100
AcDbEntity
  8
Layer1
 62
     7
370
    25
100
AcDbLine
 10
215.340785759332
 20
-133.0335149710811
 30
0.0
 11
215.340785759332
 21
-141.0260307828445
 31
0.0
  0
ARC
  5
5F6
330
1F
100
AcDbEntity
  8
Layer1
 62
     7
370
    25
100
AcDbCircle
 10
-221.1826684811868
 20
-132.5777543334016
 30
0.0
 40
2.450000000000055
210
0.0
220
0.0
230
-1.0
100
AcDbArc
 50
272.1492753859728
 51
328.6697458364566
  0
LINE
  5
5F7
330
1F
100
AcDbEntity
  8
Layer1
 62
     7
370
    25
100
AcDbLine
 10
215.340785759332
 20
-133.0335149710811
 30
0.0
 11
219.0899167333496
 21
-133.8516813807337
 31
0.0
  0
LINE
  5
5F8
330
1F
100
AcDbEntity
  8
Layer1
  6
Dotted_G
 62
     7
370
    25
100
AcDbLine
 10
211.7154867928588
 20
-138.4281622615341
 30
0.0
 11
213.7835979200211
 21
-138.4281622615341
 31
0.0
  0
ARC
  5
5F9
330
1F
100
AcDbEntity
  8
Layer1
 62
     7
370
    25
100
AcDbCircle
 10
204.4085979200211
 20
-135.4281622615341
 30
0.0
 40
7.374999999999962
100
AcDbArc
 50
352.2070756645776
 51
7.792924335422411
  0
ARC
  5
5FA
330
1F
100
AcDbEntity
  8
Layer1
 62
     7
370
    25
100
AcDbCircle
 10
204.4085979200211
 20
-139.4281622615341
 30
0.0
 40
7.374999999999965
100
AcDbArc
 50
352.2070756645774
 51
7.792924335422411
  0
LINE
  5
5FB
330
1F
100
AcDbEntity
  8
Layer1
  6
Dotted_G
 62
     7
370
    25
100
AcDbLine
 10
211.7154867928588
 20
-134.4281622615341
 30
0.0
 11
213.7835979200211
 21
-134.4281622615341
 31
0.0
  0
LINE
  5
5FC
330
1F
100
AcDbEntity
  8
Layer1
 62
     7
370
    25
100
AcDbLine
 10
211.7154867928588
 20
-140.4281622615341
 30
0.0
 11
213.7835979200211
 21
-140.4281622615341
 31
0.0
  0
LINE
  5
5FD
330
1F
100
AcDbEntity
  8
Layer1
 62
     7
370
    25
100
AcDbLine
 10
211.7154867928588
 20
-136.4281622615341
 30
0.0
 11
211.7154867928588
 21
-138.4281622615341
 31
0.0
  0
ENDSEC
  0
SECTION
  2
OBJECTS
  0
DICTIONARY
  5
C
330
0
100
AcDbDictionary
281
     1
  3
ACAD_GROUP
350
D
  3
ACAD_LAYOUT
350
1A
  3
ACAD_MLEADERSTYLE
350
601
  3
ACAD_MLINESTYLE
350
17
  3
ACAD_PLOTSETTINGS
350
19
  3
ACAD_PLOTSTYLENAME
350
E
  3
ACAD_SCALELIST
350
70
  3
ACAD_TABLESTYLE
350
600
  3
ACAD_VISUALSTYLE
350
2A
  3
AcDbVariableDictionary
350
5FE
  0
DICTIONARY
  5
D
102
{ACAD_REACTORS
330
C
102
}
330
C
100
AcDbDictionary
281
     1
  0
DICTIONARY
  5
1A
102
{ACAD_REACTORS
330
C
102
}
330
C
100
AcDbDictionary
281
     1
  3
Layout1
350
1E
  3
Layout2
350
26
  3
Model
350
22
  0
DICTIONARY
  5
601
102
{ACAD_REACTORS
330
C
102
}
330
C
100
AcDbDictionary
281
     1
  0
DICTIONARY
  5
17
102
{ACAD_REACTORS
330
C
102
}
330
C
100
AcDbDictionary
281
     1
  3
Standard
350
18
  0
DICTIONARY
  5
19
102
{ACAD_REACTORS
330
C
102
}
330
C
100
AcDbDictionary
281
     1
  0
ACDBDICTIONARYWDFLT
  5
E
102
{ACAD_REACTORS
330
C
102
}
330
C
100
AcDbDictionary
281
     1
  3
Normal
350
F
100
AcDbDictionaryWithDefault
340
F
  0
DICTIONARY
  5
70
102
{ACAD_REACTORS
330
C
102
}
330
C
100
AcDbDictionary
281
     1
  3
A0
350
71
  3
A1
350
72
  3
A2
350
73
  3
A3
350
74
  3
A4
350
75
  3
A5
350
76
  3
A6
350
77
  3
A7
350
78
  3
A8
350
79
  3
A9
350
7A
  3
B0
350
7B
  3
B1
350
7C
  3
B2
350
7D
  3
B3
350
7E
  3
B4
350
7F
  3
B5
350
80
  3
B6
350
81
  3
B7
350
82
  3
B8
350
83
  3
B9
350
84
  3
C0
350
85
  3
C1
350
86
  3
C2
350
87
  3
C3
350
88
  3
C4
350
89
  3
C5
350
8A
  3
C6
350
8B
  3
C7
350
8C
  3
C8
350
8D
  3
C9
350
8E
  3
D0
350
8F
  3
D1
350
90
  3
D2
350
91
  0
DICTIONARY
  5
600
102
{ACAD_REACTORS
330
C
102
}
330
C
100
AcDbDictionary
281
     1
  0
DICTIONARY
  5
2A
102
{ACAD_REACTORS
330
C
102
}
330
C
100
AcDbDictionary
281
     1
  3
2dWireframe
350
2F
  3
3D Hidden
350
31
  3
3dWireframe
350
30
  3
Basic
350
32
  3
Brighten
350
36
  3
ColorChange
350
3A
  3
Conceptual
350
34
  3
Dim
350
35
  3
Facepattern
350
39
  3
Flat
350
2B
  3
FlatWithEdges
350
2C
  3
Gouraud
350
2D
  3
GouraudWithEdges
350
2E
  3
Linepattern
350
38
  3
Realistic
350
33
  3
Thicken
350
37
  0
DICTIONARY
  5
5FE
102
{ACAD_REACTORS
330
C
102
}
330
C
100
AcDbDictionary
281
     1
  3
CANNOSCALE
350
5FF
  0
LAYOUT
  5
1E
102
{ACAD_REACTORS
330
1A
102
}
330
1A
100
AcDbPlotSettings
  1

  2
none_device
  4

  6

 40
0.0
 41
0.0
 42
0.0
 43
0.0
 44
0.0
 45
0.0
 46
0.0
 47
0.0
 48
0.0
 49
0.0
140
0.0
141
0.0
142
1.0
143
1.0
 70
   688
 72
     0
 73
     0
 74
     5
  7

 75
    16
 76
     0
 77
     2
 78
   300
147
1.0
148
0.0
149
0.0
100
AcDbLayout
  1
Layout1
 70
     1
 71
     1
 10
0.0
 20
0.0
 11
12.0
 21
9.0
 12
0.0
 22
0.0
 32
0.0
 14
1.000000000000000E+20
 24
1.000000000000000E+20
 34
1.000000000000000E+20
 15
-1.000000000000000E+20
 25
-1.000000000000000E+20
 35
-1.000000000000000E+20
146
0.0
 13
0.0
 23
0.0
 33
0.0
 16
1.0
 26
0.0
 36
0.0
 17
0.0
 27
1.0
 37
0.0
 76
     0
330
1B
  0
LAYOUT
  5
26
102
{ACAD_REACTORS
330
1A
102
}
330
1A
100
AcDbPlotSettings
  1

  2
none_device
  4

  6

 40
0.0
 41
0.0
 42
0.0
 43
0.0
 44
0.0
 45
0.0
 46
0.0
 47
0.0
 48
0.0
 49
0.0
140
0.0
141
0.0
142
1.0
143
1.0
 70
   688
 72
     0
 73
     0
 74
     5
  7

 75
    16
 76
     0
 77
     2
 78
   300
147
1.0
148
0.0
149
0.0
100
AcDbLayout
  1
Layout2
 70
     1
 71
     2
 10
0.0
 20
0.0
 11
0.0
 21
0.0
 12
0.0
 22
0.0
 32
0.0
 14
0.0
 24
0.0
 34
0.0
 15
0.0
 25
0.0
 35
0.0
146
0.0
 13
0.0
 23
0.0
 33
0.0
 16
1.0
 26
0.0
 36
0.0
 17
0.0
 27
1.0
 37
0.0
 76
     0
330
23
  0
LAYOUT
  5
22
102
{ACAD_REACTORS
330
1A
102
}
330
1A
100
AcDbPlotSettings
  1

  2
none_device
  4

  6

 40
0.0
 41
0.0
 42
0.0
 43
0.0
 44
0.0
 45
0.0
 46
0.0
 47
0.0
 48
0.0
 49
0.0
140
0.0
141
0.0
142
1.0
143
1.0
 70
  1712
 72
     0
 73
     0
 74
     0
  7

 75
     0
 76
     0
 77
     2
 78
   300
147
1.0
148
0.0
149
0.0
100
AcDbLayout
  1
Model
 70
     1
 71
     0
 10
0.0
 20
0.0
 11
12.0
 21
9.0
 12
0.0
 22
0.0
 32
0.0
 14
1.000000000000000E+20
 24
1.000000000000000E+20
 34
1.000000000000000E+20
 15
-1.000000000000000E+20
 25
-1.000000000000000E+20
 35
-1.000000000000000E+20
146
0.0
 13
0.0
 23
0.0
 33
0.0
 16
1.0
 26
0.0
 36
0.0
 17
0.0
 27
1.0
 37
0.0
 76
     0
330
1F
331
29
  0
MLINESTYLE
  5
18
102
{ACAD_REACTORS
330
17
102
}
330
17
100
AcDbMlineStyle
  2
Standard
 70
     0
  3

 62
   256
 51
90.0
 52
90.0
 71
     2
 49
0.5
 62
   256
  6
BYLAYER
 49
-0.5
 62
   256
  6
BYLAYER
  0
ACDBPLACEHOLDER
  5
F
102
{ACAD_REACTORS
330
E
102
}
330
E
  0
SCALE
  5
71
102
{ACAD_REACTORS
330
70
102
}
330
70
100
AcDbScale
 70
     0
300
1:1
140
1.0
141
1.0
290
     1
  0
SCALE
  5
72
102
{ACAD_REACTORS
330
70
102
}
330
70
100
AcDbScale
 70
     0
300
1:2
140
1.0
141
2.0
290
     0
  0
SCALE
  5
73
102
{ACAD_REACTORS
330
70
102
}
330
70
100
AcDbScale
 70
     0
300
1:4
140
1.0
141
4.0
290
     0
  0
SCALE
  5
74
102
{ACAD_REACTORS
330
70
102
}
330
70
100
AcDbScale
 70
     0
300
1:5
140
1.0
141
5.0
290
     0
  0
SCALE
  5
75
102
{ACAD_REACTORS
330
70
102
}
330
70
100
AcDbScale
 70
     0
300
1:8
140
1.0
141
8.0
290
     0
  0
SCALE
  5
76
102
{ACAD_REACTORS
330
70
102
}
330
70
100
AcDbScale
 70
     0
300
1:10
140
1.0
141
10.0
290
     0
  0
SCALE
  5
77
102
{ACAD_REACTORS
330
70
102
}
330
70
100
AcDbScale
 70
     0
300
1:16
140
1.0
141
16.0
290
     0
  0
SCALE
  5
78
102
{ACAD_REACTORS
330
70
102
}
330
70
100
AcDbScale
 70
     0
300
1:20
140
1.0
141
20.0
290
     0
  0
SCALE
  5
79
102
{ACAD_REACTORS
330
70
102
}
330
70
100
AcDbScale
 70
     0
300
1:30
140
1.0
141
30.0
290
     0
  0
SCALE
  5
7A
102
{ACAD_REACTORS
330
70
102
}
330
70
100
AcDbScale
 70
     0
300
1:40
140
1.0
141
40.0
290
     0
  0
SCALE
  5
7B
102
{ACAD_REACTORS
330
70
102
}
330
70
100
AcDbScale
 70
     0
300
1:50
140
1.0
141
50.0
290
     0
  0
SCALE
  5
7C
102
{ACAD_REACTORS
330
70
102
}
330
70
100
AcDbScale
 70
     0
300
1:100
140
1.0
141
100.0
290
     0
  0
SCALE
  5
7D
102
{ACAD_REACTORS
330
70
102
}
330
70
100
AcDbScale
 70
     0
300
2:1
140
2.0
141
1.0
290
     0
  0
SCALE
  5
7E
102
{ACAD_REACTORS
330
70
102
}
330
70
100
AcDbScale
 70
     0
300
4:1
140
4.0
141
1.0
290
     0
  0
SCALE
  5
7F
102
{ACAD_REACTORS
330
70
102
}
330
70
100
AcDbScale
 70
     0
300
8:1
140
8.0
141
1.0
290
     0
  0
SCALE
  5
80
102
{ACAD_REACTORS
330
70
102
}
330
70
100
AcDbScale
 70
     0
300
10:1
140
10.0
141
1.0
290
     0
  0
SCALE
  5
81
102
{ACAD_REACTORS
330
70
102
}
330
70
100
AcDbScale
 70
     0
300
100:1
140
100.0
141
1.0
290
     0
  0
SCALE
  5
82
102
{ACAD_REACTORS
330
70
102
}
330
70
100
AcDbScale
 70
     0
300
1/128" = 1'-0"
140
0.0078125
141
12.0
290
     0
  0
SCALE
  5
83
102
{ACAD_REACTORS
330
70
102
}
330
70
100
AcDbScale
 70
     0
300
1/64" = 1'-0"
140
0.015625
141
12.0
290
     0
  0
SCALE
  5
84
102
{ACAD_REACTORS
330
70
102
}
330
70
100
AcDbScale
 70
     0
300
1/32" = 1'-0"
140
0.03125
141
12.0
290
     0
  0
SCALE
  5
85
102
{ACAD_REACTORS
330
70
102
}
330
70
100
AcDbScale
 70
     0
300
1/16" = 1'-0"
140
0.0625
141
12.0
290
     0
  0
SCALE
  5
86
102
{ACAD_REACTORS
330
70
102
}
330
70
100
AcDbScale
 70
     0
300
3/32" = 1'-0"
140
0.09375
141
12.0
290
     0
  0
SCALE
  5
87
102
{ACAD_REACTORS
330
70
102
}
330
70
100
AcDbScale
 70
     0
300
1/8" = 1'-0"
140
0.125
141
12.0
290
     0
  0
SCALE
  5
88
102
{ACAD_REACTORS
330
70
102
}
330
70
100
AcDbScale
 70
     0
300
3/16" = 1'-0"
140
0.1875
141
12.0
290
     0
  0
SCALE
  5
89
102
{ACAD_REACTORS
330
70
102
}
330
70
100
AcDbScale
 70
     0
300
1/4" = 1'-0"
140
0.25
141
12.0
290
     0
  0
SCALE
  5
8A
102
{ACAD_REACTORS
330
70
102
}
330
70
100
AcDbScale
 70
     0
300
3/8" = 1'-0"
140
0.375
141
12.0
290
     0
  0
SCALE
  5
8B
102
{ACAD_REACTORS
330
70
102
}
330
70
100
AcDbScale
 70
     0
300
1/2" = 1'-0"
140
0.5
141
12.0
290
     0
  0
SCALE
  5
8C
102
{ACAD_REACTORS
330
70
102
}
330
70
100
AcDbScale
 70
     0
300
3/4" = 1'-0"
140
0.75
141
12.0
290
     0
  0
SCALE
  5
8D
102
{ACAD_REACTORS
330
70
102
}
330
70
100
AcDbScale
 70
     0
300
1" = 1'-0"
140
1.0
141
12.0
290
     0
  0
SCALE
  5
8E
102
{ACAD_REACTORS
330
70
102
}
330
70
100
AcDbScale
 70
     0
300
1-1/2" = 1'-0"
140
1.5
141
12.0
290
     0
  0
SCALE
  5
8F
102
{ACAD_REACTORS
330
70
102
}
330
70
100
AcDbScale
 70
     0
300
3" = 1'-0"
140
3.0
141
12.0
290
     0
  0
SCALE
  5
90
102
{ACAD_REACTORS
330
70
102
}
330
70
100
AcDbScale
 70
     0
300
6" = 1'-0"
140
6.0
141
12.0
290
     0
  0
SCALE
  5
91
102
{ACAD_REACTORS
330
70
102
}
330
70
100
AcDbScale
 70
     0
300
1'-0" = 1'-0"
140
12.0
141
12.0
290
     0
  0
VISUALSTYLE
  5
2F
102
{ACAD_REACTORS
330
2A
102
}
330
2A
100
AcDbVisualStyle
  2
2dWireframe
 70
     4
 71
     0
 72
     2
 73
     0
 90
        0
 40
-0.6
 41
-30.0
 62
     5
 63
     7
421
 16777215
 74
     1
 91
        4
 64
     7
 65
   257
 75
     1
175
     1
 42
1.0
 92
        0
 66
   257
 43
1.0
 76
     1
 77
     6
 78
     2
 67
     7
 79
     5
170
     0
171
     0
290
     0
174
     0
 93
        1
 44
0.0
173
     0
291
     0
 45
0.0
1001
ACAD
1000
AcDbSavedByObjectVersion
1070
     0
  0
VISUALSTYLE
  5
31
102
{ACAD_REACTORS
330
2A
102
}
330
2A
100
AcDbVisualStyle
  2
3D Hidden
 70
     6
 71
     1
 72
     2
 73
     2
 90
        0
 40
-0.6
 41
-30.0
 62
     5
 63
     7
421
 16777215
 74
     2
 91
        2
 64
     7
 65
   257
 75
     2
175
     1
 42
40.0
 92
        0
 66
   257
 43
1.0
 76
     1
 77
     6
 78
     2
 67
     7
 79
     3
170
     0
171
     0
290
     0
174
     0
 93
        1
 44
0.0
173
     0
291
     0
 45
0.0
1001
ACAD
1000
AcDbSavedByObjectVersion
1070
     0
  0
VISUALSTYLE
  5
30
102
{ACAD_REACTORS
330
2A
102
}
330
2A
100
AcDbVisualStyle
  2
3dWireframe
 70
     5
 71
     0
 72
     2
 73
     0
 90
        0
 40
-0.6
 41
-30.0
 62
     5
 63
     7
421
 16777215
 74
     1
 91
        4
 64
     7
 65
   257
 75
     1
175
     1
 42
1.0
 92
        0
 66
   257
 43
1.0
 76
     1
 77
     6
 78
     2
 67
     7
 79
     5
170
     0
171
     0
290
     0
174
     0
 93
        1
 44
0.0
173
     0
291
     0
 45
0.0
1001
ACAD
1000
AcDbSavedByObjectVersion
1070
     0
  0
VISUALSTYLE
  5
32
102
{ACAD_REACTORS
330
2A
102
}
330
2A
100
AcDbVisualStyle
  2
Basic
 70
     7
 71
     1
 72
     0
 73
     1
 90
        0
 40
-0.6
 41
-30.0
 62
     5
 63
     7
421
 16777215
 74
     0
 91
        4
 64
     7
 65
   257
 75
     1
175
     1
 42
1.0
 92
        8
 66
     7
 43
1.0
 76
     1
 77
     6
 78
     2
 67
     7
 79
     5
170
     0
171
     0
290
     0
174
     0
 93
        1
 44
0.0
173
     0
291
     1
 45
0.0
1001
ACAD
1000
AcDbSavedByObjectVersion
1070
     0
  0
VISUALSTYLE
  5
36
102
{ACAD_REACTORS
330
2A
102
}
330
2A
100
AcDbVisualStyle
  2
Brighten
 70
    12
 71
     2
 72
     2
 73
     0
 90
        0
 40
-0.6
 41
-30.0
 62
     5
 63
     7
421
 16777215
 74
     1
 91
        4
 64
     7
 65
   257
 75
     1
175
     1
 42
1.0
 92
        8
 66
     7
 43
1.0
 76
     1
 77
     6
 78
     2
 67
     7
 79
     5
170
     0
171
     0
290
     0
174
     0
 93
        1
 44
50.0
173
     0
291
     1
 45
0.0
1001
ACAD
1000
AcDbSavedByObjectVersion
1070
     0
  0
VISUALSTYLE
  5
3A
102
{ACAD_REACTORS
330
2A
102
}
330
2A
100
AcDbVisualStyle
  2
ColorChange
 70
    16
 71
     2
 72
     2
 73
     3
 90
        0
 40
-0.6
 41
-30.0
 62
     5
 63
     8
421
  8421504
 74
     1
 91
        4
 64
     7
 65
   257
 75
     1
175
     1
 42
1.0
 92
        8
 66
     8
424
  8421504
 43
1.0
 76
     1
 77
     6
 78
     2
 67
     7
 79
     5
170
     0
171
     0
290
     0
174
     0
 93
        1
 44
0.0
173
     0
291
     1
 45
0.0
1001
ACAD
1000
AcDbSavedByObjectVersion
1070
     0
  0
VISUALSTYLE
  5
34
102
{ACAD_REACTORS
330
2A
102
}
330
2A
100
AcDbVisualStyle
  2
Conceptual
 70
     9
 71
     3
 72
     2
 73
     0
 90
        0
 40
-0.6
 41
-30.0
 62
     5
 63
     7
421
 16777215
 74
     2
 91
        2
 64
     7
 65
   257
 75
     1
175
     1
 42
40.0
 92
        8
 66
     7
 43
1.0
 76
     1
 77
     6
 78
     2
 67
     7
 79
     3
170
     0
171
     0
290
     0
174
     0
 93
        1
 44
0.0
173
     0
291
     0
 45
0.0
1001
ACAD
1000
AcDbSavedByObjectVersion
1070
     0
  0
VISUALSTYLE
  5
35
102
{ACAD_REACTORS
330
2A
102
}
330
2A
100
AcDbVisualStyle
  2
Dim
 70
    11
 71
     2
 72
     2
 73
     0
 90
        0
 40
-0.6
 41
-30.0
 62
     5
 63
     7
421
 16777215
 74
     1
 91
        4
 64
     7
 65
   257
 75
     1
175
     1
 42
1.0
 92
        8
 66
     7
 43
1.0
 76
     1
 77
     6
 78
     2
 67
     7
 79
     5
170
     0
171
     0
290
     0
174
     0
 93
        1
 44
-50.0
173
     0
291
     1
 45
0.0
1001
ACAD
1000
AcDbSavedByObjectVersion
1070
     0
  0
VISUALSTYLE
  5
39
102
{ACAD_REACTORS
330
2A
102
}
330
2A
100
AcDbVisualStyle
  2
Facepattern
 70
    15
 71
     2
 72
     2
 73
     0
 90
        0
 40
-0.6
 41
-30.0
 62
     5
 63
     7
421
 16777215
 74
     1
 91
        4
 64
     7
 65
   257
 75
     1
175
     1
 42
1.0
 92
        8
 66
     7
 43
1.0
 76
     1
 77
     6
 78
     2
 67
     7
 79
     5
170
     0
171
     0
290
     0
174
     0
 93
        1
 44
0.0
173
     0
291
     1
 45
0.0
1001
ACAD
1000
AcDbSavedByObjectVersion
1070
     0
  0
VISUALSTYLE
  5
2B
102
{ACAD_REACTORS
330
2A
102
}
330
2A
100
AcDbVisualStyle
  2
Flat
 70
     0
 71
     2
 72
     1
 73
     1
 90
        2
 40
-0.6
 41
30.0
 62
     5
 63
     7
421
 16777215
 74
     0
 91
        4
 64
     7
 65
   257
 75
     1
175
     1
 42
1.0
 92
        8
 66
     7
 43
1.0
 76
     1
 77
     6
 78
     2
 67
     7
 79
     5
170
     0
171
     0
290
     0
174
     0
 93
       13
 44
0.0
173
     0
291
     1
 45
0.0
1001
ACAD
1000
AcDbSavedByObjectVersion
1070
     0
  0
VISUALSTYLE
  5
2C
102
{ACAD_REACTORS
330
2A
102
}
330
2A
100
AcDbVisualStyle
  2
FlatWithEdges
 70
     1
 71
     2
 72
     1
 73
     1
 90
        2
 40
-0.6
 41
30.0
 62
     5
 63
     7
421
 16777215
 74
     1
 91
        4
 64
     7
 65
   257
 75
     1
175
     1
 42
1.0
 92
        0
 66
   257
 43
1.0
 76
     1
 77
     6
 78
     2
 67
     7
 79
     5
170
     0
171
     0
290
     0
174
     0
 93
       13
 44
0.0
173
     0
291
     1
 45
0.0
1001
ACAD
1000
AcDbSavedByObjectVersion
1070
     0
  0
VISUALSTYLE
  5
2D
102
{ACAD_REACTORS
330
2A
102
}
330
2A
100
AcDbVisualStyle
  2
Gouraud
 70
     2
 71
     2
 72
     2
 73
     1
 90
        2
 40
-0.6
 41
30.0
 62
     5
 63
     7
421
 16777215
 74
     0
 91
        4
 64
     7
 65
   257
 75
     1
175
     1
 42
1.0
 92
        0
 66
     7
 43
1.0
 76
     1
 77
     6
 78
     2
 67
     7
 79
     5
170
     0
171
     0
290
     0
174
     0
 93
       13
 44
0.0
173
     0
291
     1
 45
0.0
1001
ACAD
1000
AcDbSavedByObjectVersion
1070
     0
  0
VISUALSTYLE
  5
2E
102
{ACAD_REACTORS
330
2A
102
}
330
2A
100
AcDbVisualStyle
  2
GouraudWithEdges
 70
     3
 71
     2
 72
     2
 73
     1
 90
        2
 40
-0.6
 41
30.0
 62
     5
 63
     7
421
 16777215
 74
     1
 91
        4
 64
     7
 65
   257
 75
     1
175
     1
 42
1.0
 92
        0
 66
   257
 43
1.0
 76
     1
 77
     6
 78
     2
 67
     7
 79
     5
170
     0
171
     0
290
     0
174
     0
 93
       13
 44
0.0
173
     0
291
     1
 45
0.0
1001
ACAD
1000
AcDbSavedByObjectVersion
1070
     0
  0
VISUALSTYLE
  5
38
102
{ACAD_REACTORS
330
2A
102
}
330
2A
100
AcDbVisualStyle
  2
Linepattern
 70
    14
 71
     2
 72
     2
 73
     0
 90
        0
 40
-0.6
 41
-30.0
 62
     5
 63
     7
421
 16777215
 74
     1
 91
        4
 64
     7
 65
   257
 75
     7
175
     7
 42
1.0
 92
        8
 66
     7
 43
1.0
 76
     1
 77
     6
 78
     2
 67
     7
 79
     5
170
     0
171
     0
290
     0
174
     0
 93
        1
 44
0.0
173
     0
291
     1
 45
0.0
1001
ACAD
1000
AcDbSavedByObjectVersion
1070
     0
  0
VISUALSTYLE
  5
33
102
{ACAD_REACTORS
330
2A
102
}
330
2A
100
AcDbVisualStyle
  2
Realistic
 70
     8
 71
     2
 72
     2
 73
     0
 90
        0
 40
-0.6
 41
-30.0
 62
     5
 63
     7
421
 16777215
 74
     1
 91
        0
 64
     7
 65
   257
 75
     1
175
     1
 42
1.0
 92
        8
 66
     8
424
  7895160
 43
1.0
 76
     1
 77
     6
 78
     2
 67
     7
 79
     5
170
     0
171
     0
290
     0
174
     0
 93
       13
 44
0.0
173
     0
291
     0
 45
0.0
1001
ACAD
1000
AcDbSavedByObjectVersion
1070
     0
  0
VISUALSTYLE
  5
37
102
{ACAD_REACTORS
330
2A
102
}
330
2A
100
AcDbVisualStyle
  2
Thicken
 70
    13
 71
     2
 72
     2
 73
     0
 90
        0
 40
-0.6
 41
-30.0
 62
     5
 63
     7
421
 16777215
 74
     1
 91
        4
 64
     7
 65
   257
 75
     1
175
     1
 42
1.0
 92
       12
 66
     7
 43
1.0
 76
     1
 77
     6
 78
     2
 67
     7
 79
     5
170
     0
171
     0
290
     0
174
     0
 93
        1
 44
0.0
173
     0
291
     1
 45
0.0
1001
ACAD
1000
AcDbSavedByObjectVersion
1070
     0
  0
DICTIONARYVAR
  5
5FF
102
{ACAD_REACTORS
330
5FE
102
}
330
5FE
100
DictionaryVariables
280
     0
  1
1:1
  0
ENDSEC
  0
EOF
